#TITLE:STARSTRUKK;
#SUBTITLE:[feat. Katy Perry];
#ARTIST:3OH!3;
#TITLETRANSLIT:;
#SUBTITLETRANSLIT:;
#ARTISTTRANSLIT:;
#GENRE:Pop;
#CREDIT:Blood4Fame;
#MUSIC:music.mp3;
#BANNER:banner.png;
#BACKGROUND:bg.png;
#CDTITLE:;
#SAMPLESTART:0.000;
#SAMPLELENGTH:0.000;
#SELECTABLE:YES;
#OFFSET:-0.091;
#BPMS:0.000=140.000
,40.000=280.000
,44.000=280.000
,48.000=140.000
,77.000=280.000
,77.500=280.000
,79.000=140.000
,112.000=140.000
,114.250=140.000
,114.500=140.000
,115.000=70.000
,116.000=140.000
,149.000=280.000
,151.000=140.000
,154.000=280.000
,156.000=140.000
,157.000=280.000
,158.000=140.000
,167.000=280.000
,169.000=140.000
,172.000=280.000
,174.000=140.000
,184.000=70.000
,192.000=140.000
,256.000=280.000
,256.500=280.000
,260.000=280.000
,261.250=140.000
,295.000=280.000
,297.000=140.000
,300.000=280.000
,302.000=140.000
,313.000=280.000
,315.000=140.000
,318.000=280.000
,320.000=140.000
;
#STOPS:40.000=0.214
,41.000=0.214
,42.000=0.214
,43.000=0.214
,44.000=0.107
,44.500=0.107
,45.000=0.107
,45.500=0.107
,46.000=0.054
,46.250=0.054
,46.500=0.054
,46.750=0.054
,47.000=0.054
,47.250=0.054
,47.500=0.054
,47.750=0.054
,77.000=0.054
,77.250=0.054
,77.500=0.107
,78.000=0.107
,78.500=0.107
,112.000=0.214
,112.500=0.214
,113.000=0.214
,113.500=0.214
,114.000=0.107
,114.250=0.054
,114.375=0.054
,114.500=0.107
,114.750=0.107
,157.000=0.054
,157.250=0.054
,157.500=0.054
,157.750=0.054
,256.000=0.107
,256.500=0.107
,257.000=0.107
,257.500=0.107
,258.000=0.107
,258.500=0.107
,259.000=0.107
,259.500=0.107
,260.000=0.054
,260.250=0.054
,260.500=0.054
,260.750=0.054
,261.000=0.054
,261.250=0.852
;
#BGCHANGES:;
#FGCHANGES:;

//--------------- dance-single - Blood4Fame ----------------
#NOTES:
     dance-single:
     Blood4Fame:
     Beginner:
     3:
     0,0,0,0,0:
0000
0000
0000
0000
,
0000
0000
0000
0000
,
0000
0000
0000
0000
,
0000
0000
0000
0000
,
1001
0000
0000
0000
,
1001
0000
0000
0000
,
1001
0000
0000
0000
,
1001
0000
0000
0000
,
0010
0000
0010
0000
,
0100
0000
0100
0000
,
0010
0010
0010
0010
,
0100
0100
0000
0000
,
0010
0010
0010
0000
,
1000
0000
0100
0100
,
0000
0001
0000
0000
,
1000
1000
1000
1000
,
0000
0001
0000
0100
,
0000
0000
0010
0010
,
0000
0001
0000
0000
,
0010
0010
0000
0000
,
0100
0000
0010
0000
,
0100
0000
0010
0000
,
0001
0000
1000
0000
,
0001
0000
1000
0000
,
0100
0000
0001
0000
,
0100
0000
0001
0000
,
1000
0000
0010
0000
,
1000
0000
0010
0000
,
0100
0000
0001
0000
,
1000
1000
1000
0000
,
0001
0001
0001
0000
,
0010
0010
0010
0000
,
0100
0100
0100
0000
,
0001
0001
0001
0000
,
1000
1000
1000
0000
,
0100
0100
0100
0000
,
0010
0010
0010
0000
,
1000
0000
0000
0001
,
0000
1000
0000
0000
,
0001
0000
0010
0010
,
0010
0000
0100
0100
,
0100
0000
0001
0000
,
0000
1000
0000
0010
,
0000
0000
0100
0000
,
0001
0001
0001
0000
,
1000
1000
1000
0000
,
0100
0000
0010
0000
,
0100
0000
0001
0000
,
1000
0000
1000
0000
,
0001
0000
0001
0000
,
0100
0000
0100
0000
,
0010
0000
0010
0000
,
1000
0000
1000
0000
,
0001
0000
0001
0000
,
0010
0000
0000
0000
,
0100
0100
0100
0100
,
0000
0010
0000
0010
,
0000
0000
0100
0100
,
0000
0001
0000
0001
,
0000
0000
0010
0010
,
0000
1000
0000
0100
,
0000
0000
1000
1000
,
0000
0010
0000
0001
,
0200
0000
0000
0300
,
0000
0000
0000
0000
,
0001
0000
0100
0100
,
0100
0000
0001
0001
,
0001
0000
1000
0000
,
0010
0000
1000
0000
,
0100
0000
0001
0001
,
0001
0000
1000
1000
,
1000
0000
0010
0000
,
0100
0000
1000
0000
,
0001
0000
1000
0000
,
0000
0000
0010
0100
,
0000
0000
0000
0001
,
1000
0000
0100
0000
,
0001
0000
0010
0000
,
1000
0000
0000
0000
,
0010
0100
0000
0000
,
0000
0010
1000
0000
,
0001
0000
1000
0000
,
0001
0000
0100
0000
;

//--------------- dance-single - Blood4Fame ----------------
#NOTES:
     dance-single:
     Blood4Fame:
     Easy:
     4:
     0,0,0,0,0:
0000
0000
0000
0000
,
0000
0000
0000
0000
,
0000
0000
0000
0000
,
0000
0000
0000
0000
,
0002
0000
0000
0003
,
0200
0000
0300
0000
,
0020
0000
0000
0030
,
2000
0000
3020
0000
,
0230
0000
0300
1000
,
0200
0000
0300
0001
,
1001
0000
0110
0000
,
1001
0000
0000
0000
,
1100
0000
0011
0000
,
1000
0000
0001
1000
,
0000
0100
0010
0000
,
1000
0100
1000
0100
,
1100
0000
1001
0000
,
0010
0000
0001
1000
,
0000
1000
0010
0000
,
0001
2200
0000
3300
,
1000
0000
0100
0000
0100
0000
0000
0010
,
0000
0000
0100
0000
1000
0000
0000
0010
,
0000
0000
0010
0000
0001
0000
0000
0100
,
0000
0002
0203
0320
,
2030
0000
3000
0000
1000
0000
0000
0100
,
0000
0000
0001
0000
0010
0000
0000
0010
,
0000
0000
0100
0000
1000
0000
0000
0100
,
0000
0100
0100
0100
,
0002
0000
0000
0000
0000
0000
0000
0003
0001
0000
0000
0000
0000
0000
0000
0000
,
1000
1000
0000
0100
,
0100
0100
0000
0100
,
0010
0010
0010
0010
,
0100
0100
0100
0100
,
0000
0010
0000
0100
,
0001
0001
0000
0100
,
0001
0100
0001
0100
,
1000
0100
1000
0100
,
0000
0200
0000
0300
,
0010
2000
0200
0000
,
3300
0010
0000
0110
,
0000
0110
0000
0100
,
0010
1000
0000
0200
,
0000
0300
1000
2000
,
0020
0000
3030
1000
,
0001
0100
0001
0100
,
1000
0100
1000
0100
,
0000
0000
1000
0000
,
0010
0000
0100
0100
,
0000
0000
0100
0000
,
0010
0000
1000
1000
,
0000
0100
0010
0000
,
0001
0000
0001
0100
,
0000
0010
0000
0100
,
0010
0000
0100
1000
,
0000
0100
0010
0000
,
0100
0010
0100
0010
,
0000
0001
0000
1000
,
0000
0000
1000
1000
,
0000
0100
0000
0010
,
0100
0000
1000
1000
,
0000
0001
0000
0010
,
0000
0000
0100
0010
,
0000
1000
0010
1000
,
0200
0000
0000
0000
0000
0000
0000
0300
,
1000
1000
0100
0100
,
1000
1000
1000
1000
,
0000
0100
0100
0100
,
0000
0100
0010
0010
,
0010
0010
0100
0100
,
0100
0100
0000
0010
,
0000
0100
0001
0001
,
0000
0100
0001
0100
,
0001
0100
1000
0100
,
1000
0100
0000
0200
,
0000
0300
0010
2000
,
0200
0000
3300
0010
,
0000
0110
0000
0110
,
0000
0100
0010
1000
,
0000
0200
0000
0300
,
1000
2000
0020
0000
,
3030
1000
0001
0100
,
0001
0100
1000
0100
,
1000
0100
0010
0000
;

//--------------- dance-single - Blood4Fame ----------------
#NOTES:
     dance-single:
     Blood4Fame:
     Medium:
     7:
     0,0,0,0,0:
0000
0000
0000
0000
,
0000
0000
0000
0000
,
0000
0000
0000
0000
,
0000
0000
0000
0000
,
0001
0000
0010
0001
,
0100
0000
0100
1000
,
0001
0000
0010
0100
,
0001
0000
0020
0001
,
0130
0000
0100
1000
,
0100
0000
0100
0001
,
1001
0110
1001
0110
,
1000
0000
0010
0000
2000
0000
0000
3000
,
1100
0100
0011
0010
,
1000
0010
0100
0000
0101
0000
1100
0000
,
1000
0000
0100
0001
0010
0000
1000
0000
,
1010
0101
1010
0101
,
1001
1000
1001
0001
,
0010
0100
0010
0000
0011
0000
1010
0000
,
0100
0000
1000
0100
0010
0000
1000
0000
,
0101
2200
0000
3300
,
1000
0000
0000
0000
0100
0000
0010
0000
0100
0000
0000
0001
0000
0000
0100
0000
,
0000
0000
0010
0000
0100
0000
0001
0000
1000
0000
0000
0100
0000
0000
0001
0000
,
0000
0000
0100
0000
0010
0000
0100
0000
0001
0000
0000
0100
0000
0000
0010
0000
,
0000
0002
0203
0320
,
2030
0000
0000
0000
3000
0000
0000
0000
1000
0000
0000
0010
0000
0000
0002
0000
,
0000
0000
0003
0000
0001
0000
0000
0000
0010
0000
0000
1000
0000
0000
0020
0000
,
0000
0000
0030
0000
0100
0000
0000
0000
1000
0000
0000
0010
0000
0000
2000
0000
,
0000
0100
0100
0100
,
0002
0000
0000
0000
0000
0000
0000
3003
0001
0000
0010
0000
0000
0000
0000
0000
,
1000
0000
0000
0000
1000
0000
0000
0100
0000
0000
0001
0000
0100
0000
0000
0000
,
0100
0000
0000
0000
0100
0000
0000
0001
0000
0000
0010
0000
0100
0000
0000
0000
,
0010
0001
0010
0000
0010
1000
0010
0000
,
0100
0001
0100
0000
0100
1000
0100
0002
,
0000
0000
0000
0000
0013
0000
0000
0001
0000
0000
0010
0000
0100
0000
0000
0000
,
0001
0000
0000
0000
0001
0000
0000
1000
0000
0000
0010
0000
0100
0000
0000
0000
,
0001
0010
0100
0000
0001
0010
0100
0000
,
1000
0010
0100
0000
1000
0010
0100
0002
,
0000
0200
0000
0303
,
0010
0100
2000
0000
0200
0000
0000
0000
,
3300
0010
1000
0110
,
0001
0000
0110
0000
1000
0010
0100
0000
,
0010
0100
1000
0002
0000
0000
0200
0000
,
0000
0303
1000
2000
,
0020
0000
3030
1000
,
0001
0010
0100
0000
0001
0010
0100
0000
,
1000
0010
0100
0000
1000
0010
0100
0002
,
0000
0003
0000
0000
1000
0000
0000
0000
,
0010
0000
0000
0000
0100
0000
0100
0100
,
M000
0000
0000
0101
0000
0100
0000
0010
,
0000
0001
0000
2002
0000
3003
0000
0000
,
0001
0010
0100
0000
0010
0100
0000
0011
,
0000
0101
0000
0022
0000
0033
0000
0000
,
2200
0000
3300
1010
0000
0100
0000
0010
,
0000
0100
0001
0020
0000
0030
0000
0100
,
0010
0001
0000
0100
0010
2000
0000
3002
,
0000
0000
0003
0010
0100
0000
0010
0001
,
0100
0000
0000
1100
0000
1010
0000
0101
,
0000
0011
0000
0220
0000
0330
0000
0000
,
0010
0001
0100
0000
0100
0001
0000
0011
,
0000
0101
0000
2002
0000
3003
0000
0010
,
0100
0001
0000
0101
0000
0010
0000
0001
,
0000
0011
0000
2200
0000
3300
0000
0000
,
0100
0010
1000
0100
0010
0100
1000
0002
,
0200
0000
0000
0000
0000
0000
0000
0300
,
1000
0000
1000
0000
0100
0000
0100
0003
,
1000
0000
0010
0000
1000
0000
0000
0000
1000
0000
0000
0000
1000
0000
0000
0100
,
0000
0000
0001
0000
0100
0000
0000
0000
0100
0000
0000
0000
0100
0000
0000
0001
,
0000
0010
0100
0000
0010
0001
0010
0000
,
0010
1000
0010
0000
0100
0001
0100
0000
,
0100
0000
1000
0000
0100
0000
0002
0000
0000
0000
0000
0000
0013
0000
0000
0001
,
0000
0000
0010
0000
0100
0000
0000
0000
0001
0000
0000
0000
0001
0000
0000
1000
,
0000
0010
0100
0000
0001
0010
0100
0000
,
0001
0010
0100
0000
1000
0010
0100
0000
,
1000
0010
0100
0002
0000
0000
0200
0000
,
0000
0000
0303
0000
0010
0100
2000
0000
,
0200
0000
0000
0000
3300
0000
0010
0100
,
1000
0110
0001
0110
,
1000
0010
0100
0000
0010
0100
1000
0002
,
0000
0200
0000
0303
,
1000
2000
0020
0000
,
3030
0000
1000
0000
0001
0010
0100
0000
,
0001
0010
0100
0000
1000
0010
0100
0000
,
1000
0010
0100
0002
0000
0003
0000
0000
;

//--------------- dance-single - Blood4Fame ----------------
#NOTES:
     dance-single:
     Blood4Fame:
     Hard:
     9:
     0,0,0,0,0:
0000
0000
0000
0000
,
0000
0000
0000
0000
,
0000
0000
0000
0000
,
0000
0000
0000
0000
,
0001
0010
0000
0000
0100
0000
0000
0000
0010
0000
0000
0000
0001
0000
0000
0000
,
0100
0010
0000
0000
1000
0000
0000
0000
0100
0000
0000
0000
1000
0000
0000
0000
,
1000
0010
0000
0000
0100
0000
0000
0000
0010
0000
0000
0000
0100
0000
0000
0000
,
0001
0010
0000
0000
0100
0000
0000
0000
0020
0000
0000
0000
0001
0000
0000
0000
,
0130
0020
0000
0000
1000
0000
0000
0000
0100
0000
0000
0000
1030
0000
0000
0000
,
0100
0020
0000
0000
0001
0000
0000
0000
0100
0000
0000
0000
0031
0000
0000
0000
,
1001
0110
1001
0110
,
1000
0100
0010
0001
2000
0000
0000
3000
,
1100
0100
0011
0010
,
1000
0010
0100
0100
0101
0000
1100
0000
,
1000
0000
0000
0010
0100
0000
0001
0000
0010
0000
0100
0000
1000
0000
0010
0000
,
1010
0101
1010
0101
,
1010
1000
0101
0001
,
0010
0100
0010
0001
0011
0000
1010
0000
,
0100
0000
0000
0010
1000
0000
0100
0000
0010
0000
0100
0000
1000
0000
0001
0000
,
0101
2200
0000
3300
,
1000
1000
0100
0010
0100
1000
0001
0100
,
0010
0010
0100
0001
1000
0100
0010
0001
,
0100
0100
0010
0100
0001
1000
0100
0010
,
0001
0001
1000
0010
0200
0000
0320
0000
,
2030
0000
0000
0000
3001
0000
0000
0001
1000
0000
0010
0000
0100
0000
0001
0000
,
0020
0000
0000
0000
0031
0000
0000
0100
0010
0000
1000
0000
0100
0000
0010
0000
,
0002
0000
0000
0000
0103
0000
0000
0010
1000
0000
0010
0000
0100
0000
0001
0000
,
2000
0100
0010
0100
,
0002
0000
0000
0000
0000
0000
0000
0000
0000
0000
0000
0000
0000
0000
3003
0000
0001
0000
1000
0100
0010
0000
0002
0000
0000
0000
0000
0000
0000
0000
0000
0000
,
1000
0000
1000
0000
1003
0000
0100
0010
0000
0000
0001
0000
0100
0000
0010
0000
,
0100
0000
0100
0000
0100
0000
0001
1000
0000
0000
0010
0000
0100
0000
0001
0000
,
0010
0001
0010
0100
0010
1000
0010
0001
,
0100
0001
0100
0010
0100
1000
0100
0002
,
0010
0000
0010
0000
0013
0000
0001
0100
0000
0000
0010
0000
1000
0000
1000
0000
,
0001
0000
0001
0000
0001
0000
1000
0100
0000
0000
0010
0000
0100
0000
0010
0000
,
0001
0010
0100
1000
0001
0010
0100
1000
,
1000
0010
0100
0001
1000
0010
0100
0002
,
0000
0000
0000
0000
0200
0000
0000
0000
0000
0000
0000
0000
0303
0000
0000
0100
,
0010
1000
0100
0000
2000
0000
0000
0000
0200
0000
0000
0000
0000
0000
0000
0000
,
3300
0000
0000
0100
0010
0001
0100
0010
1000
0000
0010
0000
0110
0000
0000
0000
,
0001
0100
0110
0000
1000
0010
0100
0001
,
0010
0100
1000
0002
0000
0000
0200
0000
,
0000
0000
0000
0000
0303
0000
0000
0010
1000
0100
1000
0000
2000
0000
0000
0000
,
0020
0000
0000
0000
0000
0000
0000
0000
3030
0000
0000
0010
1000
0100
1000
0000
,
0001
0010
0100
1000
0001
0010
0100
1000
,
1000
0010
0100
0001
1000
0010
0100
0002
,
0000
2000
3003
0200
0300
0020
0000
0030
0000
0002
0003
0200
0300
0020
0000
0030
,
0000
2000
3000
0200
0300
0020
0000
0030
0000
0002
0003
0200
0300
0010
0100
0001
,
M000
0000
0000
0101
0000
1100
0000
1010
,
0000
0011
0000
2002
0000
3003
0000
0000
,
0011
0010
0100
1000
0010
0100
0001
0011
,
0000
0101
0000
0022
0000
0033
0000
0000
,
2200
0000
3300
1010
0000
0110
0000
1010
,
0000
0100
0001
0020
0000
0030
0000
0100
,
0010
0001
0000
0100
0010
2000
0000
3002
,
2000
0000
3003
0010
0100
0001
0010
0001
,
0100
0010
0000
1100
0000
1010
0000
0101
,
0000
0011
0000
0220
0000
0330
0000
0000
,
0010
0001
0100
0010
0100
0001
0000
0011
,
0000
0101
0000
2002
0000
3003
1000
0010
,
0100
0001
0000
0101
0000
1010
0000
1001
,
0000
0011
0000
2200
0000
3300
0000
0001
,
0100
0010
1000
0100
0010
0100
1000
0002
,
0200
0000
0000
0000
0000
0000
0000
0300
,
1000
1000
1000
0100
0100
0100
0100
0103
,
1000
0100
1000
0010
1000
0100
0000
0000
1000
0000
1000
0000
1000
0000
0100
0010
,
0000
0000
0001
0000
0100
0000
0010
0000
0100
0000
0100
0000
0100
0000
0001
1000
,
0000
0010
0100
0001
0010
0001
0010
0100
,
0010
1000
0010
0001
0100
0001
0100
0010
,
0100
0000
1000
0000
0100
0000
0002
0000
0010
0000
0010
0000
0013
0000
0001
0100
,
0000
0000
0010
0000
1000
0000
1000
0000
0001
0000
0001
0000
0001
0000
1000
0100
,
0000
0010
0100
0010
0001
0010
0100
1000
,
0001
0010
0100
1000
1000
0010
0100
0001
,
1000
0010
0100
0002
0000
0000
0200
0000
,
0000
0000
0000
0000
0303
0000
0000
0100
0010
1000
0100
0000
2000
0000
0000
0000
,
0200
0000
0000
0000
0000
0000
0000
0000
3300
0000
0000
0100
0010
0001
0100
0010
,
1000
0010
0110
0000
0001
0100
0110
0000
,
1000
0010
0100
0001
0010
0100
1000
0002
,
0000
0000
0000
0000
0200
0000
0000
0000
0000
0000
0000
0000
0303
0000
0000
0010
,
1000
0100
1000
0000
2000
0000
0000
0000
0020
0000
0000
0000
0000
0000
0000
0000
,
3030
0000
0000
0010
1000
0100
1000
0000
0001
0000
0010
0000
0100
0000
1000
0000
,
0001
0010
0100
1000
1000
0010
0100
0001
,
1000
0010
0100
0002
0000
0003
0000
0000
;
