#TITLE:「Red Swan」;
#SUBTITLE:-Opening to Attack on Titan-;
#ARTIST:YOSHIKI feat. HYDE;
#TITLETRANSLIT:Red Swan;
#SUBTITLETRANSLIT:;
#ARTISTTRANSLIT:;
#GENRE:Anime;
#CREDIT:Blood4Fame;
#MUSIC:Red Swan.mp3;
#BANNER:Banner.png;
#BACKGROUND:BG.png;
#CDTITLE:;
#SAMPLESTART:0.000;
#SAMPLELENGTH:0.000;
#SELECTABLE:YES;
#OFFSET:-0.678;
#BPMS:0.000=264.160;
#STOPS:;
#BGCHANGES:;
#FGCHANGES:;

//--------------- dance-single - Blood4Fame ----------------
#NOTES:
     dance-single:
     Blood4Fame:
     Beginner:
     2:
     0,0,0,0,0:
0010
0000
0000
0000
,
1000
0000
0000
0000
,
0010
0000
0000
0001
,
0000
0000
0000
0000
,
1000
0000
0000
0000
,
0001
0000
0000
0000
,
0010
0000
0000
0001
,
0000
0000
0000
0000
,
0010
0000
0000
0000
,
0001
0000
0000
0000
,
0010
0000
0000
1000
,
0000
0000
0000
0000
,
0010
0000
0000
0000
,
1000
0000
0000
0000
,
0001
0000
0000
0010
,
0000
0000
0000
0000
,
0110
0000
0000
0000
,
2002
0000
0000
0000
,
0000
3003
0000
0000
,
0001
0000
0000
0000
,
0022
0000
0000
0000
,
0000
0000
0000
0000
,
0000
0033
0000
0000
,
1000
0000
1000
0000
,
1000
0000
0000
0000
,
0110
0000
0000
0000
,
0100
0000
0100
0000
,
0100
0000
0000
0000
,
0010
0000
0000
0000
,
0100
0000
0000
0000
,
0100
0000
0100
0000
,
0100
0000
0000
0000
,
0020
0000
0000
0000
,
0000
0000
0000
0000
,
0030
0000
0000
0000
,
0110
0000
0000
0000
,
2002
0000
0000
0000
,
0000
0000
0000
0000
,
3003
0000
0000
0000
,
0000
0000
0001
0000
,
0001
0000
0000
0000
,
1000
0000
0000
0000
,
0100
0000
0100
0000
,
0100
0000
0000
0000
,
0022
0000
0000
0000
,
0000
0033
0000
0000
,
1010
0000
0000
0000
,
0011
0000
0000
0000
,
0202
0000
0000
0000
,
0000
0000
0000
0000
,
0000
0000
0000
0000
,
0303
0000
0000
0000
,
0010
0000
0000
0000
,
0100
0000
0000
0000
,
0001
0000
0000
1000
,
0000
0000
0000
0000
,
0010
0000
0000
0000
,
0001
0000
0000
0000
,
1000
0000
0000
0100
,
0000
0000
0000
0000
,
0010
0000
0000
0000
,
0001
0000
0000
0000
,
0010
0000
0010
0000
,
0020
0000
0030
0000
,
0001
0000
0000
0020
,
0000
0000
0000
0000
,
0000
0030
0000
0000
1000
0000
0000
0000
,
1000
0000
0000
0000
,
0002
0000
0000
0000
,
0000
0000
0000
0000
,
0003
0000
0000
0000
,
0100
0000
0100
0000
,
0200
0000
0300
0000
,
2000
0000
0000
0000
,
0000
3000
0000
0000
,
0010
0000
0010
0000
,
0010
0000
0000
0000
,
0000
0000
0000
0000
,
1100
0000
0000
0000
,
0101
0000
0000
0000
,
0101
0000
0000
0000
,
0022
0000
0000
0000
,
0033
0000
1000
0000
,
1000
0000
0000
0000
,
0022
0000
0000
0000
,
0000
0000
0000
0000
,
0033
0000
0000
0000
,
0000
0000
0010
0000
,
0010
0000
0000
0000
,
2200
0000
0000
0000
,
0000
0000
0000
0000
,
3300
0000
0000
0000
,
0022
0000
0000
0000
,
0000
0000
0000
0000
,
0033
0000
0000
0000
0000
0000
0000
0000
0000
0000
0200
0000
,
0000
0000
0000
0300
,
0000
0000
0000
0000
0000
2000
0000
0000
0000
0000
0000
0000
,
0000
0000
0000
0000
0000
0000
0000
0000
0000
0000
3000
0000
;

//--------------- dance-single - Blood4Fame ----------------
#NOTES:
     dance-single:
     Blood4Fame:
     Easy:
     4:
     0,0,0,0,0:
0020
0000
0000
0030
,
2000
0000
0000
3000
,
0020
0000
0030
0002
,
0000
0000
0200
0303
,
2000
0000
0000
3000
,
0002
0000
0000
0003
,
0020
0000
0030
0002
,
0000
0000
0200
0303
,
0020
0000
0000
0030
,
0002
0000
0000
0003
,
0020
0000
0030
2000
,
0000
0000
0200
3300
,
0020
0000
0000
0030
,
2000
0000
0000
3000
,
0002
0000
0003
0020
,
0000
0030
0010
0000
,
0220
0000
0330
0000
,
2002
0000
3003
0000
,
0100
0100
0100
0000
,
0002
0000
0003
0000
,
0022
0000
0000
0000
,
0000
0033
0000
0000
,
0100
0100
0100
0000
,
1000
0000
2000
3000
,
0002
0000
0003
0010
,
0200
0000
0000
0300
,
0100
0100
0100
0000
,
0100
0000
2000
3000
,
0020
0000
0030
0000
,
0200
0000
0300
0000
,
0100
0100
0100
0000
,
2000
0000
0000
3000
,
0020
0000
0000
0000
,
0000
0000
0000
0000
,
0130
0100
0100
0000
,
0010
0002
0000
0000
,
0020
0000
0003
0000
,
0100
0100
0130
0000
,
0001
0100
0001
0000
,
0000
0000
0001
0000
,
0020
0000
0030
1000
,
0200
0000
0000
0300
,
1000
0100
0100
0000
,
0000
0000
0110
0000
,
0022
0000
0000
0000
,
0000
0000
0033
0000
,
2020
0000
3030
0000
,
0022
0000
0033
0000
,
0022
0000
0000
0000
,
0000
0000
0000
0000
,
0000
0000
0000
0000
,
0000
0000
0000
0033
,
0020
0000
0000
0030
,
0200
0000
0000
0300
,
0002
0000
0000
2000
,
0000
3003
0000
0000
0200
0000
0000
0000
,
0320
0000
0000
0030
,
0002
0000
0000
0000
0203
0000
0000
0300
,
2000
0000
3000
0200
,
0000
0000
0002
0303
,
0020
0000
0000
0030
,
0002
0000
0003
0000
0200
0000
0000
0300
,
0020
0000
0000
0030
1000
0000
0000
0000
,
0010
0020
0000
0030
,
0002
0000
0003
0020
,
0000
0000
0000
0000
,
0030
0000
1000
0000
,
0100
0020
0000
0000
,
2000
0000
0000
0000
,
0000
0000
0000
0000
,
0000
3030
0000
0000
,
0200
0300
2000
3000
,
0200
0000
0300
0100
,
2000
0000
0000
0000
,
0000
0000
3000
1000
,
0200
0000
0300
0002
0000
0000
0013
0000
,
0002
0000
0000
0000
,
0000
0000
0003
1000
,
0200
0000
0000
0300
,
0002
0000
0000
0003
,
0202
0000
0303
0000
,
0022
0000
0000
0000
,
0033
1000
1000
0100
,
0020
0000
0030
0020
0000
0000
0032
0000
,
0023
0000
0000
0000
,
0000
0000
0000
0000
,
0030
0000
0000
0000
,
0000
0000
0010
0010
,
0020
0000
0030
1000
,
2000
0000
3000
0000
,
0100
0100
0100
0000
,
0100
0100
0100
0000
,
0020
0000
0030
0010
,
0200
0000
0300
0000
,
0100
0000
0000
0100
0000
0000
0100
0000
0000
0000
0200
0000
,
0300
0000
0000
0000
0002
0000
0003
0000
0000
0000
0020
0000
,
0000
0000
0030
0000
0000
2000
0000
0000
0000
0000
0000
0000
,
0000
0000
0000
0000
,
0000
3000
0000
0000
;

//--------------- dance-single - Blood4Fame ----------------
#NOTES:
     dance-single:
     Blood4Fame:
     Medium:
     5:
     0,0,0,0,0:
2020
3000
0100
0030
,
2200
0300
0010
3000
,
0022
0000
0033
2002
,
0000
3000
0200
0303
,
2020
0030
0100
3000
,
2002
0003
0100
3000
,
0022
0000
0033
0202
,
0000
0300
0100
0003
,
2020
3000
1000
0030
,
2002
0000
0000
3000
0100
0000
0003
0000
,
0022
0000
0033
2002
,
0000
0000
3000
0000
0100
0003
0000
0000
,
0220
0030
1000
0300
,
2200
0300
0010
3000
,
0022
0000
0033
0202
,
0000
0303
0000
0000
0010
0000
1000
0000
,
0220
0000
0330
2000
,
0002
3003
1000
0010
,
0110
0100
0100
0000
,
0002
0000
0003
0200
0000
0300
0010
0000
,
0022
0000
0000
0000
,
0000
0033
0010
1000
,
0100
0100
0100
0000
,
1000
0100
2000
3000
,
0022
0000
0033
0110
,
2200
0000
0000
0300
,
0100
0100
3100
0000
,
0100
0010
2200
3300
,
0220
0000
0330
1010
,
0202
0000
0303
0001
,
0100
0100
0100
0000
,
2000
0000
0000
3200
0000
0000
0010
0000
,
0020
0000
0330
0001
,
0100
0001
1000
0000
,
1000
0100
1000
0000
,
0010
0002
0000
0000
,
0020
0000
0033
0010
,
0100
0100
0100
0000
,
0001
0100
0100
0000
,
0000
0010
0001
1000
,
0020
0000
0000
1000
,
0200
0000
0000
0330
0000
0000
1000
0000
,
1000
0100
0100
0000
,
1000
1000
0110
0110
,
0022
0000
0000
0000
,
0000
0000
0033
0000
,
2020
0000
3030
0000
,
0022
0000
0033
0001
,
0022
0000
0003
0000
,
0200
0000
0300
0000
,
0002
0000
0030
2000
,
0000
0000
0000
3003
,
0022
0000
0003
0000
,
0200
0000
0000
0300
,
0002
0000
0000
0000
0000
0030
2000
0000
,
0000
0003
3200
0000
,
0320
0000
0000
0000
,
0002
0000
0203
0030
,
2300
0000
3000
0200
,
0000
0000
0002
0303
,
0020
0000
0000
0000
,
0002
0003
0200
0030
,
0320
0000
0000
0030
1000
0000
0100
0000
,
0010
0022
0000
0033
,
0022
0000
0033
0220
,
0000
0000
0000
0000
,
0330
0000
1000
0010
,
0100
0020
0000
0100
,
2000
0000
0000
0000
,
0000
0000
0000
0000
,
0000
3030
0000
0000
,
0202
0303
2020
3030
,
0220
0000
0300
0100
,
2000
0000
0000
0000
,
0000
0000
3030
1000
,
0200
0000
0000
0302
0000
0000
0013
0000
,
2002
0000
0000
0000
,
0000
0000
3003
1000
,
2200
0000
0000
0300
,
0002
0000
0000
3003
,
0202
0000
0303
0110
,
0022
0000
0000
0000
,
0033
1001
1000
0100
,
0021
0000
0030
0020
0000
0000
0032
0000
,
0023
0000
0000
0000
,
0002
0000
0000
0003
,
0230
0000
0000
0302
,
0003
0000
0010
0000
,
0220
0000
0330
1100
,
2020
3000
0000
0000
,
0100
0100
0130
0000
,
0100
0100
0100
0000
,
0020
0000
0030
0010
,
0200
0000
0300
0000
,
0100
0000
0000
0100
0000
0000
0100
0000
0000
0000
0220
0000
,
0330
0000
0000
0000
0202
0000
0303
0000
0000
0000
0220
0000
,
0000
0000
0330
0000
0000
2020
0000
0000
0000
0000
0000
0000
,
0000
0000
0000
0000
,
0000
3030
0000
0000
;

//--------------- dance-single - Blood4Fame ----------------
#NOTES:
     dance-single:
     Blood4Fame:
     Hard:
     8:
     0,0,0,0,0:
2020
3030
0100
0000
1100
0000
1000
0000
,
2200
3300
1000
0000
0010
0000
0001
0000
,
0022
0033
0100
0000
0001
0000
2002
3000
,
0200
0300
0000
0000
0200
0303
0000
0000
,
2020
3030
0100
0000
0100
0000
1000
0000
,
2200
3300
1000
0000
0100
0000
0001
0000
,
0022
0033
0100
0000
1000
0000
0202
0000
,
0000
0000
0300
0000
0200
0303
0010
0000
,
2020
3030
0100
0000
1000
0000
1000
0000
,
2002
0000
0000
3000
0203
0300
0001
0000
,
0022
0033
0100
0000
0001
0000
0102
0000
,
0000
0000
0000
0000
0203
0300
0010
0000
,
0110
0100
1000
1000
,
2200
0000
0300
0000
3020
0030
0001
0000
,
0022
0033
0100
0000
0001
0000
0202
0303
,
0100
0001
0100
0000
0010
0100
1000
0000
,
0220
0000
0330
2000
,
0002
0000
3003
0000
1000
0100
0010
0000
,
0110
0100
0100
0000
,
0002
0000
0003
0200
0000
0300
0010
0000
,
0022
0000
0000
0000
,
0000
0000
0033
0000
0010
0100
0010
0000
,
0100
0100
0100
0000
,
1000
0100
1000
0000
2000
0000
3000
0000
,
0022
0000
0033
0110
,
2200
0000
0000
0300
,
0100
0000
0100
0000
3100
0000
0001
0010
,
0100
0100
2200
3300
,
0220
0000
0330
1010
,
0202
0000
0000
0000
0303
0000
0001
0010
,
0100
0100
0100
0000
,
2000
0000
0000
3200
0000
0000
0010
0000
,
0020
0000
0000
0000
0330
0000
0001
0010
,
0001
0001
0001
0100
,
0010
0000
1000
0100
,
0010
0002
0000
0000
,
0020
0000
0000
0000
0033
0000
0100
1000
,
0100
0000
0100
0000
0100
0000
0100
1000
,
0100
0000
0100
0000
0100
0000
0100
1000
,
0100
0010
0100
0000
0001
0000
1000
0000
,
0020
0000
0000
1000
,
0200
0000
0000
0330
0000
0000
1000
0100
,
1000
0000
0100
0000
0100
0000
1000
0100
,
1000
0100
1000
0000
0110
0000
0110
0000
,
0022
0000
0000
0000
,
0000
0000
0033
0000
,
1010
0100
0010
0000
,
0010
0000
1000
0100
0010
0000
0001
0000
,
0022
0000
0003
0000
,
0200
0000
0300
0000
,
0002
0000
0030
2000
,
0000
0000
0000
3003
,
0022
0000
0003
0000
,
0200
0000
0000
0300
,
0002
0000
0000
0000
0000
0030
2000
0000
,
0000
0003
3200
0000
,
0320
0000
0000
0000
,
0002
0000
0203
0030
,
2300
0000
3000
0200
,
0000
0000
0002
0303
,
0020
0000
0000
0100
,
0002
0003
0200
0030
,
0320
0000
0000
0030
1000
0000
0100
0000
,
0010
0022
0000
0033
,
0022
0000
0033
0220
,
0000
0000
0000
0000
,
0330
0000
1000
0010
,
0100
0020
0000
0100
,
2000
0000
0000
0000
,
0000
0000
0000
0000
,
0000
3030
0000
0000
,
0202
0303
2020
3030
,
0220
0000
0300
0100
,
2000
0000
0000
0000
,
0000
0000
3030
1000
,
0200
0000
0000
0302
0000
0000
0013
0000
,
2002
0000
0000
0000
,
0000
0000
3003
1000
,
2200
0000
0000
0300
,
0002
0000
0000
3003
,
0202
0000
0303
0110
,
0022
0000
0000
0000
,
0033
1001
1000
0100
,
0021
0000
0030
0020
0000
0000
0032
0000
,
0023
0000
0000
0000
,
0002
0000
0000
0003
,
0230
0000
0000
0302
,
0003
0000
0010
1010
,
0220
0000
0330
1100
,
2020
3000
0000
1000
,
0100
0000
0100
0000
0130
0000
0000
1000
,
0100
0000
0100
0000
0100
0000
1000
0100
,
0020
0000
0030
0010
,
0200
0000
1300
1000
,
0100
0000
0000
0100
0000
0000
0100
0000
0000
0000
0220
0000
,
0330
0000
0000
0000
0202
0000
0303
0000
0000
0000
0220
0000
,
0000
0000
0330
0000
0000
2020
0000
0000
0000
0000
0000
0000
,
0000
0000
0000
0000
,
0000
3030
0000
0000
;

//--------------- dance-single - Blood4Fame ----------------
#NOTES:
     dance-single:
     Blood4Fame:
     Challenge:
     9:
     0,0,0,0,0:
1000
0000
0100
0000
1100
0000
1000
0100
,
1000
0100
1000
0000
0010
0000
1000
0001
,
0100
0000
0100
0000
0101
0000
0001
0100
,
0001
1000
0001
0000
0010
0000
0010
0100
,
1000
0000
0100
0000
1100
0000
1000
0100
,
1000
0100
1000
0000
0010
0000
1000
0001
,
0100
0000
0100
0000
0101
0000
0001
0100
,
0001
1000
0001
0000
0110
0000
0010
0100
,
0010
0000
0100
0000
1100
0000
1000
0100
,
1000
0100
1000
0000
0010
0000
1000
0001
,
0100
0000
0100
0000
0101
0000
0001
1000
,
0100
1000
0100
0000
0010
0000
0010
0100
,
1000
0000
0100
0000
0110
0000
0001
0100
,
0001
0100
0001
0000
0010
0000
0001
0100
,
0001
0000
0100
0000
0101
0000
0001
1000
,
0100
1000
0100
0010
0001
0100
0010
1000
,
0220
0000
0330
2000
,
0002
0000
3003
0000
1000
0001
0010
0100
,
0110
0100
0100
0000
,
0002
0000
0000
0203
0000
0000
0310
0000
,
0022
0000
0000
0000
,
0033
0000
0000
0000
0010
0100
0010
0001
,
0100
0100
0100
0000
,
0010
1000
0100
0000
2000
0000
3000
0000
,
0022
0000
0033
0110
,
2200
0000
0000
0300
,
0100
0000
0100
0000
3100
0000
0001
0010
,
0100
1000
0100
0000
2200
0000
3300
0000
,
0220
0000
0330
0011
,
0202
0000
0000
0000
0303
0000
0001
1000
,
0010
0010
0010
0000
,
2000
0000
0000
3120
0000
0000
0100
0000
,
0200
0000
0000
0000
0330
0000
1000
0010
,
1000
0001
0001
0100
,
0010
0000
2000
3200
,
0320
0032
0000
0000
,
0020
0000
0000
0000
0033
0000
0100
1000
,
0100
0000
0100
0000
0100
0000
0100
1000
,
0100
0000
0100
0000
0100
0000
0100
1000
,
0100
0010
0100
0010
0001
0000
2000
3000
,
0020
0000
0000
1000
,
0200
0000
0000
0330
0000
0000
1000
0100
,
1000
0000
0100
0000
0100
0000
0001
0100
,
0001
0100
0001
0000
0110
0000
0110
0000
,
2020
0000
0000
0000
,
0000
0000
3030
0000
,
1010
0000
0100
0000
0010
0000
0000
1000
,
0010
1000
0100
0010
0001
0000
0001
0000
,
0022
0000
0003
0000
,
0200
0000
0000
0300
,
0002
0000
0003
2000
,
0000
0000
0000
3030
,
0022
0000
0000
0003
,
0200
0000
0000
0300
,
0002
0000
0003
2000
,
0000
0030
0200
3300
,
0020
0000
0000
0000
,
0002
0000
0103
0000
,
2000
0000
3000
0200
,
0000
0030
0002
0303
,
0020
0000
0000
0100
,
0001
0001
0100
0230
,
0322
0033
1000
0100
,
0010
0022
0000
0033
,
0022
0000
0033
0220
,
0000
0000
0000
0000
,
0330
0000
1000
0010
,
0100
0020
0000
0100
,
2000
0000
0000
0000
,
0000
0000
0000
0000
,
0000
3030
0000
0000
,
0202
0303
2020
3030
,
0220
0000
0300
0100
,
2000
0000
0000
0000
,
0000
0000
3030
1000
,
0200
0000
0000
0302
0000
0000
1003
0000
,
2002
0000
0000
0000
,
0000
0000
3003
0010
,
2200
0000
0000
3300
,
2002
0000
0000
3003
,
0202
0000
0303
0110
,
2020
0000
0000
0000
,
3030
1001
1000
0100
,
0021
0000
0030
0020
0000
0000
0032
0000
,
0023
0000
0000
0000
,
0002
0000
0000
0003
,
0230
0000
0000
0302
,
0003
0000
1000
0010
0010
0000
1010
0000
,
0220
0000
0330
1100
,
2020
3000
0000
1000
,
0100
0000
0100
0000
0130
0000
0000
1000
,
0100
0000
0100
0000
0100
0000
1000
0100
,
0020
0000
0030
0010
,
0200
0000
1300
1000
,
0100
0000
0000
0100
0000
0000
0100
0000
0000
0000
0220
0000
,
0330
0000
0000
0000
0202
0000
0303
0000
0000
0000
0220
0000
,
0000
0000
0330
0000
0000
2020
0000
0000
0000
0000
0000
0000
,
0000
0000
0000
0000
,
0000
3030
0000
0000
;
