#TITLE:Real Emotion;
#SUBTITLE:;
#ARTIST:Koda Kumi;
#TITLETRANSLIT:;
#SUBTITLETRANSLIT:;
#ARTISTTRANSLIT:;
#GENRE:J/K-Pop;
#CREDIT:Blood4Fame;
#MUSIC:Real Emotion.mp3;
#BANNER:Banner.png;
#BACKGROUND:BG.png;
#CDTITLE:;
#SAMPLESTART:17.142;
#SAMPLELENGTH:15.047;
#SELECTABLE:YES;
#OFFSET:-0.137;
#BPMS:0.000=127.022;
#STOPS:;
#BGCHANGES:-0.337=Real Emotion.avi=1.000=1=0=1===CrossFade==,
99999.000=-nosongbg-=1.000=0=0=0=StretchNoLoop====
;
#FGCHANGES:;

//--------------- dance-single - Blood4Fame ----------------
#NOTES:
     dance-single:
     Blood4Fame:
     Easy:
     3:
     0,0,0,0,0:
0000
0000
0000
0000
,
2000
0000
0000
0000
0000
0000
0000
0000
0000
0000
0000
0000
0000
0000
0000
3000
,
1000
1000
1000
1000
,
1100
0100
1100
0100
,
0010
0000
0000
0010
0000
0000
0000
0000
,
0001
0010
0001
0010
,
0100
0010
0100
0010
,
1000
0100
1000
0100
,
0001
0100
0010
1000
,
1000
0100
1000
0100
,
0010
0001
0010
0001
,
0100
0010
0100
0010
,
1001
0000
0000
0000
,
1000
1000
0010
0000
,
0001
0001
0020
0030
,
1000
1000
0200
0300
,
0001
1000
0010
0100
,
0001
0001
0010
0000
,
0100
0100
0002
0003
,
1000
1000
0020
0030
,
0001
0010
0100
1000
,
0000
1000
0100
0020
,
0030
0001
0010
0200
,
0300
1000
1000
0001
,
0010
0100
0200
0300
,
1001
0000
1000
0010
,
1001
0000
0010
0100
,
0022
0000
0000
0000
,
0033
0000
0001
0001
,
2000
3000
0002
0003
,
0100
0010
0001
0000
,
2000
3000
0020
0030
,
0100
0001
0010
0100
,
2000
3000
0002
0003
,
0010
0100
0001
0000
,
2000
3000
0020
0030
,
0001
0010
0100
0000
,
2000
3000
0200
0300
,
0001
0100
0010
1000
,
0100
0100
0010
0000
,
0001
0001
0100
0000
,
1000
1000
0100
0000
,
0001
0010
0100
1000
,
1000
0100
0001
0000
,
1000
0100
0010
0000
,
0001
0010
0100
0000
,
0100
0100
0010
0010
,
0001
1000
1000
0000
,
0100
0010
0001
0000
,
1000
0100
1000
0000
,
1001
0000
0110
0000
,
2000
3200
0320
0032
,
0003
0000
0000
0000
;

//--------------- dance-single - Blood4Fame ----------------
#NOTES:
     dance-single:
     Blood4Fame:
     Medium:
     6:
     0,0,0,0,0:
0000
0000
0000
0000
,
0000
0000
0000
0000
,
0000
0000
0000
0000
,
0000
0000
0000
0000
,
0001
0000
0000
1000
0000
0000
0001
0000
0000
0000
0000
0100
0010
0000
0000
0000
,
1000
0000
0010
0000
0001
0000
0010
0100
0000
0000
0000
0000
1000
0000
0000
0000
,
1000
0000
0010
0000
0001
0000
0010
0100
0000
0000
0000
0000
0010
0000
0000
0000
,
1000
0000
0010
0000
0001
0000
0010
0100
0000
0000
0000
0000
1010
0000
0000
0000
,
1000
0100
0101
1001
,
0001
0000
0010
0000
1000
0000
0010
0100
0000
0000
0000
0000
1000
0000
0000
0000
,
0001
0000
0010
0000
1000
0000
0010
0100
0000
0000
0000
0000
0001
0000
0000
0000
,
0001
0000
0010
0000
1000
0000
0010
0100
0000
0000
0000
0000
2020
0000
0000
0000
,
3030
0000
0000
0000
,
0100
1000
0100
0000
0010
1000
0100
0000
,
0101
0000
0000
1010
0000
0000
0020
0000
0200
0000
0000
0330
0000
0000
0000
0000
,
0001
0000
0000
0100
0000
0010
0000
0002
0000
0000
0003
0000
0000
0000
1000
0000
,
1100
1001
0101
1001
,
0001
0000
0010
1000
0010
0000
0010
1000
,
0100
0000
0000
0002
0000
0000
0103
0000
2000
0000
0000
0000
3000
0000
0000
0000
,
0010
0000
0000
0100
0000
0000
0000
0010
0000
0000
0010
0000
0000
0000
0100
0000
,
0101
0000
0000
0000
1010
0000
0000
0000
0011
0000
0000
0000
2200
0000
0000
3300
,
0000
0000
0000
0000
1000
0100
0000
1000
0000
0000
0000
0020
0000
0000
0000
0000
,
0030
0000
0000
0000
0001
0100
0000
0001
0000
0000
0000
0000
0020
0000
0000
0000
,
0030
0000
0000
0000
0010
0000
0000
0001
0000
0000
1000
0000
0100
0000
0010
0000
,
0110
0000
0000
0000
2000
0000
0002
0000
3003
0000
0101
0000
0000
1010
0000
0000
,
2020
0000
3030
0000
0001
0000
0000
0010
0000
0000
0010
0000
0100
0000
1000
0000
,
0000
0000
0000
0000
1000
0000
0000
0010
0000
0000
0010
0000
0100
0000
1000
0000
,
0002
0000
0000
0000
,
0203
0300
0100
0010
0100
0010
0100
0000
,
2200
3300
0000
0100
0202
0303
0000
0100
,
1001
0000
0000
0100
0000
0010
0000
1000
0000
0000
0010
0000
1000
0000
0100
0000
,
0022
0000
0033
1000
2020
0000
3030
1000
,
0001
0000
0000
0000
0100
0000
0000
0000
0010
0000
0000
0100
0000
0000
0010
0000
,
2020
3030
0000
0010
0022
0033
0000
0010
,
1001
0000
0000
0100
0000
0000
0000
0001
0000
0000
0100
0000
1000
0000
0010
0000
,
0202
0000
0303
1000
2200
0000
3300
1000
,
0002
0000
0000
0000
0013
0000
0000
0000
0200
0000
0000
0310
0000
0000
0001
0000
,
0200
0000
0000
0302
2000
0000
3003
1000
,
1100
1010
0110
0101
,
2002
0000
3003
0000
0000
0000
0010
0100
0000
0000
0010
0000
0010
0000
0000
0000
,
2002
0000
3003
0000
0000
0000
0001
1000
0000
0000
0100
0000
1000
0000
0000
0000
,
2002
0000
3003
0000
0000
0000
0001
0100
0000
0000
0010
0000
0100
0000
0000
0000
,
1010
0110
0101
2002
,
0000
0000
0003
0000
3002
0000
0000
0000
0000
0000
1003
0000
0000
1100
0000
0000
,
0220
0000
0000
0030
0310
0000
1000
0000
,
0001
0000
0000
0000
0100
0000
0010
1000
0000
0000
0001
0000
0100
0000
0000
0000
,
1000
1100
0110
0011
,
0001
0000
1000
0000
0100
0000
0010
0001
0000
0000
0100
0000
0010
0000
0000
0000
,
1000
1000
0001
0000
0010
0010
0001
0000
,
0100
0000
0100
0000
0010
0000
1000
0100
0000
0000
0000
0000
0110
0000
0000
0000
,
0011
0110
1100
2002
,
3003
0000
0000
0000
;

//--------------- dance-single - Blood4Fame ----------------
#NOTES:
     dance-single:
     Blood4Fame:
     Hard:
     7:
     0,0,0,0,0:
0000
0000
0000
0000
,
0000
0000
0000
0000
,
0000
0000
0000
0000
,
0000
0000
0000
0000
,
0001
0000
0000
1000
0000
0000
0001
0000
0100
0000
0000
0100
0010
0000
0000
0000
,
1000
0000
0010
0000
0001
0000
0010
0100
0000
0000
0010
0000
1000
0000
0000
0000
,
1000
0000
0010
0000
0001
0000
0010
0100
0000
0000
1000
0000
0010
0000
0000
0000
,
1000
0000
0010
0000
0001
0000
0010
0100
0000
0000
0000
0000
1010
0000
0000
0001
,
1000
0010
0100
0000
0101
0000
1001
0000
,
0001
0000
0010
0000
1000
0000
0010
0100
0000
0000
0001
0000
1000
0000
0000
0000
,
0001
0000
0010
0000
1000
0000
0010
0100
0000
0000
0100
0000
0001
0000
0000
0000
,
0001
0000
0010
0000
1000
0000
0010
0100
0000
0000
0000
0000
2020
0000
0000
0000
,
3030
0000
0000
0000
,
0100
0000
0000
0010
0100
0000
0000
0000
1010
0000
1000
0000
0100
0000
0000
0000
,
0101
0000
0000
1010
0000
0000
0020
0000
0200
0000
0000
0330
0000
0000
0000
0000
,
0001
0010
0000
0100
0000
0010
0000
0002
0000
0000
0003
0000
0000
0000
1000
0000
,
1100
1001
0101
1001
,
0001
0000
0000
0100
0010
0000
1000
0000
0010
0000
0100
0000
0010
0000
1000
0000
,
0100
0000
0000
0002
0000
0000
0103
0000
2000
0000
0000
0000
3000
0000
0000
0000
,
0010
0000
0000
0100
0000
1000
0000
0010
0000
0000
0010
0000
0000
0000
0100
0000
,
0101
0000
0000
0000
1010
0000
0000
0000
0011
0000
0000
0000
2200
0000
0000
3300
,
0000
0000
0000
0000
1000
0100
0000
1000
0000
0100
0000
0020
0000
0000
0000
0000
,
0030
0000
0000
0000
0001
0100
0000
0001
0000
0100
0000
0000
0020
0000
0000
0000
,
0030
0000
0000
0000
0010
0000
0000
0001
0000
0000
1000
0000
0100
0000
0010
0000
,
0110
0000
0000
0000
2000
0000
0002
0000
3003
0000
0101
0000
0000
1010
0000
0000
,
2020
0000
3030
0000
0001
0000
0000
0010
0000
0000
0010
0000
0100
0000
1000
0000
,
0000
0000
0000
0000
1000
0100
0000
0010
0000
0000
0010
0000
0100
0000
1000
0000
,
0002
0000
0000
0000
,
0203
0000
0300
0000
0100
0010
0100
0010
0100
0010
0100
0010
0100
0000
0000
0000
,
2200
3300
0010
0100
0202
0303
0010
0100
,
1001
0000
1000
0100
0000
0010
0000
0001
0000
0100
0010
0000
1000
0000
0100
0000
,
0022
0000
0033
1000
2020
0000
3030
1000
,
0001
0000
0000
0000
0100
0000
0000
0000
0010
0000
0000
0100
0000
0000
0010
0000
,
2020
3030
0100
0010
0022
0033
0100
0010
,
1001
0000
1000
0010
0000
0100
0000
0001
0000
0010
0100
0000
1000
0000
0010
0000
,
0202
0000
0303
1000
2200
0000
3300
1000
,
0002
0000
0000
0000
0013
0000
0000
0000
0200
0000
0000
0310
0000
0000
0001
0000
,
0200
0000
0000
0302
2000
0000
3003
1000
,
1100
1010
0110
0101
,
2002
0000
3003
0000
0000
0000
0010
0100
0000
0000
0010
0000
0010
0000
0000
0000
,
2002
0000
3003
0000
0000
0000
0001
1000
0000
0000
0100
0000
1000
0000
0000
0000
,
2002
0000
3003
0000
0000
0000
0001
0100
0000
0000
0010
0000
0100
0000
0000
0000
,
1010
0110
0101
2002
,
0000
0000
0003
0000
3002
0000
0000
0000
0000
0000
1003
0000
0000
1100
0000
0000
,
0220
0000
0000
0030
0310
0000
1000
0000
,
0001
0000
0000
0000
0100
0000
0010
1000
0000
0000
0001
0000
0100
0000
0000
0000
,
1000
0000
0100
0010
0100
0000
0000
0000
0100
0000
0001
0020
0000
0000
0000
0000
,
0031
0000
1000
0000
0100
0000
0010
0001
0000
0000
0100
0000
0010
0000
0000
0000
,
1000
1000
0001
0000
0010
0010
0001
0000
,
0100
0001
0100
0000
0010
0000
1000
0100
0000
0000
0000
0000
0110
0000
0000
0000
,
0011
0110
1100
2002
,
3003
0000
0000
0000
;

//--------------- dance-single - Blood4Fame ----------------
#NOTES:
     dance-single:
     Blood4Fame:
     Challenge:
     9:
     0,0,0,0,0:
0000
0000
0000
0000
,
0000
0000
0000
0000
,
0000
0000
0000
0000
,
0000
0000
0000
0000
,
0001
0000
0000
0001
0000
0000
0001
0000
0100
0000
0001
0100
0010
1000
0000
0000
,
1000
0100
0010
0000
0001
0000
0010
0100
0000
0000
0020
0000
2000
0000
3030
0000
,
1000
0100
0010
0000
0001
0000
0010
0100
0000
0000
2000
0000
3020
0000
1030
0000
,
1000
0100
0010
0000
0001
0000
0010
0100
0000
0000
0100
0000
1010
0000
0000
0001
,
1000
0010
0100
0010
0101
1000
1001
0000
,
0001
0100
0010
0000
1000
0000
0010
0100
0000
0000
0002
0000
2000
0000
3003
0000
,
0001
0100
0010
0000
1000
0000
0010
0100
0000
0000
0200
0000
0302
0000
0103
0000
,
0001
0100
0010
0000
1000
0000
0010
0100
0000
0000
0100
0000
2020
0000
0000
0000
,
3030
0000
0000
0000
0000
0000
0000
0000
0001
1000
0010
0100
0001
0100
0010
1000
,
0100
0010
0000
0001
0000
0100
0000
0020
0000
0000
1030
0000
0010
0000
0100
0000
,
0101
0000
0000
1010
0000
0000
0020
0000
0200
0000
0030
0310
0100
0000
0001
0000
,
0001
0010
0000
0100
0000
0010
0000
0002
0000
0000
1003
0000
1000
0000
0100
0000
,
1100
1001
0101
1001
,
0001
0010
0000
0100
0000
0010
0000
0002
0000
0000
0103
0000
0010
0000
0100
0000
,
0010
0000
0000
0002
0000
0000
0103
0000
0200
0300
0000
0100
0001
0000
1000
0000
,
0010
1000
0000
0100
0000
1000
0000
0010
0000
0000
0010
0000
0000
0000
0100
0000
,
0101
0000
0000
0000
1010
0000
0000
0000
0011
0000
0000
0000
2200
0000
0000
3300
,
0000
0000
0000
0000
1000
0100
0000
1000
0000
0100
0000
0002
0000
0000
1000
0000
,
1003
0000
0000
0000
0001
0100
0000
0001
0000
0100
0000
0000
2000
0000
0010
3000
,
0010
0000
0000
0000
0010
0100
0000
0001
0000
0000
1000
0000
0100
0000
0010
0000
,
0110
0000
0000
0000
1002
0000
2000
0000
3003
0000
0101
0000
0000
1010
0000
0000
,
2020
0000
3030
0000
0001
0100
0000
0010
0000
0000
0010
0000
0100
0000
0001
0000
,
0100
0000
0000
0000
1000
0100
0000
0010
0000
0000
0010
0000
0100
0000
1000
0000
,
2000
0010
0010
0010
,
3200
0000
0300
0000
0100
0010
0100
0010
0100
0010
0100
0010
0100
0000
0100
0000
,
2200
3300
0010
0100
0202
0303
0010
0100
,
1001
0000
1000
0100
0000
0010
0000
0002
0000
0103
0010
0000
1000
0000
0100
0000
,
0022
0000
0033
1000
2020
0000
3030
1000
,
0001
0000
0000
0010
0100
0000
0000
1000
0010
0000
0000
0100
0000
0000
0010
0000
,
2020
3030
0100
0010
0022
0033
0100
0010
,
1001
0000
1000
0010
0000
0100
0000
0001
0000
0010
0100
0000
1000
0000
0010
0000
,
0202
0000
0303
1000
2200
0000
3300
1000
,
0001
0000
1000
0000
0010
0000
1000
0000
0100
0000
0000
0010
0000
0000
0001
0000
,
0202
0000
0003
0302
2000
0000
3003
1000
,
1100
1010
0110
0101
,
2002
0000
3003
0000
0010
0000
0010
0100
0000
0000
0010
0000
0010
0000
0000
0000
,
2002
0000
3003
0000
0100
0000
0001
1000
0000
0000
0100
0000
1000
0000
0000
0000
,
2002
0000
3003
0000
0100
0000
0001
0100
0000
0000
0010
0000
0100
0000
0000
0000
,
1010
0000
0000
1000
0010
0000
0000
0001
0100
0000
0000
0000
2002
0000
0000
0000
,
0000
0000
0003
0000
3002
0000
0000
0000
0000
0000
1003
0000
0000
1100
0000
0000
,
0220
0000
0000
0000
0000
0000
0030
0000
0310
0100
0010
0000
1000
0000
0001
0000
,
0001
0200
0000
0000
0000
0000
0000
0000
0300
0000
0100
0000
1010
0000
0000
1010
,
0000
0000
0100
0001
0010
0001
0100
0000
0101
0000
0001
1000
0000
1100
0000
0010
,
0100
0000
0001
1000
0001
0000
0001
0100
0010
0100
0000
1000
0001
0000
1000
0010
,
0000
0100
0010
0000
1000
0010
0000
1000
0100
1000
0020
0000
0000
0000
0030
0000
,
0010
0100
0001
0000
0100
0002
0000
0000
0100
0000
0000
0000
0000
0000
0103
0000
,
0100
0010
1000
0100
0010
0001
0010
0000
0011
0000
0101
0000
0022
0000
0000
0000
,
1133
1010
1001
0011
;
