#TITLE:Press Start;
#SUBTITLE:;
#ARTIST:MDK;
#TITLETRANSLIT:;
#SUBTITLETRANSLIT:;
#ARTISTTRANSLIT:;
#GENRE:;
#CREDIT:Blood4Fame;
#MUSIC:music.mp3;
#BANNER:banner.png;
#BACKGROUND:bg.png;
#CDTITLE:;
#SAMPLESTART:14.221;
#SAMPLELENGTH:18.537;
#SELECTABLE:YES;
#OFFSET:-0.075;
#BPMS:0.000=123.000
,32.000=246.000
,34.000=123.000
,62.000=61.500
,64.000=123.000
,112.000=246.000
,140.000=492.000
,144.000=123.000
,172.000=61.500
,174.000=123.000
,202.000=61.500
,204.000=123.000
,264.000=61.500
,266.000=123.000
,314.000=246.000
,342.000=492.000
,346.000=123.000
,374.000=61.500
,376.000=123.000
,436.000=61.500
,438.000=54.500
,440.000=46.500
;
#STOPS:32.000=0.488
,140.000=0.488
,342.000=0.488
;
#BGCHANGES:;
#FGCHANGES:;

//--------------- dance-single - Blood4Fame ----------------
#NOTES:
     dance-single:
     Blood4Fame:
     Easy:
     3:
     0,0,0,0,0:
0000
0000
0000
0000
,
0000
0000
0000
0000
,
0000
0000
0000
0000
,
0000
0000
0000
0000
,
0000
0000
1000
0000
,
0000
0000
1000
0000
,
0000
0000
0001
0000
,
0001
0000
0100
0100
,
0110
0000
1000
0000
,
0001
0100
0000
1000
,
0010
0010
1000
0000
,
0001
0100
1000
0000
,
0001
0001
0100
0000
,
0010
0010
0100
0001
,
1000
0000
0010
0000
,
0100
0000
0001
1000
,
0100
0000
0100
0100
,
0000
0001
0001
1000
,
1000
0000
0010
0010
,
1000
0000
0100
0000
,
0001
0000
0100
0100
,
0000
0100
1000
0100
,
0010
0000
0100
0100
,
0010
0000
1000
0001
,
0200
0000
0000
0300
,
0020
0000
0000
0030
,
2000
0000
0000
3000
,
0020
0000
0000
0000
0000
0000
0000
0000
0000
0000
0000
0000
0000
0000
0000
0000
0000
0000
0000
0000
0000
0000
0000
0000
0000
0000
0000
0000
0000
0000
0000
0000
0000
0000
0000
0000
0000
0000
0000
0000
0000
0000
0000
0000
0000
0000
0000
0000
0000
0000
0000
0000
0000
0000
0000
0000
0000
0000
0000
0000
0000
0000
0000
0000
0000
0000
0000
0000
0000
0000
0000
0000
0000
0000
0000
0000
0000
0000
0000
0000
0000
0000
0000
0000
0000
0000
0000
0000
0000
0000
0000
0000
0000
0000
0000
0000
0000
0000
0000
0000
0000
0000
0000
0000
0000
0000
0000
0000
0000
0000
0000
0000
0000
0000
0000
0000
0000
0000
0000
0000
0000
0000
0000
0000
0000
0000
0000
0000
0000
0000
0000
0000
0000
0000
0000
0000
0000
0030
0000
0000
0000
0000
0000
0000
0000
0000
0000
0000
0000
0000
0000
0000
0000
0000
0000
0000
0000
0000
0000
0000
0000
0000
0000
0000
0000
0000
0000
0000
0000
0000
0000
0000
0000
0000
0000
0000
0000
0000
0000
0000
0000
0000
0000
0000
0000
0000
0000
0000
0000
0000
0000
0000
,
0100
0000
0001
0000
,
0100
0000
0001
0000
,
0100
0000
0010
0000
,
1000
0000
0100
0000
,
0001
0000
0100
0000
,
0010
0000
1000
0000
,
0100
0000
0010
0000
,
0001
0000
0000
0000
,
0100
0100
0000
1000
,
0001
0010
0100
0100
,
0010
0000
0001
0100
,
0000
1000
0001
0010
,
0100
0000
0010
1000
,
0000
0001
0010
0000
,
0110
0000
1000
0100
,
0020
0000
0031
0000
,
1000
0100
0010
0010
,
0010
0011
0000
0100
,
0010
1000
2002
3003
,
0220
0330
1000
0000
,
0100
0100
0000
0010
,
0001
0010
0100
0000
,
1000
0010
0200
0000
,
0302
0000
2003
0000
,
3002
0000
0203
0000
,
2300
0000
3002
0000
,
0103
0010
0001
1000
,
0200
0000
0320
0000
,
0230
0320
2030
3002
,
0103
0110
0010
1010
,
0100
0100
0001
0000
,
1001
0000
0100
0000
,
0010
0001
0100
0000
,
0010
0010
1000
0001
,
0001
0000
1000
0000
,
1010
0000
0100
0000
,
1100
0000
1001
0000
,
0001
0001
0100
0000
,
0020
0000
0130
0000
,
1000
0001
0000
0100
,
0010
0100
0001
0000
,
0010
1000
0010
0000
,
0001
0001
1000
0000
,
0100
0010
0000
0001
,
0001
1000
0100
0000
,
0100
1000
0110
0000
,
0000
0000
2000
0000
,
3002
0000
0023
0000
,
0230
0000
0320
0000
,
0032
0000
2003
0000
,
3200
0000
0310
0000
,
0010
0000
0010
0000
,
0010
0000
0001
0000
,
0001
0000
0001
0000
,
0001
0000
1000
0000
,
0001
0000
1000
0000
,
0001
0000
1001
0000
,
1001
0000
2002
0000
,
3003
0000
0100
0010
,
1000
1000
0000
0001
,
0100
0010
0000
0001
,
0010
0000
1010
0000
,
0110
0000
0101
0000
,
1000
0010
0000
0100
,
0001
0100
0000
0001
,
0010
0100
2000
0000
,
3001
0000
0010
1000
,
0000
0010
0001
0100
,
1000
0000
1000
0100
,
0020
0000
0032
0000
,
0013
0000
1000
0010
,
0000
0100
0100
0010
,
1000
0000
1000
0010
,
0002
0000
2003
0000
,
3100
0000
0010
0000
,
0100
0000
0010
0000
,
1000
0000
0001
0000
,
1000
0000
0001
0000
,
0100
0000
0010
0000
,
0100
0000
1000
0000
,
0001
0000
0010
0000
,
0200
0000
0000
0000
,
0000
0300
0000
0000
;

//--------------- dance-single - Blood4Fame ----------------
#NOTES:
     dance-single:
     Blood4Fame:
     Medium:
     6:
     0,0,0,0,0:
0000
0000
0000
0000
,
0000
0000
0000
0000
,
0000
0000
0000
0000
,
0000
0000
0000
0000
,
0000
0000
0000
0000
,
0000
0000
0000
0000
,
0000
0000
0000
0000
,
0000
0000
0000
0000
,
0000
0000
0000
0000
1001
0000
0100
0010
,
0001
0100
0000
0010
0000
1000
0100
0001
,
0100
0000
0000
1000
0000
0000
0010
0000
1000
0000
0000
0000
0001
0000
0000
0000
,
0010
0100
0010
0000
1000
0100
1000
0010
,
0100
0000
0000
0001
0000
0000
0100
0000
0010
0000
0000
0000
1000
0000
0000
0000
,
0100
0010
0100
0000
1000
0100
0001
0100
,
1000
0000
0000
0010
0000
0000
0100
0000
0001
0000
0000
0000
0100
0000
0000
0000
,
0001
0000
0100
0000
0010
0000
1000
0000
0200
0000
0000
0000
0310
0001
0100
0000
,
1001
0000
0100
0010
1000
0100
0000
0010
,
0000
0000
0001
0000
0100
0000
1000
0000
0100
0000
0000
0001
0000
0000
0010
0000
,
0001
0000
1000
0000
0010
0100
0010
0000
,
0001
0000
0100
0000
0001
0000
0010
0000
0100
0000
0000
1000
0000
0000
0100
0000
,
0010
0000
0001
0000
0100
0010
0100
0000
,
0001
0000
0100
0000
1000
0000
0100
0000
0001
0000
0000
0010
0000
0000
0100
0000
,
1000
0000
0100
0000
1000
0100
0010
0001
,
0200
0000
0000
0000
0310
0000
0000
0100
0000
0000
0001
0000
1000
0000
0000
0000
,
0200
0000
0320
0000
,
0032
0010
2003
0000
,
3200
0000
0302
0000
,
2003
0010
3200
0000
,
1300
0000
1000
0000
,
0100
0000
0000
0010
0100
0000
0000
0000
,
0010
0000
0001
0000
,
0100
0000
0000
0100
0010
0000
0000
0000
,
1000
0010
0100
1000
,
0100
0010
0100
0001
,
0010
0100
1000
0001
,
0100
0000
0000
0000
,
1001
0000
0010
0100
0001
0010
0000
0100
,
0000
0000
1000
0000
0100
0000
0001
0000
0100
0010
0000
0001
0000
0000
0100
0000
,
0100
0101
1100
0101
,
2010
3002
0123
1230
,
0301
0100
1000
0000
0010
0100
0000
1000
,
0000
0110
0000
0010
1000
0000
1100
0000
,
0000
0011
0101
1100
,
0001
0000
1000
0000
0010
0000
0010
1000
1001
0000
0000
0000
0010
0000
0100
0000
,
1000
0010
0000
0100
0000
0001
0100
1000
,
0100
0010
0000
1000
0000
0000
0100
0000
0100
0000
0000
0000
1100
0000
0000
0000
,
0101
1100
0012
2003
,
3120
0000
0231
0000
1300
0100
0001
0000
,
0010
0100
0000
0001
0000
0110
0000
0010
,
0001
0101
0100
1010
,
1100
0000
0101
0000
1000
0001
0010
0000
,
0001
0000
0100
0000
0001
0010
0100
0000
,
0001
0000
1000
0000
0010
0100
0001
0000
,
0010
0001
0100
0000
1000
0100
0010
0000
,
0010
0100
1000
0001
0100
0000
0010
0000
,
1000
0000
0000
0000
0000
0000
0100
0000
0010
0000
0000
0001
0000
0000
0100
0000
,
1000
0000
0000
0000
0010
0000
0000
0000
0100
0000
0000
0010
0000
0000
0000
0000
,
0101
0000
0011
0000
,
1100
0000
0000
1000
0000
0000
0010
0000
0100
0000
0000
0000
0000
0000
0000
0000
,
1001
0000
0010
0100
0001
0010
0000
0100
,
0000
0000
1000
0000
0010
0000
0001
0000
0010
0000
0000
1000
0000
0000
0100
0000
,
1000
0000
0001
0000
0100
0010
0100
0000
,
1000
0000
0010
0000
1000
0000
0100
0000
0010
0000
0000
0001
0000
0000
0010
0000
,
0100
0000
1000
0000
0010
0100
0010
0000
,
1000
0000
0010
0000
0001
0000
0010
0000
1000
0000
0000
0100
0000
0000
0010
0000
,
0001
0000
0010
0000
0001
0010
0100
1000
,
0020
0000
0000
0000
0130
0001
0010
0000
1001
0000
0000
0000
0010
0000
0100
0000
,
1000
0010
0000
0100
0000
0001
0010
1000
,
0010
0000
0000
0001
0000
0000
0100
0000
0001
0000
0000
0000
1000
0000
0000
0000
,
0100
0010
0100
0000
0001
0010
0001
0100
,
0010
0000
0000
1000
0000
0000
0010
0000
0100
0000
0000
0000
0001
0000
0000
0000
,
0010
0100
0010
0000
0001
0010
1000
0010
,
0001
0000
0000
0100
0000
0000
0010
0000
1000
0000
0000
0000
0010
0000
0000
0000
,
1000
0000
0010
0000
0100
0000
0001
0000
0020
0000
0000
0000
0130
0000
0000
0010
,
0000
0001
1000
0000
0020
0000
0000
0000
,
0230
0000
2300
0100
,
3002
0000
0023
0000
,
2030
0000
3002
0100
,
0023
0000
0031
0000
,
0001
0000
0000
0000
0010
0000
0000
0100
,
0010
0000
0100
0000
,
1000
0000
0000
0000
0010
0000
0000
0010
,
0100
0000
0001
0100
,
0010
0001
0010
0100
,
0010
1000
0100
0010
,
0001
1000
0010
0000
,
0000
0000
0000
0000
0110
0000
0100
0001
,
0000
1000
0100
0000
0001
0100
0000
1000
,
0100
0000
0000
0010
0000
0000
0001
0000
0100
0000
0000
0000
0010
0000
0000
0000
,
1100
0010
1100
0101
,
1100
0000
0010
0000
0110
0000
0001
0100
,
1000
0200
0000
0320
0000
1030
0100
0000
,
0011
0100
0000
2002
,
3003
0000
0010
0000
0100
0000
0000
0000
2000
0000
0000
0000
3010
0000
1000
0100
,
0010
0000
0001
0000
0100
0010
0000
1000
,
0000
0000
0100
0000
0010
0000
0000
0000
0001
0000
0000
0100
0000
0000
1000
0000
,
0100
1100
0101
1100
,
0002
2003
3200
0320
,
0130
0000
1000
0100
0010
0001
0000
1000
,
0000
0001
0010
0100
1000
0000
0001
0000
,
1010
1010
0100
0010
,
1000
0010
0100
0001
0010
0100
1000
0010
,
0100
0000
0000
0000
0100
0000
0000
0000
0000
1001
0000
0000
0000
0000
0000
0000
,
0010
0000
0000
0100
1000
0000
0000
0001
,
0100
0100
0010
1000
,
0101
0000
0011
0000
,
1000
0000
0000
0000
0001
0000
0000
0000
0000
0100
0000
0010
0000
0000
0000
0000
,
1000
0000
0000
0000
0000
0000
0100
0000
0010
0000
0000
1000
0000
0000
0000
0000
,
0001
0001
0000
0000
,
2000
0000
0000
0000
,
3000
0000
0000
0000
;

//--------------- dance-single - Blood4Fame ----------------
#NOTES:
     dance-single:
     Blood4Fame:
     Hard:
     9:
     0,0,0,0,0:
0000
0000
0000
0000
,
0000
0000
0000
0000
,
0000
0000
0000
0000
,
0000
0000
0000
0000
,
0000
0000
0000
0000
0000
0000
0000
0000
2000
0000
0000
0000
3000
0000
0100
1000
,
0000
0010
0000
0100
0000
0000
0010
0000
2000
0000
0000
3000
0010
0100
0010
0000
,
1000
0100
1000
0000
0001
0010
0001
0000
0010
0000
0010
0000
0100
0000
0100
0000
,
1000
0000
1000
0000
0001
0000
0100
0000
0010
1000
0010
0000
0100
0010
0100
0000
,
0000
0000
0000
0000
0000
0000
0000
0000
1100
0000
0000
0000
0010
0000
0010
1000
,
0000
0010
0000
0100
0000
0000
0001
0000
1000
0000
0100
0000
1000
0000
0010
0000
,
0100
0000
0000
0001
0000
0000
0001
1000
0000
0000
1001
0000
0000
0000
0100
0000
,
0010
0001
0010
0000
0001
0010
0001
0000
0100
0000
0100
0000
0001
0000
0001
0000
,
1000
0000
0000
1100
0000
0000
1000
0002
0100
0000
0000
0000
0100
0000
0000
1003
,
0000
0010
0000
0100
0000
0000
0001
0000
0010
0000
0001
0000
0100
0000
0010
0000
,
1000
0000
0000
0100
0000
0000
0010
0001
0000
0000
0011
0000
0000
0000
0001
0000
,
0100
0001
0100
0000
0001
0100
0001
0000
1000
0100
0000
0010
0100
4400
0000
3300
,
0100
0000
0001
0000
0100
0000
1000
0000
0000
0010
0000
0010
0000
0000
1000
0000
,
0100
0000
0010
0000
0100
0000
1000
0000
0010
0000
0000
0100
0000
0000
0001
1000
,
0000
0000
0100
0000
0010
0000
0001
0000
0100
0001
0100
0000
0001
0100
0001
0000
,
0100
0000
1000
0000
0100
0000
0001
0000
0010
0000
0000
0100
0000
0000
0010
0001
,
0100
0000
0000
0000
0100
0000
0000
0010
0000
1000
0000
0100
0000
0000
0010
0000
,
0100
0000
1000
0000
0010
0000
0001
0000
1000
0000
0000
0001
0000
0000
0100
0010
,
0000
0000
1000
0000
0100
0000
1000
0000
0010
1000
0010
0000
1000
0010
1000
0000
,
0100
0000
0000
0100
1000
0000
0010
0100
0000
0100
0001
0000
0010
0000
0000
0000
,
0200
0000
1000
0000
0310
0000
0001
0100
,
0000
0000
0010
0000
2000
0000
0000
0000
3200
0000
0000
0320
0000
0000
0032
0000
,
0203
0000
0310
0000
2000
0000
3100
0020
,
0000
0031
0200
0000
0320
0000
2030
0000
,
3100
1000
0100
1000
,
0100
0000
1000
0000
0010
0100
0001
0000
,
0100
0000
0001
0000
0100
0010
1000
0000
,
0100
1000
0100
0001
,
0100
1000
0100
1000
0100
1000
0100
1000
,
0010
0100
0010
0100
0010
0100
0010
0100
,
0001
0010
0001
0010
0001
0010
0001
0010
,
0001
0000
0000
0000
,
1001
0000
0000
0000
0010
0000
0010
1000
0000
0000
0110
0000
0000
0000
0001
0000
,
1000
0100
1000
0000
0110
0000
0011
0000
,
0100
0010
1000
0001
0101
0001
1100
1000
,
0200
0000
0302
0000
2003
3010
1000
0001
,
0100
0000
0000
0000
0110
0000
0000
1000
0000
0000
1010
0000
0000
0000
0002
0000
,
0003
0000
0001
0000
0100
0000
0001
0000
1000
0100
1000
0000
0100
1000
0100
0000
,
0011
0000
0000
0000
0000
0000
0001
0000
0100
0001
0000
0000
0001
0100
0000
0000
,
1000
0100
0000
0010
0100
0001
0000
0101
0100
0000
0000
0000
0100
0000
0010
0000
,
0100
0001
0010
0100
0000
1000
0100
0010
,
0100
0000
0000
0000
0011
0000
0000
0000
0101
0000
0000
0001
2000
0000
3000
1000
,
0020
0000
0030
0100
0002
0000
1003
0000
0200
0000
0000
0000
0302
0000
0000
0000
,
0203
0000
1300
0010
0100
0000
0110
1000
,
0001
0100
0001
0110
0000
1001
0000
0010
,
0100
0000
0000
1000
0000
0000
0000
0000
0000
0000
0000
0000
0001
0000
0000
0100
0000
0000
0000
0000
0000
0000
0000
0000
0010
0000
0000
0000
0100
0000
0000
0000
0010
0000
0000
0000
2000
0000
0000
0000
0000
0000
0000
0000
0000
0000
0000
0000
,
3100
0000
1000
0000
0100
0000
0010
0000
0001
0000
0100
0000
0010
0100
0000
0001
,
0010
0000
0100
0000
0001
0000
0100
0000
1000
0000
0000
0010
0000
0000
0100
0000
,
0001
0010
0001
0100
0010
0100
1000
0100
,
0010
1000
0100
0001
0100
0010
0001
0100
,
0001
1000
0010
0100
0001
0010
0001
0100
,
0001
0000
0000
0000
1000
0000
0100
0000
0010
0000
0000
0001
0000
0000
0100
0000
,
0010
0000
1000
0000
0100
0000
0010
0000
0001
0000
0000
1001
0000
0000
1000
0000
,
0100
0010
0001
0100
0010
0001
0010
1000
,
0001
0000
0000
0100
0000
0000
0010
0000
0000
0000
1000
0000
0100
0000
1000
0000
,
1100
0000
0000
0000
0010
0000
0010
1000
0000
0010
0000
0100
0000
0000
0001
0000
,
1000
0000
0100
0000
1000
0000
0010
0000
0100
0000
0000
0001
0000
0000
0001
1000
,
0000
0000
1001
0000
0000
0000
0100
0000
0010
0001
0010
0000
0001
0010
0001
0000
,
0100
0000
0100
0000
0001
0000
0001
0000
1000
0000
0000
1100
0000
0000
1000
0002
,
0100
0000
0000
0000
0100
0000
0000
1003
0000
0010
0000
0100
0000
0000
0001
0000
,
0010
0000
0001
0000
0100
0000
0010
0000
1000
0000
0000
0100
0000
0000
0010
0001
,
0000
0000
0011
0000
0000
0000
0001
0000
0100
0001
0100
0000
0001
0100
0001
0000
,
1000
0100
0000
0010
0100
4400
0000
3300
0100
0000
0001
0000
0100
0000
1000
0000
,
0000
0010
0000
0010
0000
0000
1000
0000
0100
0000
0010
0000
0100
0000
1000
0000
,
0010
0000
0000
0100
0000
0000
0001
1000
0000
0000
0100
0000
0010
0000
0001
0000
,
0100
0001
0100
0000
0001
0100
0001
0000
0100
0000
1000
0000
0100
0000
0001
0000
,
0010
0000
0000
0100
0000
0000
0010
0001
0100
0000
0000
0000
0100
0000
0000
0010
,
0000
1000
0000
0100
0000
0000
0010
0000
0100
0000
1000
0000
0010
0000
0001
0000
,
1000
0000
0000
0001
0000
0000
0100
0010
0000
0000
1000
0000
0100
0000
1000
0000
,
0010
1000
0010
0000
1000
0010
1000
0000
0100
0000
0000
0100
1000
0000
0010
0100
,
0000
0100
0001
0000
0010
0000
0000
0000
0200
0000
0000
0000
1000
0000
0000
0000
,
0310
0000
0001
0100
0000
0010
2000
0000
,
3200
0000
0000
0320
0000
0000
0032
0000
0203
0000
0000
0000
0310
0000
0000
0000
,
2000
0000
3100
0020
0000
0031
0200
0000
,
0320
2030
3100
1000
,
0100
1000
0100
1000
,
0010
0100
0001
0000
0100
0000
0001
0000
,
0100
0010
1000
0000
0100
0000
1000
0000
,
0100
0000
0001
0000
0100
1000
0100
1000
,
0100
1000
0100
1000
0010
0100
0010
0100
,
0010
0100
0010
0100
0001
0010
0001
0010
,
0001
0010
0001
0010
0001
0000
0000
0000
,
0000
0000
0000
0000
1001
0000
0101
0001
,
0100
1000
0000
0010
0000
0001
0100
0010
,
1010
0000
0110
0000
0001
0100
0010
0100
,
0001
0010
0100
0010
0002
0000
2003
0000
,
3100
0010
0002
0003
0101
0000
1000
0100
,
0010
0110
0000
1000
0000
1010
0000
0001
,
0100
0001
0100
0000
0001
0100
0001
0000
0010
0000
0000
0000
0001
0000
0000
0000
,
1000
0000
0100
0000
0010
0000
0000
0000
0011
0000
0001
0000
0100
0010
1000
0000
,
0011
0000
0000
0000
0010
0000
0010
0001
0000
0000
1100
0000
0000
0000
0001
0000
,
1000
0000
0100
0000
0000
0000
0110
0000
0002
0000
0000
2003
0000
0000
3001
0000
,
0100
0010
1000
0001
0101
0001
1100
1000
,
0200
0000
0302
0000
0203
0310
0001
1000
,
0100
0000
0000
0000
0110
0000
0000
1000
0000
0000
1010
0000
0000
0000
0002
0000
,
0003
0000
0001
0000
0100
0000
0001
0000
1000
0100
1000
0000
0100
1000
0100
0000
,
0001
0010
0001
0100
0000
0000
0101
0000
0000
1001
0000
0000
,
1000
0100
0001
0100
1000
0001
0100
1000
,
0100
0000
0000
0000
1010
0000
0000
0100
0000
0010
0000
1000
0000
0000
0100
0000
,
0010
0000
0001
0000
0000
0000
0100
0000
0001
0000
0000
0100
0000
0000
0010
1000
,
0100
0000
0010
0000
0001
0100
0010
1000
,
0100
0010
0000
0001
0000
0000
0100
0000
0010
1000
0000
0100
0000
0010
0001
0000
,
0100
0000
0000
0000
0010
0000
0000
0000
1000
0100
0000
0100
0010
0000
0001
0000
,
1000
0000
0100
0000
0000
0000
0010
0000
1000
0000
0000
0010
0000
0000
1000
0100
,
0010
0000
0000
0000
0001
0000
0000
0000
0010
0100
0010
0000
0100
0010
0100
0000
,
1000
0001
0100
0001
,
0020
0000
0000
0030
0000
0000
0000
0000
;

//--------------- dance-single - Blood4Fame ----------------
#NOTES:
     dance-single:
     Blood4Fame:
     Challenge:
     10:
     0,0,0,0,0:
0000
0000
0000
0000
,
0000
0000
0000
0000
,
0000
0000
0000
0000
,
0000
0000
0000
0000
,
0000
0000
0000
0000
0000
0000
0000
0000
0100
0000
0000
0000
0000
0000
0010
1000
,
0000
0010
1000
0100
0010
0000
0100
0000
1000
0000
1000
0000
0100
1000
0100
0010
,
0001
0010
0000
0000
0001
0010
0001
0000
1000
0000
0100
0010
0000
0000
0001
0100
,
0000
0001
0100
0001
0010
0000
0100
0010
0001
0010
0001
0100
0010
0100
0010
2000
,
0000
0000
0000
0000
0000
0000
0000
0000
3100
0000
0010
0000
0100
0000
1000
0100
,
0000
1000
0100
0001
0100
0000
1000
0000
0010
0000
2000
0000
3100
0000
1000
0000
,
1002
0000
0000
0103
0000
0000
0100
0010
0200
0000
0302
0000
0203
0000
0310
0100
,
0000
0001
1000
0001
1000
0100
1000
0100
0020
0001
0031
0000
0012
0000
0103
0000
,
2001
0000
0020
3100
0000
0000
1031
0000
0100
0000
0010
0000
0100
0000
0001
0000
,
0000
0010
0000
0100
0000
0000
1000
0000
2100
0000
3002
0000
0103
0000
0001
0000
,
1001
0000
0000
0011
0000
0000
1200
0000
1300
0000
0010
0000
0100
0000
0010
0000
,
1000
0100
1000
0100
0010
0001
0010
0001
0100
0001
0000
1000
0100
0220
0000
0330
,
1001
0000
0010
0000
0100
0000
0010
0100
0000
2000
3000
0020
0030
0000
0100
0000
,
0002
0000
2003
0000
3000
0000
1100
0000
2001
0000
0000
3010
0000
0000
0100
0020
,
0000
0000
1030
0000
0010
0000
0100
0000
0010
0100
0010
0100
0001
0010
0001
0010
,
0002
0000
2003
0000
3002
0000
0203
0000
0302
0000
0003
0011
0000
0000
1100
0000
,
0100
0000
0000
0000
1100
0000
0000
0000
0001
0100
0000
0010
0000
0000
0100
0000
,
0001
0000
0020
0000
0130
0000
0010
0000
0001
0000
0000
0011
0000
0000
0001
0100
,
0010
0000
1000
0000
0100
0000
1000
0100
0010
0001
0010
0001
0100
0010
0100
0010
,
0000
0000
0000
0000
1200
0000
0000
1300
0000
0100
1000
0000
0000
0100
0010
0001
,
0020
0000
0000
0000
0000
0030
0100
0000
0020
0000
0000
0030
0001
0000
0200
0000
,
0000
0300
1000
0000
0100
0010
0100
0000
1000
0100
0010
0100
0000
0001
0010
0000
,
0001
0100
0010
1000
0200
0000
0310
0002
,
0000
0003
1000
0000
0100
0000
0010
0000
0001
0010
0002
0000
0000
0000
1003
0000
,
0010
0100
0010
0100
,
0010
0000
0100
0000
0000
0000
0010
0100
0010
0000
0000
0000
1000
0000
0000
0000
,
0100
0010
0000
0001
0010
0100
0010
0001
,
0100
0000
0010
0000
0000
0000
0100
0010
0100
0000
0000
0000
0010
0000
0000
0000
,
1000
0100
1000
0001
0100
0010
0100
0001
,
0010
0100
0010
0100
1000
0010
0100
0001
,
4004
0000
0000
0000
0000
0000
0000
3003
,
1001
0000
0000
0000
,
1100
0000
0100
0000
1000
0000
0010
0100
0010
1000
0001
0000
0010
0000
0002
0100
,
0000
0000
1003
0001
0000
0000
1000
0010
0000
0100
0000
0002
0000
0000
0003
0000
,
1001
0000
0000
0000
1000
0001
0100
0001
0000
0010
0000
0100
0000
0010
0000
0001
,
0200
0320
0230
2300
3200
0320
2030
3001
,
0110
0000
0000
0000
1000
0000
0100
0010
0100
0000
0011
0000
0001
0000
2000
0000
,
3000
0000
0010
0100
0000
0000
0001
0100
0010
0100
0001
0000
1000
0100
1000
0002
,
0000
0000
0003
0000
1001
0000
0100
1000
0100
0010
0000
0000
0110
0000
0000
0000
,
0001
0000
0100
0001
0000
0010
0000
0100
0000
1000
0001
0100
1000
0100
0010
0000
0220
0000
0000
0000
0030
0000
0000
0000
0310
0000
1000
0000
0010
0000
0100
0000
,
1000
0100
0001
0000
1000
0000
0100
0000
0120
0000
0031
0000
1000
0100
1000
0000
,
0010
0100
4040
3030
1100
0100
1000
0001
,
1000
0010
1000
0001
4004
0000
0403
3000
,
0040
0300
0004
0030
0103
0000
0100
0100
,
1010
0000
2000
0000
3100
0000
2200
0000
3300
0000
0110
0000
0000
0000
1000
0100
,
0010
0001
0100
0000
0001
0010
0100
0010
0000
0001
0000
0100
0020
0000
0000
0000
,
1030
0000
0010
0000
0100
0001
0010
0000
0100
1000
0100
0001
0100
1000
0010
0100
,
0001
0000
0010
0000
0001
0000
0100
0010
0100
0000
0100
0001
0000
0001
0010
0000
,
0010
0000
0100
0000
0010
0000
0001
1000
0100
0000
0010
0100
0000
0100
1000
0000
,
0001
0000
0100
0001
0000
0001
0100
0010
1000
0000
0100
0010
0000
0100
1000
0000
,
0010
1000
0010
0100
0001
0010
0100
0010
0100
1000
0100
0010
0001
0100
0010
1000
,
0200
0000
0000
0000
0300
0000
1000
0100
0010
0000
0010
0100
0000
1000
0100
0000
,
1000
0000
0010
0000
0100
0000
0010
0000
1000
0000
1000
0002
0000
0000
0000
0000
,
0013
0000
0001
0010
0000
0001
0100
0001
0010
0000
0010
0100
0000
0100
1000
0000
,
0001
1000
0001
0100
0010
0100
0001
1000
0100
0010
0100
0000
0000
0000
1000
0010
,
0100
0000
0010
0000
0100
0000
1000
0100
0000
1000
0100
0001
0100
0000
1000
0000
,
0010
0000
2000
0000
3100
0000
1000
0000
1002
0000
0000
0103
0000
0000
0100
0010
,
0200
0000
0302
0000
0203
0000
0310
0100
0000
0001
1000
0001
1000
0100
1000
0100
,
0020
0001
0031
0000
0012
0000
0103
0000
2001
0000
0020
3100
0000
0000
1031
0000
,
0100
0000
0010
0000
0100
0000
0001
0000
0000
0010
0000
0100
0000
0000
1000
0000
,
2100
0000
3002
0000
0103
0000
0001
0000
1001
0000
0000
0011
0000
0000
1200
0000
,
1300
0000
0010
0000
0100
0000
0010
0000
1000
0100
1000
0100
0010
0001
0010
0001
,
0100
0001
0000
1000
0100
0220
0000
0330
1001
0000
0010
0000
0100
0000
0010
0100
,
0000
2000
3000
0020
0030
0000
0100
0000
0002
0000
2003
0000
3000
0000
1100
0000
,
2001
0000
0000
3010
0000
0000
0100
0020
0000
0000
1030
0000
0010
0000
0100
0000
,
0010
0100
0010
0100
0001
0010
0001
0010
0002
0000
2003
0000
3002
0000
0203
0000
,
0302
0000
0003
0011
0000
0000
1100
0000
0100
0000
0000
0000
1100
0000
0000
0000
,
0001
0100
0000
0010
0000
0000
0100
0000
0001
0000
0020
0000
0130
0000
0010
0000
,
0001
0000
0000
0011
0000
0000
0001
0100
0010
0000
1000
0000
0100
0000
1000
0100
,
0010
0001
0010
0001
0100
0010
0100
0010
0000
0000
0000
0000
1200
0000
0000
1300
,
0000
0100
1000
0000
0000
0100
0010
0001
0020
0000
0000
0000
0000
0030
0100
0000
,
0020
0000
0000
0030
0001
0000
0200
0000
0000
0300
1000
0000
0100
0010
0100
0000
,
1000
0100
0010
0100
0000
0001
0010
0000
0001
0000
0100
0000
0010
0000
1000
0000
,
0200
0000
0000
0000
0310
0000
0002
0000
0000
0003
1000
0000
0100
0000
0010
0000
,
0001
0010
0002
0000
0000
0000
1003
0000
0010
0000
0000
0000
0100
0000
0000
0000
,
0010
0000
0000
0000
0100
0000
0000
0000
0010
0000
0100
0000
0000
0000
0010
0100
,
0010
0000
1000
0000
0100
0010
0000
0001
,
0010
0000
0100
0000
0010
0000
0001
0000
0100
0000
0010
0000
0000
0000
0100
0010
,
0100
0000
0010
0000
1000
0100
1000
0001
,
0100
0010
0100
0001
0010
0100
0010
0100
,
1000
0010
0100
0001
4004
0000
0000
0000
,
0000
0000
0000
3003
1001
0000
0000
0000
,
0000
0000
0000
0000
0000
0000
0000
0000
0110
0000
0000
0000
0010
0100
1000
0000
,
0010
0100
0001
0000
0010
0100
1000
0000
0002
0000
0103
0000
0020
0000
0130
0000
,
2000
0000
3000
0200
0000
0300
0020
0000
0030
0000
1000
0100
0010
0000
0001
0100
,
0010
0000
1000
0100
0010
0000
0001
0000
0200
0000
0302
0000
2003
0000
3200
0000
,
0320
0000
0032
0000
0023
0000
0230
0000
2300
0000
3000
0000
1001
0000
1000
0001
,
1000
0100
1000
0220
0330
0001
0100
0001
,
0010
0001
0100
0001
0100
0010
1000
0010
0000
0000
0000
0000
1001
0000
0100
0000
,
0110
0000
0000
0000
0000
0000
0000
0000
0101
0000
0000
0000
0000
0000
0000
0000
0000
0000
1000
0100
0000
0010
0000
0001
0000
0100
0010
0000
0440
0000
0000
0330
,
0110
0000
1010
0001
0100
0001
2000
3200
,
0300
0000
0011
0000
1000
0000
0010
0000
0200
0000
0000
2300
0000
0000
3200
0000
,
0000
0300
1000
0100
0010
0000
0001
0100
0010
0000
1000
0000
0100
0000
0001
0000
,
4004
0000
0403
3000
0040
0300
0004
0030
,
0103
0000
0100
0100
1010
2000
3100
2200
,
3300
0000
0110
0000
0000
0000
1000
0100
0010
0001
0100
0000
0001
0010
0100
0010
,
0000
0001
0000
0100
0020
0000
0000
0000
1030
0000
0010
0000
0100
0001
0010
0000
,
0100
1000
0100
0001
0100
1000
0010
0100
0002
0000
0000
0000
2000
0000
3003
0000
,
2002
0000
0000
3003
1001
0000
0001
0010
0000
0001
0000
0100
0000
0010
1000
0000
,
0100
0000
2000
0000
3010
0000
1000
0000
0002
0000
0003
0021
0000
0030
0010
0100
,
0000
0000
0000
0000
0000
0000
0000
0000
0001
0010
0001
0100
0001
1000
0001
0000
,
0200
0310
0000
1000
0000
0200
0320
0000
0230
0310
0000
0002
0003
1000
0000
0100
,
2000
0000
0000
3000
2000
0000
0000
3000
0001
0100
0000
0001
0000
0010
0000
0100
,
1000
0000
0100
0000
0000
0000
0010
0000
0001
0000
0000
0001
0000
0000
0200
0310
,
0000
0000
0000
0000
0000
0000
0000
0000
0010
0100
0010
0000
1000
0100
1000
0000
,
0002
0000
0000
0000
,
0000
0000
0000
0000
0000
0003
0000
0000
0000
0000
0000
0000
0000
0000
0000
0000
;
