#TITLE:Planetary;
#SUBTITLE:(GO!);
#ARTIST:My Chemical Romance;
#TITLETRANSLIT:;
#SUBTITLETRANSLIT:;
#ARTISTTRANSLIT:;
#GENRE:Rock;
#CREDIT:Blood4Fame;
#MUSIC:Planetary (GO!).mp3;
#BANNER:Banner.png;
#BACKGROUND:BG.png;
#CDTITLE:;
#SAMPLESTART:67.735;
#SAMPLELENGTH:15.890;
#SELECTABLE:YES;
#OFFSET:0.370;
#BPMS:0.000=132.161
,72.000=264.322
,132.000=528.645
,136.000=264.322
,164.000=528.645
,168.000=264.322
,232.000=132.161
,264.000=264.322
,292.000=528.645
,296.000=264.322
,420.000=528.645
,424.000=264.322
,452.000=528.645
,456.000=264.322
,484.000=528.645
,488.000=264.322
,516.000=528.645
,520.500=264.322
;
#STOPS:132.000=0.227
,134.000=0.227
,164.000=0.227
,166.000=0.227
,292.000=0.227
,294.000=0.227
,420.000=0.113
,421.000=0.113
,422.000=0.113
,423.000=0.113
,452.000=0.227
,454.000=0.227
,484.000=0.227
,486.000=0.227
,516.000=0.227
,518.000=0.284
;
#DISPLAYBPM:132.000:264.000;
#BGCHANGES:0.170=Planetary (GO!).avi=1.000=1=0=1===CrossFade==,
99999.000=-nosongbg-=1.000=0=0=0=StretchNoLoop====
;
#FGCHANGES:;

//--------------- dance-single - Blood4Fame ----------------
#NOTES:
     dance-single:
     Blood4Fame:
     Beginner:
     2:
     0,0,0,0,0:
0000
0200
0000
0000
,
0000
0000
0000
0300
,
0100
0000
0100
0000
,
0100
0000
0100
0000
,
0001
0000
0001
0000
,
1000
0000
1000
0000
,
0100
0000
0100
0000
,
0100
0000
0100
0000
,
0001
0000
0001
0000
,
1000
0000
1000
0000
,
0200
0000
0000
0300
,
0002
0000
0000
0003
,
2000
0000
0000
3000
,
0020
0000
0000
0030
,
0002
0000
0000
0003
,
0200
0000
0000
0300
,
0020
0000
0000
0030
,
2002
0000
0000
0000
,
3003
0000
0100
0000
,
0000
0000
0001
0000
,
0000
0000
0100
0000
,
0000
0000
0001
0000
,
0000
0000
0100
0000
,
0000
0000
0001
0000
,
0000
0000
0100
0000
,
0100
0000
0100
0000
,
0010
0000
0000
0000
,
0010
0000
0000
0000
,
0010
0000
0000
0000
,
0010
0000
0000
0000
,
1000
0000
0000
0000
,
1000
0000
0000
0000
,
1000
0000
0000
0000
,
2002
0000
3003
0000
,
0000
0000
0010
0000
,
0000
0000
0010
0000
,
0000
0000
1000
0000
,
0000
0000
1000
0000
,
0000
0000
0001
0000
,
0000
0000
0001
0000
,
0000
0000
0100
0000
,
2002
0000
3003
0000
,
0000
0000
1000
0000
,
0000
0000
0010
0000
,
0000
0000
0001
0000
,
0000
0000
0100
0000
,
0100
0000
0000
0000
,
0001
0000
0000
0000
,
0010
0000
0000
0000
,
1000
0000
1000
0000
,
0000
0000
0001
0000
,
0000
0000
0010
0000
,
0000
0000
1000
0000
,
0000
0000
0100
0000
,
0100
0000
0000
0000
,
0001
0000
0000
0000
,
0010
0000
0000
0000
,
0100
0000
0100
0000
,
0200
0000
0000
0000
0000
0300
0000
0000
,
0002
0000
0000
0000
0000
0003
0000
0000
,
2000
0000
0000
0000
0000
0000
0000
0000
0000
0000
0000
0000
0000
0000
0000
0000
0000
0000
0000
0000
0000
0000
0000
0000
0000
0000
0000
0000
0000
0000
0000
0000
0000
0000
0000
0000
0000
0000
0000
0000
0000
0000
0000
0000
0000
0000
0000
0000
0000
0000
0000
0000
0000
0000
0000
0000
0000
0000
0000
0000
0000
0000
0000
0000
0000
0000
0000
0000
0000
0000
0000
0000
0000
0000
0000
0000
0000
0000
0000
0000
0000
0000
0000
0000
0000
0000
0000
0000
0000
0000
0000
0000
0000
0000
0000
0000
0000
0000
0000
0000
0000
0000
0000
0000
0000
0000
0000
0000
0000
0000
0000
0000
0000
3000
0000
0000
0000
0000
0000
0000
0000
0000
0000
0000
0000
0000
0000
0000
0000
0000
0000
0000
0000
0000
0000
0000
0000
0000
0000
0000
0000
0000
0000
0000
1000
0000
0000
0000
0000
0000
0000
0000
0000
0000
0000
0000
0000
0000
0000
0000
0000
0000
0000
0000
0000
0000
0000
0000
0000
0000
0000
0000
0000
0000
0000
0000
0000
0000
0000
0000
0000
0000
0000
0000
0000
0000
0000
0000
0000
0000
0000
0000
,
0200
0000
0000
0300
,
0002
0000
0000
0003
,
0020
0000
0000
0030
,
0200
0000
0000
0000
0000
0000
0000
0000
0000
0000
0000
0000
0000
0000
0000
0000
0000
0000
0000
0000
0000
0000
0000
0000
0000
0000
0000
0000
0000
0000
0000
0000
0000
0000
0000
0000
0000
0000
0000
0000
0000
0000
0000
0000
0000
0000
0000
0300
0000
0000
0000
0000
0000
0000
0000
0000
0000
0000
0000
0000
0000
0000
0000
0000
,
2002
0000
0000
0000
,
3003
0000
0100
0000
,
0000
0000
0100
0000
,
0000
0000
0010
0000
,
0000
0000
0010
0000
,
0000
0000
0001
0000
,
0000
0000
0001
0000
,
0000
0000
1000
0000
,
0001
0000
1000
0000
,
0000
0000
0000
0000
,
0020
0000
0000
0000
0000
0030
0000
0000
,
0200
0000
0000
0000
0000
0300
0000
0000
,
0002
0000
0000
0000
0000
0003
0000
0000
,
2000
0000
0000
0000
0000
3000
0000
0000
,
0020
0000
0000
0030
0000
0000
0000
0200
,
0000
0000
0000
0300
0000
0000
0002
0000
,
0000
0000
0000
0003
0000
0000
0000
0000
,
0002
0000
0000
0000
0000
0003
0000
0000
,
0020
0000
0000
0030
0000
0000
0200
0000
,
0000
0000
0000
0300
0000
0000
2000
0000
,
0000
3000
0000
0000
0200
0300
0000
0000
,
0020
0000
0000
0000
,
0000
0000
0000
0030
0000
0000
0000
0000
,
0002
0000
0000
0003
0000
0000
2000
0000
,
0000
3000
0000
0000
0200
0300
0000
0000
,
0002
0000
0000
0003
0000
0000
0200
0000
,
0000
0300
0000
0000
0020
0030
0000
0000
,
2000
0000
0000
0000
0000
3000
0000
0000
,
0020
0000
0000
0000
0000
0030
0000
0000
,
0200
0000
0000
0000
0000
0300
0000
0000
,
0002
0000
0000
0000
0000
0003
0000
0000
,
0020
0000
0000
0000
0000
0030
0000
0000
,
0200
0000
0000
0000
0000
0300
0000
0000
,
2000
0000
0000
0000
,
0000
0000
0000
3000
0000
0000
0000
0000
,
0020
0000
0000
0000
0000
0030
0000
0000
,
0002
0000
0000
0000
,
0103
0000
0100
0000
,
0100
0000
0100
0000
,
0010
0000
0010
0000
,
0000
0000
0000
0000
,
0000
0000
0100
0000
,
0000
0000
0100
0000
,
0000
0000
0100
0000
,
0000
0000
0100
0000
,
0000
0000
0100
0000
,
0000
0000
0001
0000
,
0000
0000
0001
0000
,
0100
0000
0100
0000
,
0000
0000
1000
0000
,
0000
0000
0010
0000
,
0000
0000
0001
0000
,
0000
0000
1000
0000
,
0000
0000
0010
0000
,
0000
0000
0001
0000
,
0000
0000
1000
0000
,
0100
0000
0100
0000
,
0000
0000
0001
0000
,
0000
0000
0010
0000
,
0000
0000
1000
0000
,
0000
0000
0001
0000
,
0000
0000
0100
0000
,
0000
0000
0010
0000
,
0000
0000
1000
0000
,
1001
0000
1001
0000
;

//--------------- dance-single - Blood4Fame ----------------
#NOTES:
     dance-single:
     Blood4Fame:
     Easy:
     4:
     0,0,0,0,0:
0000
0100
0000
0100
,
0000
0100
0000
0100
,
0000
0100
0000
0100
,
0000
0100
0000
0100
,
0000
0100
0000
0100
,
0000
0100
0000
0100
,
0100
0000
0100
0000
,
0100
0000
0100
0000
,
0100
0000
0100
0000
,
0100
0000
0100
0100
,
0002
0000
0100
0003
,
0020
0000
0100
0030
,
2000
0000
3000
0100
,
0002
0000
0100
0003
,
0002
0000
0100
0003
,
2000
0000
0100
3000
,
1100
0000
1100
0000
,
1000
1000
1000
0010
,
0000
0100
0000
0000
,
0000
0100
0020
0130
,
0000
0100
0000
0000
,
0000
1000
0002
1003
,
0000
0100
0000
0000
,
0000
0100
2000
3100
,
0000
0100
0000
0000
,
2002
3003
2002
3003
,
0000
0000
0100
0000
,
0100
0000
0100
0002
,
0000
0003
0000
0000
0100
0000
0000
0000
,
0100
0000
0100
0020
,
0000
0030
0100
0000
,
0100
0000
0100
2000
,
0000
3000
2000
0000
0000
0000
3000
0000
,
1001
0000
1001
0000
,
0000
0000
0100
0000
,
0100
0000
0100
2000
,
0000
3000
0100
0000
,
0100
0000
0100
0002
,
0000
0003
0100
0000
,
0100
0000
0100
2000
,
0000
3000
0100
0000
,
1001
0000
1001
0000
,
0000
0000
0000
1010
,
0000
0000
0000
0101
,
0000
0000
0000
1000
,
0001
0000
1000
0100
,
0000
0000
0000
1010
,
0000
0000
0000
0110
,
0000
1000
1000
0000
,
0202
0000
0000
0303
,
0000
0100
0000
0000
,
0000
0100
0000
0002
,
0000
0003
0100
0000
0000
0000
0000
0000
,
0000
0100
0000
0200
,
0300
0110
0000
0000
,
0000
0110
0000
0000
,
0000
0100
0000
0100
,
0020
0000
0000
0000
2030
0000
0000
3000
,
0100
1000
0010
0100
,
0000
0100
0100
0000
,
0002
0000
0000
0000
0000
0003
0010
0000
,
0200
0000
0300
0100
,
0100
0001
1000
0100
,
0100
0000
0000
0000
0200
0300
0100
0000
,
0000
1000
0000
1000
0000
0100
0000
0100
,
0000
1000
0000
0100
0000
0100
0000
2000
,
0000
3000
0020
0000
0000
0000
0130
0000
,
0000
0100
0000
0020
,
0000
0130
0000
0100
,
0000
0100
0000
0020
,
0000
0130
0000
0100
,
0000
0100
0000
0020
,
0000
0130
0100
0100
,
1001
0000
1001
0000
,
0000
0000
0000
0000
,
0020
0000
0000
0000
,
0230
0000
0000
0000
,
0302
0000
0000
0000
,
2000
0003
0000
0000
0000
0000
0000
0000
,
3020
0000
0000
0000
0000
0000
0000
0230
,
0000
0000
0000
0302
,
0000
0000
0000
0003
,
0002
0000
0000
0000
,
0023
0000
0000
0230
,
0000
0000
0000
2300
,
0000
0000
3200
0000
,
0320
0000
0000
0000
,
0000
0000
0000
0000
,
0032
0000
0000
2003
,
0000
0000
3200
0000
,
0302
0000
0000
0200
,
0003
0000
0320
0000
,
2030
0000
0000
0000
,
3020
0000
0000
0000
,
0230
0000
0000
0000
,
0302
0000
0000
0000
,
0023
0000
0000
0000
,
0230
0000
0000
0000
,
2300
0000
0000
0000
,
0000
0000
0000
3200
,
0320
0000
0000
0000
,
0032
0000
0000
0000
,
0003
1010
0000
0000
,
0000
1100
0000
0000
,
0010
0001
0010
0000
,
0000
0100
0000
0100
,
0000
0020
0000
0130
,
0000
0100
0000
0020
,
0000
0130
0000
0100
,
0000
0100
0000
0020
,
0000
0130
0000
0100
,
0000
0100
0000
0020
,
0000
0130
0100
0100
,
1001
0000
1001
0000
,
0000
0020
0000
0130
,
0000
0100
0000
0020
,
0000
0130
0000
0100
,
0000
0100
0000
0020
,
0000
0130
0000
0100
,
0000
0100
0000
0020
,
0000
0130
0100
0100
,
1001
0000
1001
0000
,
0000
0200
0000
0310
,
0000
0010
0000
0200
,
0000
0310
0000
0010
,
0000
0010
0000
0200
,
0000
0310
0000
0010
,
0000
0010
0000
0200
,
0000
0310
0000
0000
,
1001
0000
0000
0000
2002
0000
0000
3003
;

//--------------- dance-single - Blood4Fame ----------------
#NOTES:
     dance-single:
     Blood4Fame:
     Medium:
     6:
     0,0,0,0,0:
0000
0100
0000
0100
,
0000
0100
0000
0100
,
0000
0100
0000
0100
,
0000
0000
0100
0000
0000
1000
0100
2000
,
0000
0000
3000
0000
0000
1000
0001
0200
,
0000
0000
0300
0000
0010
0000
0000
0100
,
0100
0000
0000
0000
0100
0000
0000
2000
,
0000
3100
0000
0200
0000
1300
0100
2000
,
0000
0000
3000
0000
0000
1000
0001
1000
,
0000
0000
0010
0000
0000
0000
0100
0100
,
1002
0100
0100
0003
,
1020
0100
0100
0030
,
2100
0100
3000
1100
,
0102
0100
0100
0003
,
0012
0100
0100
0003
,
2010
0100
0100
3000
,
1100
1100
1100
1100
,
1000
0100
1000
1000
1000
0001
0010
0001
,
0000
0100
0000
0100
,
0000
0100
0020
0130
,
0000
0100
0000
0100
,
0000
1000
0002
1003
,
0000
0100
0000
0100
,
0000
0100
2000
3100
,
0000
0100
1000
0000
,
2002
3003
2002
3003
,
0000
0000
0100
0000
,
0100
0000
0100
0002
,
0000
0003
0000
0000
0100
0000
0000
0000
,
0100
0000
0100
0020
,
0000
0030
0100
0001
,
0100
0000
0100
2000
,
0000
3000
2000
0000
0000
0000
3000
0000
,
1001
0000
1001
0000
,
0100
0000
0100
0000
,
0100
0000
0100
2000
,
0000
3000
0100
0000
,
0100
0000
0100
0002
,
0000
0003
0100
0000
,
0100
0000
0100
2000
,
0000
3000
0100
0000
,
1001
0000
1001
0000
,
0000
1001
0000
1010
,
0000
1001
0000
0101
,
0000
0100
0000
1000
,
0001
1000
1000
0100
,
0000
0101
0000
1010
,
0000
0101
0000
0110
,
0000
1000
1000
0000
,
0202
0303
0202
0303
,
0000
0100
0000
0100
,
0000
0100
0000
0002
,
0000
0003
0100
0000
0000
0000
0100
0000
,
0000
0100
0000
0200
,
0300
0110
0000
0110
,
0000
0110
0000
0110
,
0000
0100
0000
0100
,
0020
0000
0000
0000
2030
0000
0000
3000
,
0100
0001
1000
0000
0010
0000
0100
0010
,
0000
0100
0000
0001
0000
1000
0100
0000
,
0002
0000
0000
0000
0000
0003
0010
0000
,
0200
0000
0000
0000
0300
1000
0100
0001
,
0100
0100
0001
0000
1000
0000
0100
0010
,
0100
0100
0000
1000
0000
0100
0100
0010
,
0000
1000
0001
1000
0000
0100
0010
0100
,
0000
1000
0001
0100
0010
0100
1000
2000
,
0000
3000
0020
0000
0000
0000
0130
0000
,
0000
0100
0000
0020
,
0000
0130
0000
0100
,
0000
0100
0010
0020
,
0000
0130
0000
0100
,
0000
0100
0000
0020
,
0000
0130
0100
0100
,
1001
0000
1001
0000
,
2000
0000
0000
0000
,
3020
0000
0000
0000
,
0230
0000
0000
0000
,
0302
0000
0000
0000
,
2000
0003
0000
0000
0000
0000
3000
0000
,
0020
0000
0000
0000
0000
0000
0000
0230
,
0000
0000
0000
0302
,
0000
0000
0000
0003
,
0002
0000
0000
0000
,
0023
0000
0000
0230
,
0000
0000
0000
2300
,
0000
0000
3200
0000
,
0320
0000
0000
0000
,
0000
0000
0000
0000
,
0032
0000
0000
2003
,
0000
0000
3200
0000
,
0302
0000
0000
0200
,
0003
0000
0320
0000
,
2030
0000
0000
0000
,
3020
0000
0000
0000
,
0230
0000
0000
0000
,
0302
0000
0000
0000
,
0023
0000
0000
0000
,
0230
0000
0000
0000
,
2300
0000
0000
0000
,
0000
0000
0000
3200
,
0320
0000
0000
0000
,
0032
0000
0000
0000
,
0003
1010
0000
1001
,
0000
1100
0000
1000
,
0010
0001
0010
0000
,
1000
0100
0001
0100
,
0000
0020
0000
0130
,
0000
0100
0000
0020
,
0000
0130
0000
0100
,
0000
0100
0010
0020
,
0000
0130
0000
0100
,
0000
0100
0000
0020
,
0000
0130
0100
0100
,
1001
0000
1001
0000
,
0000
0020
0000
0130
,
0000
0100
0000
0020
,
0000
0130
0000
0100
,
0000
0100
0010
0020
,
0000
0130
0000
0100
,
0000
0100
0000
0020
,
0000
0130
0100
0100
,
1001
0000
1001
0000
,
0000
0200
0000
0310
,
0100
0010
0000
0200
,
0000
0310
0000
0010
,
0000
0010
0100
0200
,
0000
0310
0000
0010
,
0000
0010
0000
0200
,
0000
0310
0010
0010
,
1001
0000
0000
0000
2002
0000
0000
3003
;

//--------------- dance-single - Blood4Fame ----------------
#NOTES:
     dance-single:
     Blood4Fame:
     Hard:
     8:
     0,0,0,0,0:
0000
0100
0100
0100
,
0100
0100
0100
0100
,
1100
0100
0100
0100
,
0100
0000
0100
0000
0100
1000
0100
2000
,
0000
0000
3001
0000
0001
1000
0001
0200
,
0000
0000
0310
0000
0010
0000
0010
0100
,
0100
0000
0100
0000
0100
0000
0100
2000
,
0000
3100
0000
0200
0000
1300
0100
2000
,
0000
0000
3001
0000
0001
1000
0001
1000
,
0000
0000
0010
0000
0010
0000
0100
0100
,
1002
0100
0100
0103
,
1020
0100
0100
0130
,
2100
0100
3100
1100
,
0102
0100
0100
0103
,
0012
0100
0100
0103
,
2010
0100
0100
3100
,
1100
1100
1100
1100
,
1000
0100
0000
0100
1000
0000
1000
0000
1000
0000
0001
0000
0010
0000
0001
0000
,
0000
0100
0000
0100
,
0000
0100
0020
0130
,
0000
0100
0000
0100
,
0000
1000
0002
1003
,
0000
0100
0000
0100
,
0000
0100
2000
3100
,
0000
0100
1000
0000
,
2002
3003
2002
3003
,
0110
0000
0100
0000
,
0100
0010
0100
0002
,
0000
0003
0001
0000
0100
0000
1000
0000
,
0100
0010
0100
0020
,
0000
1030
0100
0001
,
0100
1000
0100
2000
,
0000
3000
2000
0000
0000
0000
3000
0000
,
1001
0000
1001
0000
,
0100
0010
0100
1000
,
0100
0001
0100
2000
,
0000
3001
0100
0001
,
0100
0010
0100
0002
,
0000
1003
0100
0010
,
0100
0001
0100
2000
,
0000
3010
0100
0010
,
1001
0000
1001
0000
,
0000
1001
0000
1010
,
0000
1001
0000
0101
,
0000
0100
0010
1000
,
0001
1000
1000
0100
,
0000
0101
0000
1010
,
0000
0101
0000
0110
,
0000
1000
1000
0001
,
0202
0303
0202
0303
,
0000
0100
0010
0100
,
0001
0100
1000
0200
,
0000
0000
1300
0100
,
0010
0100
1000
0200
,
0300
0110
0000
0110
,
0000
0110
0000
0110
,
0000
0100
0001
0100
,
0020
0000
0000
0000
2030
0000
0000
3000
,
0100
0001
1000
0000
0010
0000
0100
0010
,
0000
0100
0000
0001
0000
1000
0100
0000
,
0002
0000
0000
0010
,
0200
0000
0000
0000
0303
1000
0100
0001
,
0101
0000
0101
0010
1000
0000
0100
0010
,
0100
0100
0000
1000
0000
0100
0100
0010
,
0000
1000
0001
1000
0000
0100
0010
0100
,
0000
1000
0001
0100
0010
0100
1000
2000
,
0000
3000
0020
0000
0000
0000
0130
0000
,
0010
0100
0001
0020
,
0000
0130
0000
0100
,
1000
0100
0010
0020
,
0000
0130
0000
0100
,
0001
0100
1000
0020
,
0000
0130
0100
0100
,
1001
0000
1001
0000
,
2000
0000
0000
0000
,
3020
0000
0000
0000
,
0230
0000
0000
0000
,
0302
0000
0000
0000
,
0003
0000
1000
0100
0000
0001
0000
1000
,
0100
0000
0000
0010
0000
0001
1000
0000
,
0001
0100
0000
0010
0100
0000
0000
0100
,
0000
0000
0100
0010
0000
0001
0000
0000
,
0002
0000
0000
0000
,
0023
0000
0000
0230
,
0000
0000
0000
2300
,
0000
0000
0000
0000
,
3000
0000
0001
0100
0000
1000
0000
0001
,
0100
0000
0100
0010
0000
1000
0001
0000
,
1000
0100
0000
0010
0100
0000
0000
0100
,
0000
0000
0100
0010
0000
1000
0000
0000
,
0002
0000
0000
0200
,
0003
0000
0320
0000
,
2030
0000
0000
0000
,
3020
0000
0000
0000
,
0030
0000
0001
0000
0001
1000
0000
0001
,
0010
0000
0010
0100
0000
1000
0001
0000
,
1000
0010
0000
0100
0010
0000
0000
0010
,
0000
0000
0010
0100
0000
1000
0000
0000
,
2000
0000
0000
0000
,
0000
0000
0000
3200
,
0320
0000
0000
0000
,
0032
0000
0000
0000
,
0003
1010
0000
1001
,
0000
0000
1100
0000
0000
0000
1000
0100
,
0010
0000
0001
0100
0010
0000
0000
0000
,
1000
0100
0001
0100
,
0000
0020
0000
0130
,
0010
0100
1000
0020
,
0000
0130
0000
0100
,
0001
0100
0010
0020
,
0000
0130
0000
0100
,
1000
0100
0001
0020
,
0000
0130
0100
0100
,
1001
0000
1001
0000
,
0000
0020
0000
0130
,
0010
0100
0001
0020
,
0000
0130
0000
0100
,
1000
0100
0010
0020
,
0000
0130
0000
0100
,
0001
0100
1000
0020
,
0000
0130
0100
0100
,
1001
0000
1001
0000
,
0000
0200
0000
0310
,
0100
0010
1000
0200
,
0000
0310
0000
0010
,
0001
0010
0100
0200
,
0000
0310
0000
0010
,
1000
0010
0001
0200
,
0000
0310
0010
0010
,
1001
0000
0000
0000
2002
0000
0000
3003
;

//--------------- dance-single - Blood4Fame ----------------
#NOTES:
     dance-single:
     Blood4Fame:
     Challenge:
     10:
     0,0,0,0,0:
0000
0100
0100
0100
,
0100
0100
0100
0100
,
1000
0000
0100
0000
0000
1100
0000
0000
1000
0000
0100
0000
0000
1100
0000
0000
,
1000
0000
0100
0000
0000
1100
0000
0000
0000
0000
1000
0000
0100
0000
1000
0000
,
0000
0000
0010
0000
0000
0011
0000
0000
0010
0000
0001
0000
1000
0000
0000
0000
,
0001
0000
0010
0000
0000
0011
0000
0000
0010
0000
0100
0000
0010
0000
0000
0000
,
0100
0000
0110
0000
0000
0010
0000
0000
0100
0000
0110
0000
0000
0010
0000
0000
,
1000
0000
1100
0000
0000
0100
0000
0000
1000
0000
1100
0000
0000
0100
0000
0000
,
0001
0000
0011
0000
0000
0010
0000
0000
0001
0000
0011
0000
0000
0010
0000
0000
,
1000
0000
1010
0000
0000
0010
0000
0000
1000
0000
0000
0000
0100
0000
0100
0000
,
1002
0000
0100
0000
0100
0000
0003
1000
,
1020
0000
0100
0000
0100
0000
0030
0010
,
2100
0100
3100
1100
,
0201
0000
0001
0000
0001
0000
0300
0100
,
0012
0100
0100
0103
,
2010
0100
0100
3100
,
0000
1000
0100
0010
0000
1000
0100
0010
,
1000
0100
1000
0100
1000
0100
1000
0100
1000
0100
1000
0100
1000
0000
0001
0010
,
0100
0100
0000
0100
,
0000
0100
0020
0130
,
0000
0100
0000
0100
,
0000
1000
0002
1003
,
0000
0100
0000
0100
,
0000
0100
2000
3100
,
0000
0100
1000
0001
,
2002
3003
2002
3003
,
0110
0000
0100
0000
,
0100
0010
0100
0002
,
0100
0003
0001
0000
0100
0000
1000
0000
,
0100
0010
0100
0020
,
0100
1030
0100
0001
,
0100
1000
0100
2000
,
0100
3000
2000
0000
0100
0000
3000
0000
,
1001
0000
1001
0000
,
0100
0010
0100
1000
,
0100
0001
0100
2000
,
0100
3001
0100
0001
,
0100
0010
0100
0002
,
0100
1003
0100
0010
,
0100
0001
0100
2000
,
0100
3010
0100
0010
,
1001
0000
1001
0000
,
0000
1001
0000
1010
,
0000
1001
0000
0101
,
0000
0100
0010
1000
,
0001
1000
1000
0100
,
0000
0101
0000
1010
,
0000
0101
0000
0110
,
0000
1000
1000
0001
,
0202
0303
2200
3300
,
0000
0100
0010
0100
,
0001
0100
1000
2100
,
0000
3100
1000
0100
,
0010
0100
1000
0022
,
0033
0110
0000
0110
,
0000
0110
0000
0110
,
0000
0100
0001
0100
,
0020
0000
0230
0300
,
1100
0000
1100
1000
0001
0000
0100
0010
,
0000
0100
0000
0001
0000
1000
0100
0000
,
0002
0000
0000
0010
,
0200
0000
0000
0000
0303
0010
0100
0001
,
0101
0000
0101
0010
1000
0000
0100
0010
,
0100
0100
0000
1000
0000
0100
0100
0010
,
0000
0001
1000
0001
0000
0100
0010
0100
,
0000
1000
0001
0100
0010
0100
1000
0002
,
0000
0003
0120
0000
0000
0000
0130
0000
,
0010
0100
0001
0120
,
0000
0130
0000
0100
,
1000
0100
0010
0120
,
0000
0130
0000
0100
,
0001
0100
1000
0120
,
0000
0130
0100
0100
,
1001
0000
1001
0000
,
2000
0000
0000
0000
,
3020
0000
0000
0000
,
0230
0000
0000
0000
,
0302
0000
0000
0000
,
0003
0000
1000
0100
1000
0001
0000
1000
,
0100
0000
0100
0010
0000
0001
1000
0000
,
0001
0100
0000
0010
0100
0000
0000
0100
,
0000
0000
0100
0010
1000
0001
0000
0000
,
0002
0000
0000
0000
,
0023
0000
0000
0230
,
0000
0000
0000
2300
,
0000
0000
0000
0000
,
3000
0000
0001
0100
0001
1000
0000
0001
,
0100
0000
0100
0010
0000
1000
0001
0000
,
1000
0100
0000
0010
0100
0000
0000
0100
,
0000
0000
0100
0010
0001
1000
0000
0000
,
0002
0000
0000
0200
,
0003
0000
0320
0000
,
2030
0000
0000
0000
,
3020
0000
0000
0000
,
0030
0000
1000
0010
1000
0001
0000
0001
,
0010
0000
0010
0100
0000
1000
0001
0000
,
1000
0010
0000
0100
0010
0000
0000
0010
,
0000
0000
0010
0100
0001
1000
0000
0000
,
2000
0000
0000
0000
,
0000
0000
0000
0000
0000
0200
3000
0000
,
0320
0000
0000
0000
,
0032
0000
0000
0000
,
0003
0000
1000
0010
1000
0000
1000
0001
,
1000
0000
1000
0100
1000
0000
1000
0100
,
0010
0000
0001
0100
0010
0000
0000
0000
,
1000
0100
0001
0100
,
0000
0120
0000
0130
,
0010
0100
1000
0120
,
0000
0130
0000
0100
,
0001
0100
0010
0120
,
0000
0130
0000
0100
,
1000
0100
0001
0120
,
0000
0130
0100
0100
,
1001
0000
1001
0000
,
0000
0120
0000
0130
,
0010
0100
0001
0120
,
0000
0130
0000
0100
,
1000
0100
0010
0120
,
0000
0130
0000
0100
,
0001
0100
1000
0120
,
0000
0130
0100
0100
,
1001
0000
1001
0000
,
0000
0210
0000
0310
,
0100
0010
1000
0210
,
0000
0310
0000
0010
,
0001
0010
0100
0210
,
0000
0310
0000
0010
,
1000
0010
0001
0210
,
0000
0310
0010
0010
,
1001
0000
0000
0000
2002
0000
0000
3003
;
