#TITLE:Pirates of the Caribbean Theme Song;
#SUBTITLE:(Dubstep Remix);
#ARTIST:PUNYASO;
#TITLETRANSLIT:;
#SUBTITLETRANSLIT:;
#ARTISTTRANSLIT:;
#GENRE:EDM;
#CREDIT:Blood4Fame;
#MUSIC:music.mp3;
#BANNER:banner.png;
#BACKGROUND:bg.png;
#CDTITLE:;
#SAMPLESTART:13.180;
#SAMPLELENGTH:21.705;
#SELECTABLE:YES;
#OFFSET:-0.362;
#BPMS:0.000=110.000
,60.000=55.000
,62.000=110.000
,76.000=55.000
,77.000=110.000
,85.000=55.000
,89.000=110.000
,117.000=108.000
,121.000=110.000
,125.000=109.000
,129.000=110.000
,133.000=111.000
,137.000=112.000
,141.000=110.000
,149.000=54.000
,151.000=110.000
,179.000=55.000
,181.000=110.000
,195.000=55.000
,196.000=110.000
;
#STOPS:;
#BGCHANGES:;
#FGCHANGES:;

//--------------- dance-single - Blood4Fame ----------------
#NOTES:
     dance-single:
     Blood4Fame:
     Easy:
     3:
     0,0,0,0,0:
0000
0000
0000
0000
,
0000
0000
0000
0000
,
0000
0000
0000
0000
,
0000
0000
0000
0000
,
0000
0000
0000
0000
,
0000
0000
0000
0000
,
0000
0000
0000
0000
,
0000
0000
0000
0000
,
1001
0000
1000
0010
,
0100
0000
0010
1000
,
0100
0000
0001
0100
,
0001
0000
0010
0100
,
0001
0000
0010
0100
,
1000
0000
1000
0010
,
0100
0000
0001
0100
,
0010
0000
0110
0000
,
0100
0010
1000
0000
,
0001
0010
0100
0000
,
0100
0010
0001
0000
,
0010
1000
0000
0001
,
0010
0100
0000
0100
,
0010
0001
0000
0000
,
0000
1001
0000
1000
,
0000
0110
0000
0001
,
0000
1010
0000
0100
,
0000
0011
0000
0100
,
0100
0100
0000
1010
,
0000
0001
0100
0001
,
0000
0011
0000
1000
,
0000
0010
0100
0010
,
0010
0100
0000
0000
,
0000
0010
0000
0000
,
0000
0100
0000
0000
,
0000
0010
0000
0000
,
0000
1000
0000
0100
,
0000
1000
0000
0001
,
0000
1000
0100
1000
,
0001
0100
0000
1001
,
0000
0001
0010
0100
,
0000
1000
0010
0100
,
0000
1000
0001
0100
,
0000
0010
0100
1000
,
0000
0001
0100
0010
,
0000
0001
0100
1000
,
0000
0001
0010
0100
,
0000
1001
0000
0100
,
0000
0010
0100
0010
,
0100
1000
0000
0001
,
0010
0100
0000
0001
,
1001
0000
0010
0000
,
1100
0000
0010
0000
,
0101
0000
0010
0000
,
0110
0000
1000
0001
,
0110
0000
1000
0000
,
0001
0010
0100
0001
,
0110
0000
1000
0000
,
0001
0000
0010
0100
,
2002
0000
3003
0000
;

//--------------- dance-single - Blood4Fame ----------------
#NOTES:
     dance-single:
     Blood4Fame:
     Medium:
     6:
     0,0,0,0,0:
0000
0000
0000
0000
,
0000
0000
0000
0000
,
0000
0000
0000
0000
,
0000
0000
0000
0000
,
0000
0000
0000
0000
,
0000
0000
0000
0000
,
0000
0000
0000
0000
,
0000
0000
0000
0000
,
1100
0000
1001
0001
0010
0000
0110
0100
,
0001
0000
1001
1000
0100
0010
0000
0001
,
0110
0000
1010
1000
0001
0000
0011
0010
,
0100
0000
1010
1000
0001
1000
0010
1000
,
0001
0000
0101
0001
1000
0000
0110
0010
,
0001
0000
0101
0001
1000
0100
0000
0001
,
0011
0000
1000
0010
1010
0000
0001
0010
,
0000
0000
1000
0001
,
0010
0100
0000
0001
0100
0010
0000
1000
,
0010
0100
0000
0001
0100
0000
0001
1000
,
0100
0010
0000
0100
1000
0010
0000
1000
,
0100
0000
1001
0000
0100
0010
1000
0000
,
1000
0100
0010
0000
0001
0100
0010
1000
,
0000
0001
0100
0000
0000
0000
0000
0000
,
0000
0000
0001
0010
0001
0100
0000
0100
,
0010
1000
0100
1000
0100
0010
0100
0000
,
1000
0100
0010
0100
0010
0001
0000
1000
,
0100
0010
0000
1000
0100
0010
0001
0000
,
1000
0001
1000
0010
1000
0100
0000
0001
,
0100
0010
0000
1000
0100
0010
0001
0000
,
0010
0100
1000
0100
0010
0010
0000
0100
,
1000
1000
0000
0001
0100
0010
0000
0100
,
1000
0100
0010
0000
0000
0000
0000
0000
,
0000
0000
0000
0000
,
0000
0001
0000
0100
,
0000
0001
0000
0100
,
0000
0001
0000
0010
,
0000
0001
0000
0100
,
0000
1000
0100
1000
,
0010
0100
0000
1100
,
1001
0001
0010
0000
0110
0100
0001
0000
,
1001
1000
0100
0010
0000
0001
0110
0000
,
1010
1000
0001
0000
0011
0010
0100
0000
,
1010
1000
0001
1000
0010
1000
0001
0000
,
0101
0001
1000
0000
0110
0010
0001
0000
,
0101
0001
1000
0100
0000
0001
0011
0000
,
1000
0010
1010
0000
0001
0010
0000
0000
,
0000
0000
1000
0010
1000
0100
0000
0100
,
0010
0001
0100
0001
0100
0010
0100
0000
,
0001
0100
0010
0100
0010
0001
0000
0001
,
0100
0010
0000
0001
0100
0010
1000
0000
,
0001
0010
0001
0100
0000
0100
0010
1000
,
0100
1000
0100
0010
0100
0000
1000
0100
,
0010
0100
0010
0001
0000
1000
0100
0010
,
0000
1000
0100
0010
0001
0000
1000
0001
,
1000
0010
1000
0100
0000
0001
0100
0010
,
0000
1000
0100
0010
0001
0000
0010
0100
,
1000
0100
0010
0010
0000
0100
1000
1000
,
0000
0001
0100
0010
0000
0100
1000
0100
,
0010
0000
0000
0000
;

//--------------- dance-single - Blood4Fame ----------------
#NOTES:
     dance-single:
     Blood4Fame:
     Hard:
     9:
     0,0,0,0,0:
0000
0000
0000
0000
,
0000
0000
0000
0000
,
0000
0000
0000
0000
,
0000
0000
0000
0000
,
0000
0000
0000
0000
,
0000
0000
0000
0000
,
0001
0000
1000
0001
0000
1000
0010
0100
,
0001
0000
0010
0000
0100
0001
0100
1000
,
0110
0000
0000
0001
1000
0000
0100
0000
1000
0000
0010
0000
1000
0000
0001
0000
,
0100
0000
0000
0010
1000
0000
0001
0000
1000
0000
0010
0000
0100
0000
0001
0000
,
0110
0000
0000
1000
0100
0000
1000
0000
0001
0000
0010
0000
0001
0000
0100
0000
,
1000
0000
0100
0010
1000
0100
0010
0000
0011
0000
0001
0000
0101
0000
0001
0000
,
1010
0000
0000
0100
0001
0000
0100
0010
1000
0000
0001
0000
1000
0000
0100
0010
,
0001
0000
0100
0000
0001
0000
0010
0100
1000
0000
0001
0000
0100
0000
0001
0010
,
0100
0000
0010
0100
0000
0001
0100
0000
0001
0000
1000
0001
0000
1000
0001
0000
,
0010
0100
0000
0000
0000
0000
0000
0000
0000
0000
0000
0000
1001
0000
0000
0100
0000
0000
1001
0000
0000
0010
0000
0000
,
1010
0000
0001
0000
0010
0000
1000
0000
0011
0000
0000
1100
0000
0010
0001
0000
,
0101
0000
0001
0000
1001
0000
1000
0000
1100
0000
0100
0010
0000
0001
0100
0000
,
0101
0000
1000
0100
0000
1000
0010
0000
1010
0000
0001
0010
0000
0001
0100
0000
,
0002
0000
0000
0013
0011
0000
1000
0000
0010
0000
1000
0010
0100
0000
0010
0000
,
0100
0000
0001
0010
0100
0000
0010
0000
0100
0000
1000
0001
0100
0000
0001
0000
,
0100
0000
1000
0100
0010
0000
0000
0000
0000
0000
0000
0000
0000
0000
0000
0000
,
0000
0000
0000
0000
0010
0001
0100
0010
1000
0000
0001
0000
0001
0100
0010
1000
,
0100
0000
1000
0000
1000
0100
0010
0100
1000
0000
0001
0100
0001
0000
0010
0100
,
1000
0001
1000
0100
1000
0000
1000
0000
0010
0000
0100
0010
0100
0001
0010
0100
,
0010
0000
0001
0000
0001
0000
1000
0100
0010
0000
0001
0000
0010
0000
0100
0010
,
0100
0000
1000
0001
0100
0000
0001
0000
1000
0000
0100
0010
0100
1000
0001
0010
,
0100
0000
0100
0000
1000
0100
0010
0001
1000
0000
0010
1000
0010
0000
0100
0001
,
0010
0100
1000
0001
0100
0000
0001
0000
1001
0000
0100
0000
1000
0100
0010
0001
,
0100
0000
0010
0000
1000
0000
0001
0010
0100
0000
1000
0000
0010
0000
0000
0000
,
0110
2002
0000
0000
,
3003
0000
2200
0000
0000
3300
2002
0000
,
0000
3003
2100
0000
0100
3000
2001
0000
,
0010
3000
1100
0010
0100
1000
1001
0100
,
0010
1000
1100
0010
0100
1000
1100
0010
,
0100
1000
1100
0010
0100
1000
1100
0010
,
0100
0000
1000
0000
1000
0100
1000
0010
0100
1000
0100
0010
1000
0100
0010
0001
,
0010
0001
0100
0010
0200
0000
0000
0000
0300
0000
0000
0000
0110
0000
0000
1000
,
0001
0000
0010
0000
0001
0000
0200
0000
0302
0000
2003
0000
3020
0000
0030
0100
,
0002
0000
1003
0000
0002
0000
0103
0000
0010
0000
1000
0000
0110
0000
0000
0001
,
0010
0000
0001
0000
1000
0000
0200
0000
2300
0000
3020
0000
0031
0000
0010
0100
,
0001
0010
0100
0000
1100
0000
1000
0000
1010
0000
1000
0000
0101
0000
0000
0010
,
1000
0000
0010
0100
0002
0000
2003
0000
3001
0000
0010
0100
2000
0000
3020
0000
,
1030
0000
0100
0010
0002
0000
2003
0000
3010
0000
1000
0100
0010
0000
0100
0010
,
0000
0000
0000
1000
0000
0000
0010
0000
0000
0000
0000
0000
1000
0000
0000
0000
0000
0000
0001
0000
0000
1000
0000
0000
0000
0000
0000
0001
0000
0000
1000
0000
0000
0000
0000
0000
0100
0000
0010
0000
0000
0000
0000
0000
0000
0000
0000
0000
,
0000
0000
1001
0010
1001
0100
0101
1000
,
0100
0000
0001
0000
1100
0000
0000
0011
0000
0100
1000
0000
1010
0000
1000
0000
,
1001
0000
0001
0000
0011
0000
0010
0100
0000
1000
0010
0000
1010
0000
0001
0010
,
0000
0001
0100
0000
0101
0000
1000
0100
0000
1000
0010
0000
2000
0000
0000
3100
,
0100
1000
0010
0100
0002
0000
1003
0000
1000
0010
0100
0001
0020
0000
0031
0000
,
0001
0010
0100
0010
0001
0000
1000
0010
1000
0000
0100
0010
0001
1000
0001
0010
,
0001
0000
0001
0000
0200
0000
0310
0100
0010
1000
0100
0010
0100
0000
1000
0000
,
1000
0000
0001
0010
0100
0000
1000
0000
0100
0000
0010
0100
0010
0000
0001
1000
,
0020
0000
2030
0000
3001
0000
0010
0100
0010
0001
1000
0100
0010
0000
0010
0000
,
0001
0010
0100
1000
0001
0000
0100
0001
0100
0000
0010
1000
0100
0010
0001
1000
,
0010
0000
1000
0000
1001
0000
0010
0000
0001
0010
0100
1000
0010
0000
0100
0000
,
0001
0000
1000
0100
0010
0000
0001
0000
0100
0000
0010
1000
0010
0100
0010
0000
,
0220
0000
0000
0330
;
