#TITLE:「Passion」;
#SUBTITLE:;
#ARTIST:宇多田 ヒカル;
#TITLETRANSLIT:Passion;
#SUBTITLETRANSLIT:;
#ARTISTTRANSLIT:Utada Hikaru;
#GENRE:J/K-Pop;
#CREDIT:Blood4Fame;
#MUSIC:music.mp3;
#BANNER:banner.png;
#BACKGROUND:bg.png;
#CDTITLE:;
#SAMPLESTART:18.721;
#SAMPLELENGTH:19.943;
#SELECTABLE:YES;
#OFFSET:0.763;
#BPMS:0.000=109.000;
#STOPS:;
#BGCHANGES:1.363=video.avi=1.000=1=0=1===CrossFade==,
99999.000=-nosongbg-=1.000=0=0=0=StretchNoLoop====
;
#FGCHANGES:;

//--------------- dance-single - Blood4Fame ----------------
#NOTES:
     dance-single:
     Blood4Fame:
     Beginner:
     3:
     0,0,0,0,0:
0000
0000
0000
0000
,
0020
0000
0000
0000
,
0030
0000
0000
0000
,
0200
0000
0000
0000
,
0300
0000
0000
0000
,
0002
0000
0000
0000
,
0003
0000
0000
0000
,
2000
0000
3000
0010
,
0020
0000
0030
0010
,
0010
0000
0010
0000
,
0100
0000
0100
0000
,
0001
0000
0001
0000
,
0100
0000
0100
0000
,
1000
0000
1000
0000
,
0100
0000
0100
0000
,
0010
0000
0010
0000
,
0100
0000
0100
0000
,
0001
0000
0001
0000
,
1000
0000
1000
0000
,
0010
0000
0010
0000
,
0100
0000
0100
0000
,
0001
0000
0001
0000
,
0010
0000
0010
0000
,
0100
0000
0100
0000
,
1000
0000
1000
0000
,
1001
0000
0000
0000
,
1100
0000
0000
0000
,
1001
0000
0000
0000
,
0101
0000
0000
0000
,
0010
0010
0010
0000
,
1000
1000
1000
0000
,
0100
0100
0100
0000
,
1000
1000
1000
0000
,
0010
0010
0010
0000
,
0100
0100
0100
0000
,
0001
0001
0001
0000
,
0010
0010
0010
0100
,
0002
0000
2003
0000
,
3020
0000
0230
0000
,
0302
0000
0023
0000
,
0032
0000
0203
0000
,
0320
0000
0230
0000
,
2300
0000
3020
0000
,
0230
0000
0302
0000
,
2003
0000
3020
0000
,
2030
0000
3020
0000
,
0230
0000
0302
0000
,
2003
0000
3002
0000
,
2003
0000
3020
0000
,
0230
0000
0320
0000
,
0230
0000
2300
0000
,
3002
0000
0023
0000
,
0230
0000
0320
0000
,
0230
0000
2300
0000
,
3002
0000
0003
0000
,
0001
0010
0200
0000
,
0320
0000
2030
0000
,
3100
0010
0002
0000
,
0023
0000
0230
0000
,
0302
0000
1003
0100
,
2000
0000
3020
0000
,
0230
0000
0302
0000
,
0023
0000
2030
0000
,
3010
0100
0200
0000
,
0320
0000
0032
0000
,
1003
0100
0200
0000
,
2300
0000
3020
0000
,
0130
0001
0200
0000
,
0320
0000
2030
0000
,
3100
0010
0002
0000
,
2003
0000
3002
0000
,
2003
0000
3002
0000
,
2003
0000
3002
0000
,
2003
3000
0000
0000
;

//--------------- dance-single - Blood4Fame ----------------
#NOTES:
     dance-single:
     Blood4Fame:
     Easy:
     4:
     0,0,0,0,0:
0000
0000
0000
0000
,
2000
0000
0000
0000
,
0000
3000
0000
0010
,
0200
0000
0000
0000
,
0000
0000
0000
0000
0000
0000
0000
0000
0000
0300
0000
0000
0010
0000
0000
0000
,
2000
0000
0000
3001
0000
0000
0200
0000
,
0000
0000
0000
0000
0000
0300
1000
0000
,
0020
0000
0000
0000
,
0000
0000
0000
0030
,
1000
0000
1000
0000
0200
0000
0000
0300
,
0001
0000
0001
0000
0200
0000
0000
0300
,
0010
0000
1000
0000
0020
0000
0000
0030
,
0010
0000
0001
0000
0020
0000
0000
0030
,
1000
0000
1000
0000
0020
0000
0000
0030
,
0001
0000
0001
0000
0020
0000
0000
0030
,
1000
0000
0100
0000
2000
0000
0000
3000
,
0001
0000
0100
0000
0002
0000
0000
0003
,
1000
0000
0010
0000
0002
0000
0000
0003
,
0001
0000
0010
0000
2000
0000
0000
3000
,
1000
0000
0100
0000
0002
0000
0000
0003
,
0001
0000
0100
0000
2000
0000
0000
3000
,
0010
0000
0100
0000
0002
0000
0000
0003
,
0010
0000
0100
0000
2000
0000
0000
3000
,
0100
0000
0010
0000
2000
0000
0000
3000
,
0100
0000
0010
0000
0002
0000
0000
0003
,
1001
0000
0020
0030
,
1001
0000
0020
0030
,
1001
0000
0020
0030
,
1001
0000
0020
0030
,
0200
0000
0000
0302
0000
0000
0203
0000
,
0320
0000
0000
1030
0000
0000
0200
0000
,
2300
0000
0000
3002
0000
0000
0013
0000
,
0100
0000
0000
0001
0000
0000
1000
0000
,
0200
0000
0000
0320
0000
0000
0032
0000
,
0103
0000
0000
0010
0000
0000
1000
0000
,
0200
0000
0000
2300
0000
0000
3020
0000
,
0230
0000
0000
0302
0000
0000
1003
0000
,
0100
0100
0001
0010
,
0100
0001
1000
0100
,
0020
0100
1000
0031
,
0010
0100
0010
0001
,
2000
0100
3010
0010
,
0100
0001
0010
0100
,
0200
1000
2300
3001
,
1000
1000
0100
0010
,
0001
0001
0100
0010
,
1000
0100
0010
0001
,
0002
0100
0023
1030
,
1000
0100
0001
0100
,
0010
0010
1000
0100
,
0010
0001
0100
0010
,
2000
0001
3100
0020
,
2030
0100
3010
0002
,
0003
0000
0000
0000
0020
0000
0030
0020
,
0000
0030
1000
0000
0100
0000
0000
0000
,
0000
0000
0100
0000
0002
0000
0003
0020
,
0000
0030
1000
0000
0100
0000
0000
0010
,
0000
0000
0100
0000
0020
0000
0030
2000
,
0000
3000
0002
0000
0000
0003
0100
0000
,
0010
0000
1000
0000
0200
0000
0300
0020
,
0000
0030
0001
0000
0100
0000
0000
0010
,
0000
0000
2000
0000
3200
0000
0300
0200
,
0000
0300
0020
0000
1030
0000
0100
0000
,
0010
0000
0002
0000
0203
0000
0300
0020
,
0000
0030
1000
0000
0001
0000
0000
0100
,
0000
0000
0010
0000
2000
0000
3000
0002
,
0000
0003
0020
0000
0130
0000
0000
0001
,
0000
0000
2000
0000
3020
0000
0030
0200
,
0000
0300
0002
0000
0203
0000
0300
0010
,
0000
0000
2000
0000
3200
0000
0300
0100
,
0020
0000
0030
0000
0100
0000
0000
0100
,
0020
0000
0030
0000
0100
0000
0000
0100
,
0020
0000
0030
0000
0100
0000
0000
0100
,
0020
0030
0000
0000
;

//--------------- dance-single - Blood4Fame ----------------
#NOTES:
     dance-single:
     Blood4Fame:
     Medium:
     7:
     0,0,0,0,0:
0000
0000
0000
0000
,
0000
0000
0000
0000
,
0000
0000
0000
0000
,
0000
0000
0000
0000
,
0000
0000
0000
0000
,
0000
0000
0000
0000
,
0000
0000
0000
0000
,
0000
0000
0000
0000
,
0000
0000
0000
0000
,
0101
0100
0010
0000
0011
0000
0102
0000
,
0103
0000
1100
0000
0001
0100
0010
0100
,
0101
0000
0000
0001
1000
0000
0000
0001
0000
0000
0010
0000
0001
0000
1000
0000
,
0100
0000
0000
0100
0010
0000
0000
0001
0000
0000
0100
0000
1000
0000
0100
0000
,
0010
0000
0000
0000
1010
0000
0000
0001
0000
0000
0010
0000
0000
0100
0010
0000
,
1100
0000
0000
0000
0200
0000
0000
0301
0000
0000
1100
0000
0000
0000
0010
0002
,
0003
0000
0000
0000
0000
0000
0000
0000
0000
0000
0000
0000
0000
0000
0000
0000
0000
0000
0000
0000
0000
0000
0000
0000
0000
0000
0000
0000
0000
0000
0000
0000
0000
0000
0000
0000
0100
0000
0000
0000
0000
0000
0000
0000
0000
0000
0000
0000
0010
0000
0000
0000
0000
0000
0000
0000
0000
0000
0000
0000
0000
0000
0000
0000
0000
0000
0000
0000
0000
0000
0000
0000
0000
0000
0000
0000
0000
0000
0000
0000
0000
0000
0000
0000
1010
0000
0000
0000
0000
0000
0000
0000
0000
0000
0000
0000
0000
0000
0000
0000
0000
0000
0000
0000
0000
0000
0000
0000
0000
0000
0000
0000
0000
0000
0000
0000
0000
0000
0000
0000
2200
0000
0000
0000
0000
0000
0000
0000
0000
0000
0000
0000
0000
0000
0000
0000
0000
0000
0000
0000
0000
0000
0000
0000
0000
0000
0000
0000
0000
0000
0000
0000
0000
0000
0000
0000
0000
0000
0000
0000
0000
0000
0000
0000
0000
0000
0000
0000
0000
3300
0000
0000
0000
0000
0000
0000
0000
0000
0000
0000
0000
0000
0000
0000
0000
0000
0000
0000
0000
0000
0000
0000
,
0000
0000
0000
0001
0010
0000
0000
0202
0303
0000
0022
0000
0033
0000
0200
0000
,
0300
0000
0000
0001
1000
0000
0000
0010
0000
0000
1000
0000
0200
0000
0000
0000
,
0310
0000
0000
0000
0001
0000
0001
0000
0001
0000
0000
0100
0000
0000
0010
0000
,
0000
0200
0000
0000
0000
0000
0000
0000
0000
0000
0000
0000
0000
0000
0000
0300
,
2000
0000
0000
0000
0000
0000
0000
0000
0000
0000
0000
3001
0020
0000
0030
0000
,
0101
0000
0000
1000
0000
0000
0001
0000
0000
0022
0000
0000
0000
0003
0000
0030
,
0020
0000
0030
0000
0002
0000
0203
0000
0300
0000
1100
0000
0000
0000
1000
0002
,
0003
0000
0000
0000
0101
0000
0000
0010
0100
0000
0000
0200
0000
0000
0000
0300
,
0000
0000
0100
0000
1010
0000
0000
0001
0010
0000
0000
0000
0011
0000
0000
0000
,
0202
0000
0000
0303
,
0100
0000
0000
0100
0000
0000
0100
0000
2000
0000
0000
0000
3000
0000
0000
0000
,
0100
0000
0000
0100
0000
0000
0100
0000
0002
0000
0000
0000
0003
0000
0000
0000
,
0100
0000
0000
0100
0000
0000
0100
0000
2000
0000
0000
0000
3000
0000
0000
0000
,
0001
0001
0001
0000
0010
0000
0010
0000
,
0100
0100
0100
1000
0000
1000
0010
0000
,
0100
0100
0100
0000
0001
0000
0001
0000
,
1000
1000
1000
0010
0000
0010
0000
1000
,
0100
0000
0000
0010
0001
0000
0100
0000
0000
0010
2000
0000
0100
0000
0000
0000
,
3010
0010
0010
2000
0000
3001
0000
0010
,
0002
0000
0000
0000
0103
0000
2000
0000
0000
0000
3000
0000
0022
0000
0033
0200
,
0000
0000
0000
0000
0000
0000
0000
0000
0000
0000
0000
0300
2020
0000
0000
3030
,
0100
0000
0000
0100
0010
0000
0000
0100
0000
0000
1000
0000
1000
0000
1000
0000
,
0010
0000
0001
0010
0000
1000
0010
1000
,
0100
0000
0000
0100
0010
0000
0000
1000
0000
0001
0010
0000
0000
0001
0010
0000
,
0100
0000
0000
0100
1000
0000
0000
0001
0000
1000
0100
0000
0000
1000
0100
0000
,
0011
0000
0000
0100
0000
0000
1010
0000
0000
0100
0000
0000
0001
0000
0000
1000
,
0100
0000
0000
0000
0020
0000
0000
0031
0000
0000
1001
0000
0000
0000
0010
0001
,
0000
0000
0000
0000
1001
0000
0000
0000
0011
0000
0000
2002
0000
0000
0000
3003
,
0000
0000
0000
0000
0100
0000
0000
0010
0000
0000
1001
0000
0000
0000
0022
0000
,
0000
0033
0000
0000
0100
0000
0010
0000
0000
0000
0100
0000
0010
0000
0010
0000
,
0100
0000
0000
0001
1000
0000
1000
0000
1000
0000
0100
0000
0010
0000
0001
0000
,
0001
0000
0000
0001
1000
0000
0000
0100
0000
0000
0010
0000
0010
0000
0010
0000
,
0001
0000
0000
0100
0010
0000
0000
1000
0000
0000
0100
0000
0100
0000
0100
0000
,
0020
0000
0000
0000
0230
0000
0000
2300
0000
3002
0000
0000
0000
0000
0000
0000
,
0103
0000
0000
0000
0001
0000
0010
0000
0100
0000
0000
0100
0000
0000
0100
1000
,
0000
0000
0000
0000
0100
0000
0010
0001
0000
0000
0000
0000
2020
0000
0000
3030
,
2200
0000
3300
0000
0001
0000
0100
0010
0000
0000
2020
0000
0000
0000
3030
0000
,
0000
0000
0000
0000
1000
0000
1000
0100
,
0000
0010
0001
0000
0100
0010
1000
0100
,
2000
0000
0000
0000
3002
0000
0000
0000
0003
0000
0010
0000
0010
0000
0001
0200
,
0000
0300
0010
0000
0100
0000
0001
0200
0000
0000
0310
0000
1000
0000
0100
0020
,
0000
0030
1000
0100
0020
0000
0000
0030
,
0010
0010
0001
0001
0100
0000
0100
0010
,
0001
0000
0000
0000
1000
0000
1000
0000
0200
0000
0300
0000
0100
0000
1000
0020
,
0000
0030
0100
0000
0010
0000
0001
0020
0000
0000
0230
0000
0000
0000
0310
0002
,
0000
0003
0020
0030
2020
0000
3030
2200
,
0000
0000
3300
0000
0022
0000
0000
0033
0202
0000
0000
0000
0000
0000
0000
0000
,
0000
0000
0000
0300
0203
0000
0000
0300
0220
0000
0000
0000
0000
0330
2020
0000
,
0000
0000
0000
3030
,
0200
0000
0310
0001
0021
0000
0031
0102
,
0000
0103
0210
0000
1320
0000
0030
0000
,
0000
0000
0000
0022
0000
0033
0202
0000
0000
0303
2002
0000
0000
0000
0000
3003
,
0000
0000
0010
0000
0000
0100
0010
0000
0100
0000
0000
0100
0010
0000
0000
0000
,
0001
0000
0000
0010
0002
0000
0003
0000
0201
0000
0000
0001
0000
0000
0301
0000
,
0020
0000
0000
0000
0000
0000
0030
0000
0201
0000
0000
0001
0000
0000
0301
0000
,
0020
0000
0000
0000
0000
0000
0030
0000
0201
0000
0000
0001
0000
0000
0301
0000
,
0020
0000
0000
0000
0000
0000
0030
0000
0201
0000
0000
0001
0000
0000
0301
0000
,
0020
0030
0000
0000
;

//--------------- dance-single - Blood4Fame ----------------
#NOTES:
     dance-single:
     Blood4Fame:
     Hard:
     9:
     0,0,0,0,0:
0000
0000
0000
0000
,
0000
0000
0000
0000
,
0000
0000
0000
0000
,
0000
0000
0000
0000
,
0000
0000
0000
0000
,
0000
0000
0000
0000
,
0000
0000
0000
0000
,
0000
0000
0000
0000
,
0000
0000
0000
0000
,
1100
0000
0000
0100
0010
0000
0001
0100
0000
1010
0000
0000
2100
0000
0000
0000
,
3100
0000
0000
0000
0101
0000
0000
0010
1000
0000
0100
0000
0010
0000
0100
0000
,
1100
0000
0000
1000
0001
0000
0000
1000
0000
1000
0010
0000
1000
0000
0001
0010
,
0100
0000
0000
0100
0010
0000
0000
0001
0000
0000
0100
0010
1000
0000
0100
0010
,
0001
0000
0000
0000
0011
0000
0000
1000
0000
1000
0010
0000
0000
0100
0010
0000
,
0101
0000
0000
0010
0200
0000
0000
1300
0000
0002
0000
0203
0000
0000
0310
2000
,
3000
0000
0000
0000
0000
0000
0000
0000
0000
0000
0000
0000
0000
0000
0000
0000
0000
0000
0000
0000
0000
0000
0000
0000
0000
0000
0000
0000
0000
0000
0000
0000
0000
0000
0000
0000
0100
0000
0000
0000
0000
0000
0000
0000
0000
0000
0000
0000
0010
0000
0000
0000
0000
0000
0000
0000
0000
0000
0000
0000
0000
0000
0000
0000
0000
0000
0000
0000
0000
0000
0000
0000
0000
0000
0000
0000
0000
0000
0000
0000
0000
0000
0000
0000
0011
0000
0000
0000
0000
0000
0000
0000
0000
0000
0000
0000
0000
0000
0000
0000
0000
0000
0000
0000
0000
0000
0000
0000
0000
0000
0000
0000
0000
0000
0000
0000
0000
0000
0000
0000
0202
0000
0000
0000
0000
0000
0000
0000
0000
0000
0000
0000
0000
0000
0000
0000
0000
0000
0000
0000
0000
0000
0000
0000
0000
0000
0000
0000
0000
0000
0000
0000
0000
0000
0000
0000
0000
0000
0000
0000
0000
0000
0000
0000
0000
0000
0000
0000
0000
0303
0000
0000
0000
0000
0000
0000
0000
0000
0000
0000
0000
0000
0000
0000
0000
0000
0000
0000
0000
0000
0000
0000
,
0000
0000
0000
1000
0010
0000
0000
2200
3300
0000
2020
0000
3030
0000
0220
0000
,
0330
0000
0000
1000
0001
0000
0000
0010
0000
0000
0001
0000
0200
0000
0000
0000
,
0310
0000
0000
0000
1000
0000
1000
0000
1000
0000
0000
0100
0000
0000
0010
0000
,
0000
0200
0000
0000
0000
0000
0000
0000
0000
0000
0000
0000
0000
0000
0000
0310
,
0002
0000
0000
0000
0000
0000
0000
0000
0000
0000
0000
1003
0020
0000
0030
0000
,
1100
0000
0000
1001
0000
0000
1010
0000
0000
2020
0000
0000
0000
3000
0000
1030
,
0020
0000
0030
0010
2000
0000
3200
0000
0300
0200
0000
0302
0000
0003
0001
2000
,
3000
0000
0000
0000
1100
0000
0000
0010
0100
0000
0000
0202
0000
0000
0000
0303
,
0000
0000
0100
0000
0011
0000
0000
1000
0010
0000
0000
0000
1010
0000
0000
0000
,
2200
0000
0000
3300
,
0100
0000
0000
0100
0000
0000
0100
0000
0002
0000
0000
0000
0003
0000
0000
0000
,
0100
0000
0000
0100
0000
0000
0100
0000
2000
0000
0000
0000
3000
0000
0000
0000
,
0100
0000
0000
0100
0000
0000
0100
0000
0002
0000
0000
0000
0003
0000
0000
0000
,
1000
1000
1000
0000
0010
0000
0010
0000
,
0100
0100
0100
0001
0000
0001
0010
0000
,
0100
0100
0100
0000
1000
0000
1000
0000
,
0001
0001
0001
0010
0000
0010
0000
0001
,
0100
0000
0000
0010
1000
0000
0100
0000
0000
0010
0002
0000
0100
0000
0000
0000
,
0013
0010
0010
0002
0000
1003
0000
0010
,
2000
0000
0000
0000
0100
0000
0002
0000
0000
0000
3003
0000
2020
0000
3030
2200
,
0000
0000
0000
0000
0000
0000
0000
0000
0000
0000
0000
3300
0022
0000
0000
0033
,
0110
0000
0001
0100
0010
0000
1000
0100
0000
0010
0001
0000
0001
0000
0001
0000
,
0010
0000
0000
0100
1000
0000
0010
0000
0000
0100
0001
0000
0010
0000
0001
0010
,
0100
0000
0000
0100
0010
0000
0000
0001
0000
1000
0010
0000
0000
1000
0010
0000
,
0100
0000
0000
0100
0001
0000
0000
1000
0000
0001
0100
0000
0000
0001
0100
0000
,
1010
0000
0000
1100
0000
0000
0011
0000
0000
0101
0000
0000
1000
0010
0000
0001
,
0100
0000
0000
0100
0020
0000
0000
1030
0000
1000
0001
0000
1000
0000
0010
1000
,
0100
0000
0000
0000
1001
0000
0000
0000
1010
0000
0000
2002
0000
0000
0000
3003
,
0000
0000
0000
0001
0100
0000
0000
0011
0000
0000
1001
0000
0000
0000
2020
0000
,
0000
3030
0000
0001
0100
0000
0010
1000
0000
0000
0100
0000
0010
0000
0010
0000
,
0100
0000
0000
1000
0001
0000
0001
0000
0001
0000
0100
0000
0010
0000
1000
0100
,
1000
0000
0000
1000
0001
0000
0000
0100
0000
0000
0010
0000
0010
0000
0010
0000
,
1000
0000
0000
0100
0010
0000
0000
0001
0000
0000
0100
0000
0100
0000
0100
0000
,
0020
0000
0000
0000
0230
0000
0000
0302
0000
2003
0000
0000
0000
0000
0000
0000
,
3100
0000
0000
0100
1000
0000
0010
0000
0100
0000
0000
0100
0000
0000
0100
0001
,
0000
0000
0000
0001
0100
0000
0010
1000
0000
0000
0100
0000
0022
0000
0000
0033
,
0202
0000
0303
0010
1000
0000
0100
0010
0000
0000
0022
0000
0000
0000
0033
0000
,
0000
0000
0000
0000
1001
1000
0001
0100
,
0100
0000
0100
0010
1000
0000
1000
0100
0010
0000
0001
0000
0010
0000
0100
0000
,
2000
0000
0000
0000
3002
0000
0000
0000
0003
0000
0010
0000
0010
0000
0001
0200
,
0000
0301
0010
0000
0100
0000
1000
0200
0000
0000
0310
0000
0001
0000
0100
0020
,
0000
1030
1001
1100
1010
1000
0001
0010
,
0010
0000
0010
0100
1000
0000
1000
0010
0100
0000
0001
0000
0100
0000
0010
0000
,
1000
0000
1000
0000
0001
0000
0001
0000
0200
0000
0300
0000
0100
0000
0001
0020
,
0000
0031
0100
0000
0010
0000
1000
0020
0000
0000
0230
0000
0000
0000
0310
2000
,
0000
3100
0020
0030
0022
0000
0033
0202
,
0000
0000
0303
0000
2020
0000
0000
3030
2200
0000
0000
0000
0000
0000
0000
0000
,
0000
0000
0000
0300
3200
0000
0000
0300
0220
0000
0000
0000
0000
0330
0022
0000
,
0000
0000
0000
0033
,
0200
0000
0310
1000
1020
1000
1030
2100
,
0100
3100
0210
0010
0321
0001
0031
0011
,
0022
0000
0033
2020
0000
3030
2200
0000
0000
3300
2002
0000
0000
0000
0000
3003
,
1000
0000
0010
1000
0000
0100
0010
0001
0100
0000
0000
0100
0010
0000
0000
0010
,
1000
0000
0000
0010
2000
0000
3000
0000
1200
0000
0000
1000
0000
0000
1000
0000
,
0020
0000
0000
0000
0000
0000
0030
0000
1000
0000
0000
1000
0000
0000
1000
0000
,
0020
0000
0000
0000
0000
0000
0030
0000
1000
0000
0000
1000
0000
0000
1000
0000
,
0020
0000
0000
0000
0000
0000
0030
0000
1000
0000
0000
1000
0000
0000
1000
0000
,
0020
0330
0000
0000
;
