#TITLE:OMG;
#SUBTITLE:;
#ARTIST:Usher feat will.i.am;
#TITLETRANSLIT:;
#SUBTITLETRANSLIT:;
#ARTISTTRANSLIT:;
#GENRE:R&B;
#CREDIT:Blood4Fame;
#MUSIC:music.mp3;
#BANNER:banner.png;
#BACKGROUND:bg.png;
#CDTITLE:;
#SAMPLESTART:34.182;
#SAMPLELENGTH:24.534;
#SELECTABLE:YES;
#OFFSET:-0.098;
#BPMS:0.000=130.011
,92.000=260.022
,104.000=130.011
,130.000=260.022
,137.500=130.011
,162.000=260.022
,168.000=130.011
,234.000=65.005
,258.000=260.022
,271.000=130.011
;
#STOPS:92.000=0.231
,93.000=0.231
,94.000=0.115
,94.500=0.231
,95.500=0.115
,96.000=0.231
,97.000=0.231
,98.000=0.115
,98.500=0.231
,99.500=0.115
,100.000=0.231
,101.000=0.231
,102.000=0.115
,102.500=0.231
,103.500=0.115
,105.000=0.921
,130.000=0.231
,131.000=0.231
,132.000=0.115
,132.500=0.231
,133.500=0.115
,134.000=0.231
,135.000=0.231
,136.000=0.115
,136.500=0.231
,162.000=0.231
,163.000=0.231
,164.000=0.115
,164.500=0.231
,165.500=0.115
,166.000=0.231
,167.000=0.231
,258.000=0.231
,259.000=0.231
,260.000=0.115
,260.500=0.231
,261.500=0.115
,262.000=0.231
,263.000=0.231
,264.000=0.115
,264.500=0.231
,265.500=0.115
,266.000=0.231
,267.000=0.231
,268.000=0.115
,268.500=0.231
,269.500=0.115
,270.000=0.231
;
#BGCHANGES:;
#FGCHANGES:;

//--------------- dance-single - Blood4Fame ----------------
#NOTES:
     dance-single:
     Blood4Fame:
     Beginner:
     2:
     0,0,0,0,0:
0000
0000
0000
0000
,
0000
0000
0000
0000
,
0000
0000
0000
0000
,
2000
0000
0000
0000
,
0000
0000
0000
0000
0000
3000
0000
0000
,
0020
0000
0000
0030
,
0200
0000
0000
0300
,
0002
0000
0000
0000
,
0000
0000
0000
0003
,
2000
0000
0000
3000
,
0020
0000
0000
0000
0000
0000
0000
0000
0000
0000
0000
0000
0000
0000
0000
0000
0000
0000
0000
0000
0000
0000
0000
0000
0000
0000
0000
0000
0000
0000
0000
0000
0000
0000
0000
0000
0000
0000
0000
0000
0000
0000
0000
0000
0000
0000
0000
0000
0000
0000
0000
0000
0000
0000
0000
0000
0000
0000
0000
0000
0000
0000
0000
0000
0000
0000
0000
0000
0000
0000
0000
0000
0000
0000
0000
0000
0000
0000
0000
0000
0000
0000
0000
0000
0000
0000
0000
0000
0000
0000
0000
0000
0000
0000
0000
0000
0000
0000
0000
0000
0000
0000
0000
0000
0000
0000
0000
0000
0000
0000
0000
0000
0000
0000
0000
0000
0000
0000
0000
0000
0000
0000
0000
0000
0000
0000
0000
0000
0000
0000
0000
0000
0000
0030
0000
0000
0000
0000
0000
0000
0000
0000
0000
0000
0000
0000
0000
0000
0000
0000
0000
0000
0000
0000
0000
0000
0000
0000
0000
0000
0000
0000
0000
0000
0000
0000
0000
0000
0000
0000
0000
0000
0000
0000
0000
0000
0000
0000
0000
0000
0000
0000
0000
0000
0000
0000
0000
0000
0000
0000
0000
0000
,
0000
0100
0000
0100
,
0000
0010
0000
0010
,
0000
0001
0000
0001
,
0000
0010
0000
0010
,
0000
0100
0000
0100
,
0000
1000
0000
1000
,
0000
0010
0000
0010
,
0000
1000
0000
1000
,
0100
0100
0100
0000
,
0010
0010
0010
0000
,
0001
0001
0001
0000
,
1000
0000
0001
0000
,
1000
0000
1000
0000
,
1000
0000
1000
0000
,
1000
0000
1000
0000
,
1000
0000
0001
0000
,
0010
0000
0001
0000
,
0100
0000
0010
0000
,
0100
0000
0001
0010
,
0010
0010
0001
0000
,
1000
0000
0010
0000
,
0100
0000
1000
0000
,
1000
0000
1000
0000
,
1000
0000
0010
0010
,
0010
0000
0001
0001
,
0001
0000
0010
0010
,
0010
0000
0100
0100
,
0100
0000
1000
1000
,
1000
0000
0001
0001
,
0001
0000
0010
0000
,
0010
0000
1000
0000
,
1000
0000
0100
0100
,
0100
0000
0001
0100
,
0001
0000
0010
0010
,
0010
0000
1000
0010
,
1000
0000
0100
0100
,
0100
0000
0010
0001
,
0010
0000
0100
0100
,
0100
0000
0001
0001
,
0001
0000
1000
0000
,
1000
0000
1000
0000
,
1000
0000
0010
0010
,
0000
0010
0000
0100
,
0000
0100
0000
0001
,
0000
0001
0000
1000
,
0000
1000
0000
0010
,
0000
0001
0000
0100
,
0000
0010
0002
1003
,
0200
0310
0200
1300
,
0002
0103
1020
0130
,
0002
0013
0002
0103
,
0020
1030
1000
1000
,
0001
0001
0100
0100
,
0010
0010
1000
0000
,
1000
0000
1000
0000
,
1000
0000
1000
0000
,
1000
0000
1000
0000
,
0000
0000
1001
0000
;

//--------------- dance-single - Blood4Fame ----------------
#NOTES:
     dance-single:
     Blood4Fame:
     Easy:
     3:
     0,0,0,0,0:
0000
0000
0000
0000
,
0000
0000
0000
0000
,
0000
0000
0000
0000
,
0000
0000
0000
0000
,
0000
0000
0000
0000
,
0000
0000
0000
0000
,
0000
0000
0000
0000
,
0000
0000
0000
0000
,
0000
0000
0000
0000
,
0000
0000
0000
0000
,
0000
0000
0000
0000
,
2000
0000
0000
3000
,
0002
0000
0000
0003
,
0200
0000
0000
0300
,
0002
0000
0000
0013
,
0010
0002
0000
0003
,
2000
0000
0000
3000
,
0100
0010
0020
0030
,
0010
0002
0003
0100
,
0001
0000
0010
0000
0200
0000
0300
2000
,
0000
3000
0010
0000
0100
0000
0000
0000
,
0100
0000
0001
0000
2000
0000
3000
0010
,
0000
0100
0000
0001
,
0001
0100
0010
0000
,
0010
0001
0100
0000
,
0100
0010
0001
0000
,
1000
1001
0010
1000
,
0100
1000
0010
1000
,
0010
0001
0100
0010
,
1000
0001
0100
1000
,
1000
1000
0010
1000
,
0001
0100
0010
1000
,
0100
1000
0010
0010
,
1000
0000
0100
0010
,
0001
0000
0010
0000
,
0010
1000
0001
0000
,
1000
0100
1000
0000
,
0001
0010
1000
0000
,
0001
0010
1000
0100
,
2000
3000
0001
0100
,
0002
0003
1000
0001
,
0010
0000
0010
0001
,
0010
0000
0011
0001
,
1010
1000
2000
3002
,
2003
3000
1010
1000
,
0011
0001
0002
2003
,
3002
0003
1100
1000
,
0101
0001
0002
2003
,
3002
0003
0001
0100
,
0001
0000
0001
0100
,
0020
0030
0020
1000
,
0000
1030
0000
0001
,
0200
0300
0000
0000
0100
0000
0010
0000
,
0001
0010
0000
0010
,
1000
0010
0001
1000
,
2002
0000
0000
3003
0000
0000
0011
0000
,
0000
0000
0100
0001
0000
0000
0010
1000
,
0000
0000
0100
0001
0000
0000
1001
0000
,
0010
0001
0200
0301
,
1000
0010
0100
0000
0100
0010
1000
0000
,
0100
1000
0001
0000
0002
0000
1003
0000
,
0200
0000
0310
0000
0001
0100
0010
0000
,
2000
0000
0000
0000
3100
0000
1000
0000
0100
0000
0010
0000
0002
0000
0000
0100
,
0003
0000
0020
0000
1030
0000
0000
0000
0100
0000
0010
0000
0002
0000
0003
0010
,
0000
0100
0100
1000
0001
0000
0100
0000
,
0010
0000
0010
0001
,
0100
0000
0100
0010
,
0001
0000
1000
2002
,
0000
0000
3003
0000
;

//--------------- dance-single - Blood4Fame ----------------
#NOTES:
     dance-single:
     Blood4Fame:
     Medium:
     6:
     0,0,0,0,0:
0000
0000
0000
0000
,
0000
0000
0000
0000
,
0000
0000
0000
0000
,
0000
0000
0000
0000
,
0000
0000
0000
0000
,
0000
0000
0000
0000
,
0000
0000
0000
0000
,
0000
0000
0000
0000
,
0000
0000
0000
0000
,
0000
0000
0000
0000
,
0000
0000
0000
0000
,
2000
0010
0000
3010
,
0002
0010
0000
0013
,
0200
0010
0000
0310
,
0002
1000
0000
1003
,
0010
0100
0002
0000
0000
0000
0103
0000
,
2000
0100
0000
3100
,
0200
0010
0000
0310
,
0020
0100
0000
0130
,
2000
0000
3020
0000
0230
0000
0301
2000
,
0000
0000
3020
0000
0230
0000
0300
0001
,
0100
0000
0001
0000
1000
0000
0100
0020
,
0000
0001
0000
0031
,
0002
0000
0103
0000
0010
2000
0000
3100
,
0020
0000
0031
0000
0100
0020
0000
1030
,
0200
0000
0310
0000
0001
0200
0000
0310
,
1000
1001
0020
1030
,
0200
0000
1300
0000
0020
0000
1030
0100
,
0020
0031
0200
0310
,
2000
0000
3001
0000
0200
0000
1300
0010
,
1000
0100
2000
0000
3020
0000
1030
0000
,
0002
0103
0020
1030
,
0200
1300
0010
0010
,
1000
1000
0000
0100
0100
0000
0010
0000
,
0001
0001
0000
0100
0010
0000
1000
0100
,
0010
0000
1000
1000
0001
0001
0100
0000
,
1000
1000
0200
0300
1000
1000
0010
0000
,
0001
0001
0010
0000
1000
1000
0100
0000
,
0001
0100
0020
0030
1000
0001
0100
0000
,
2000
0000
3000
1000
0000
0000
0000
0000
0001
0000
1000
0000
0100
0000
0000
0000
,
0001
0002
1003
0000
1000
0000
0001
0000
,
0010
0100
0000
0100
0010
0000
0001
0000
,
0010
0001
0200
0300
0011
0000
0001
0000
,
1010
0000
1000
0000
2200
3300
0202
0303
,
2200
3300
1010
1000
,
0011
0000
0001
0000
0202
0303
2200
3300
,
0202
0303
1100
1000
,
0101
0000
0001
0000
0022
0033
2020
3030
,
0022
0033
0001
0100
,
0001
0020
0000
0030
0002
0000
0203
0000
,
0320
0030
0020
1000
,
0000
0000
1030
0000
0000
0000
0001
1000
,
0100
0000
0100
2000
0100
0000
0010
0000
,
0001
3000
0010
0200
0000
0000
0010
0000
,
1300
0010
0101
1100
,
2002
3003
0000
0011
,
0000
0000
0100
0002
0000
0003
0010
2000
,
0000
3000
0100
0002
0000
0003
1001
0000
,
0010
0000
0100
0000
0001
0000
1000
0000
0200
0000
0000
0300
0011
0000
0000
0000
,
2000
0000
0000
3010
0100
0000
0000
0000
1100
0000
0020
0000
1030
0000
0000
0000
,
0100
0000
0000
0000
0001
0000
0000
0000
0001
0000
0000
1000
0100
0000
0000
0000
0002
0000
0000
0000
0000
0000
0000
0000
2003
0000
0000
0000
0000
0000
3000
0000
,
0200
0000
0000
0000
0000
0000
0000
0300
0010
0000
0000
0000
0000
0000
0000
0000
0101
0000
0000
0000
0010
0000
0000
0000
0010
0000
0000
0000
0000
0000
0100
0000
,
0000
0202
0000
0303
1000
0000
1000
0000
0100
0000
0010
0000
0001
0000
0001
0200
,
0000
0000
0310
0000
1000
0000
0000
1000
0100
0000
0010
0000
0001
0000
0100
0020
,
0000
0000
0130
0010
0100
0000
0001
0000
0002
0000
0000
0000
0103
0000
0000
0000
,
0010
2000
0000
3100
0020
0000
0031
0000
,
0100
0020
0000
1030
0200
0000
0310
0000
,
0001
0200
0000
0310
1000
0000
1001
0000
,
1001
2002
3003
0000
;

//--------------- dance-single - Blood4Fame ----------------
#NOTES:
     dance-single:
     Blood4Fame:
     Hard:
     8:
     0,0,0,0,0:
0000
0000
0000
0000
,
0000
0000
0000
0000
,
0000
0000
0000
0000
,
0000
0000
0000
0000
,
0000
0000
0000
0000
,
0000
0000
0000
0000
,
0000
0000
0000
0000
,
0000
0000
0000
0000
,
0000
0000
0000
0000
,
0000
0000
0000
0000
,
0000
0000
0000
0000
,
2000
0010
0000
3010
,
0002
0010
0000
0013
,
0200
0010
0000
0310
,
0002
1000
0000
1003
,
0010
0100
0002
0000
0000
0000
0103
0000
,
2000
0100
0000
3100
,
0200
0010
0000
0310
,
0020
0100
0000
0130
,
2001
0000
0010
0000
0200
3000
1300
0002
,
0000
0000
0010
0000
0200
0000
0303
0001
,
0100
0000
0001
0000
1000
0000
0100
0020
,
0000
0001
0000
0031
,
0002
0000
0103
0000
0010
2000
0000
3100
,
0020
0000
0031
0000
0100
0020
0000
1030
,
0200
0000
0310
0000
0001
0200
0000
0310
,
1000
0000
1001
0000
0020
0000
1030
0001
,
0010
0100
0000
1000
0020
0000
1030
0100
,
0010
0001
0000
0100
0020
0000
1030
0010
,
0100
0001
0000
0010
0200
0000
1300
0010
,
1000
0100
2000
0000
3020
0000
1030
0001
,
0010
0100
0000
1000
0020
0000
1030
0100
,
0010
0001
0000
0100
0010
0000
0010
0000
,
1000
1000
0000
0100
0100
0000
0010
0000
,
0001
0001
0000
0100
0010
0010
1000
0100
,
0010
0100
1000
1000
0001
0001
0100
0010
,
1000
1000
0200
0300
1000
1000
0010
0100
,
0001
0001
0010
0100
1000
1000
0100
0010
,
0001
0100
0020
0030
1000
0001
0100
0010
,
2000
0000
3000
1000
0000
0000
0000
0000
0001
0000
1000
0000
0100
0000
0010
0000
,
0001
0002
1003
0000
1001
0000
1001
0000
,
0110
0110
0000
0110
0110
0000
1001
0000
,
0010
1000
0200
0300
0011
0010
0001
0000
,
1010
0010
1000
0000
2200
3300
0202
0303
,
2200
0000
3300
0000
1010
0010
1000
0000
,
0011
0010
0001
0000
0202
0303
2200
3300
,
0202
0000
0303
0000
1100
0100
1000
0000
,
0101
0100
0001
0000
0022
0033
2020
3030
,
0022
0033
0001
0100
,
0001
0020
0000
0031
2000
0000
3020
0000
,
0130
0002
0003
0000
0020
0000
0001
0000
,
0000
0000
0031
0000
0000
0000
0001
1000
,
0100
0010
0100
2000
0100
0000
0010
0000
,
0001
3000
0010
0200
0000
0000
0010
0000
,
1300
0100
0010
1000
0101
0000
1100
0000
,
2002
3003
0010
0011
,
1000
0000
0110
0002
0000
0003
0110
2000
,
0000
3000
0110
0002
0000
0003
1001
0000
,
0010
0000
0100
0000
0001
0000
1000
0000
0200
0000
0000
0300
0011
0000
0000
0000
,
2000
0000
0000
3010
0100
0000
0000
0000
1100
0000
0020
0000
1030
0000
0000
0000
,
0100
0000
0010
0000
0001
0000
0100
0000
0010
0000
0000
1000
0100
0000
0010
0000
0002
0000
0000
0000
0000
0000
0000
0000
2000
0000
0000
0000
0000
0000
3000
0000
,
0200
0000
0000
0000
0000
0000
0000
0300
0013
0000
0000
0000
0000
0000
0000
0000
0101
0000
0000
0000
0010
0000
0100
0000
0010
0000
0000
0000
1000
0000
0100
0000
,
0000
0202
0000
0303
1000
0000
1000
0000
0200
0000
0010
0000
1300
0000
0001
0200
,
0000
0000
0010
0000
0301
0000
0000
1000
0100
0000
0010
0000
0001
0000
0100
0020
,
0000
0000
0130
0010
0100
0001
1000
0000
0002
0000
0000
0000
0103
0000
0000
0000
,
0010
2000
0000
3100
0020
0000
0031
0000
,
0100
0020
0000
1030
0200
0000
0310
0000
,
0001
0200
0000
0310
1000
0000
1001
0000
,
1001
2002
3003
0000
;
