#TITLE:Now That We Found Love;
#SUBTITLE:;
#ARTIST:Heavy D & The Boys;
#TITLETRANSLIT:;
#SUBTITLETRANSLIT:;
#ARTISTTRANSLIT:;
#GENRE:Hip Hop;
#CREDIT:Blood4Fame;
#MUSIC:Now That We Found Love.mp3;
#BANNER:Banner.png;
#BACKGROUND:BG.png;
#CDTITLE:;
#SAMPLESTART:0.000;
#SAMPLELENGTH:0.000;
#SELECTABLE:YES;
#OFFSET:-0.627;
#BPMS:0.000=119.815;
#STOPS:;
#BGCHANGES:-0.927=Now That We Found Love.avi=1.000=1=0=1===CrossFade==,
99999.000=-nosongbg-=1.000=0=0=0=StretchNoLoop====
;
#FGCHANGES:;

//--------------- dance-single - Blood4Fame ----------------
#NOTES:
     dance-single:
     Blood4Fame:
     Beginner:
     4:
     0,0,0,0,0:
0000
0000
0000
0000
,
0000
0000
0000
0000
,
0000
0000
0000
0000
,
0010
0010
0000
0001
,
1100
0000
0011
0000
,
1100
0000
0011
0000
,
1000
0001
1000
0000
,
1000
0100
0100
0000
,
0101
0000
1010
0000
,
0101
0000
1010
0000
,
0001
1000
0001
0000
,
0001
0100
0100
0000
,
1100
0000
0100
0100
,
0001
1000
0010
0000
,
0100
1000
0000
1010
,
0000
0001
0100
0110
,
0000
0001
0100
0001
,
0000
1000
0001
0100
,
0000
0010
0001
0100
,
0000
0000
0001
0001
,
1100
0000
0011
0000
,
1100
0000
0011
0000
,
1000
0001
1000
0000
,
1000
0100
0100
0001
,
2000
3100
0002
0103
,
0000
1000
0100
0010
,
0000
0001
0001
0001
,
0000
0010
0100
0100
,
1100
0000
0011
0000
,
1100
0000
0011
0000
,
1000
0001
1000
0000
,
1000
0100
0100
0000
,
0000
0101
0000
1100
,
0000
1000
1000
0001
,
1000
0000
0001
0000
,
0010
0000
0001
1000
,
2200
0000
0000
0000
0000
0000
0000
0000
0000
0000
0000
0000
0000
3300
0000
0000
0000
0000
0000
0000
0000
0000
0000
0000
0001
0000
0000
0000
0000
0000
0000
0000
0000
0000
0000
0000
0000
0000
0000
0000
0000
0000
0000
0000
0000
0000
0000
0000
,
1000
0001
0100
0000
,
0010
1000
0000
0000
,
1000
0001
0100
0010
,
2200
3300
0001
0000
,
0001
0100
0100
0000
,
1000
1000
1000
0000
,
0100
1000
0001
0000
,
0010
0001
0100
0000
,
0010
0001
0001
0000
,
1000
0100
0010
0000
,
0001
0001
1000
0001
,
1100
0000
0011
0000
,
1100
0000
0011
0000
,
1000
0001
1000
0000
,
1000
0100
0100
0000
,
0022
0033
1000
0000
,
0001
0000
0010
0000
,
0001
0000
1000
0000
,
0001
0000
0010
0000
,
0001
0100
0010
0000
,
0001
0100
0010
0000
,
0001
0100
0100
0000
,
0001
0010
0001
0010
,
0002
0003
0000
0000
;

//--------------- dance-single - Blood4Fame ----------------
#NOTES:
     dance-single:
     Blood4Fame:
     Easy:
     5:
     0,0,0,0,0:
0000
0000
0000
0000
,
0000
0000
0000
0000
,
0000
0000
0000
0000
,
0010
0001
0000
1000
0010
0000
0000
0000
0010
0000
0000
0000
0001
0100
0000
0000
,
1100
0100
0011
0010
,
1100
0010
0011
0100
,
1000
0001
1000
0010
,
1000
0000
0000
0000
0100
0000
0000
0010
0100
0000
0000
0000
0001
0000
0000
0000
,
0101
0100
1010
0010
,
0101
0010
1010
0100
,
0001
1000
0001
0010
,
0001
0000
0000
0000
0100
0000
0000
0010
0100
0000
0000
0000
1000
0000
0000
0000
,
1100
0001
0100
0100
,
0001
1000
0010
0001
,
0100
1000
0001
1010
,
0100
0000
0000
0000
0001
0000
0000
0000
0100
0000
0000
0000
0110
0000
0000
1000
,
0100
0000
0000
0000
0001
0000
0000
0000
0100
0000
0000
0000
0001
0000
0000
0010
,
1000
1000
0001
0100
,
0010
0010
0001
0100
,
1000
0010
0000
0000
0000
0000
0000
0000
0001
0000
0000
0000
0001
0000
0000
0000
,
1100
0100
0011
0001
,
1100
0000
0000
0000
0010
0000
0000
0000
0011
0000
0000
0010
0100
0000
0000
0000
,
1000
0001
1000
0010
,
1000
0100
0100
0001
,
2000
0000
0000
0000
3100
0000
0000
0000
0002
0000
0000
0000
0103
0000
0000
0100
,
0010
1000
0100
0010
,
1000
0010
0000
0000
0001
0000
0000
0100
0001
0100
0000
0000
0001
0000
0000
0000
,
0100
0010
0000
1000
0010
0000
0000
0000
0100
0000
0000
0000
0100
0000
0000
0000
,
1100
0100
0011
0010
,
1100
0010
0011
0100
,
1000
0001
1000
0010
,
1000
0000
0000
0000
0100
0000
0000
0010
0100
0000
0000
0000
0001
0000
0000
0000
,
1000
0101
0010
1100
,
0010
0000
0000
0000
1000
0000
0000
0000
1000
0001
0000
0000
0001
0000
0000
0000
,
1000
0000
0000
0000
0100
0000
0000
0000
0001
0000
0000
0000
0100
1000
0000
0000
,
0010
0010
0001
1000
,
2200
0000
0300
0000
3100
0000
0000
0100
0001
0000
0000
0000
0000
0000
0000
0010
,
1000
0000
0000
0000
0001
0000
0000
0000
0100
0000
0000
0010
0000
0000
0000
1000
,
0010
0000
0000
0000
1000
0000
0000
0100
0001
0000
0000
0000
0100
0000
0000
0000
,
1000
0010
0000
1000
0001
0000
0000
0000
0100
0000
0000
0000
0010
0000
0000
0000
,
2200
0000
0000
0000
3300
0000
0000
0000
0001
0000
0000
0100
0000
0000
0000
0000
,
0001
0100
0100
1000
,
1000
0010
0000
0000
1010
0000
0000
0000
1000
0010
0000
0000
0100
0000
0000
0000
,
0100
0001
0000
0000
1000
0010
0000
0000
0001
0100
0000
0000
0010
0100
0000
0000
,
0010
0001
0100
1000
,
0010
0000
0000
0000
0001
0000
0000
0100
0001
0000
0000
0000
0010
0000
0000
0000
,
1000
0000
0000
0000
0100
0000
0000
0100
0010
0000
0000
0000
1000
0000
0000
0000
,
0001
0100
0000
0100
0001
0000
0000
0000
1000
0000
0000
0000
0001
0000
0000
0000
,
1100
0100
0011
0010
,
1100
0010
0011
0100
,
1000
0001
1000
0010
,
1000
0000
0000
0000
0100
0000
0000
0010
0100
0000
0000
0000
0001
0000
0000
0000
,
0022
0033
1000
0100
,
0001
0100
0010
1000
,
0001
0001
1000
0100
,
0001
0000
0000
0001
0100
0000
0000
0000
0010
0000
0000
1000
0010
0000
0000
0000
,
0001
0000
0000
0001
0100
0000
0000
0000
0010
0000
0000
0000
1000
0000
0000
0000
,
0001
0100
0000
0000
0100
0000
0000
1000
0010
0000
0000
0000
1000
0000
0000
0000
,
0001
0110
0100
1000
,
0001
0100
0000
0100
0010
0000
0000
0000
0001
0000
0000
0000
0010
0000
0000
0000
,
0002
0003
0000
0000
;

//--------------- dance-single - Blood4Fame ----------------
#NOTES:
     dance-single:
     Blood4Fame:
     Medium:
     7:
     0,0,0,0,0:
0000
0000
0000
0000
,
0000
0000
0000
0000
,
0000
0000
0000
0000
,
0010
0000
0010
0100
0010
0001
0001
0000
,
1100
0100
0011
0010
,
1100
0010
0011
0100
,
1000
0100
0001
0100
1000
0000
0010
0001
,
1000
0001
0100
0000
0100
0010
0001
0001
,
0101
0100
1010
0010
,
0101
0010
1010
0100
,
0001
0100
1000
0100
0001
0000
0010
1000
,
0001
1000
0100
0000
0100
0010
1000
1000
,
1100
0000
0001
0000
0100
0010
0100
1000
,
0001
0010
1000
0100
0010
0010
0001
1000
,
0100
0010
1000
0010
0001
0100
1000
0000
,
0100
0010
0001
0001
0100
0001
0010
0000
,
0100
0010
0001
1000
0100
0100
0001
0000
,
1000
0010
1000
0100
0001
0100
0100
0000
,
0010
1000
0010
0100
0001
0100
0100
0000
,
1000
1000
0000
0001
0001
0100
0001
0100
,
1100
0100
0100
0000
0011
0010
0001
0000
,
1100
1000
0010
0001
0011
0100
0100
0000
,
1000
0100
0001
0100
1000
0100
0010
0001
,
1000
0001
0100
1000
0100
0010
0001
0100
,
2000
3100
0002
0103
,
0010
1000
1000
0001
0100
0001
0010
0000
,
1000
1000
0001
0000
0001
0001
0001
0000
,
0100
0000
0010
0001
0100
1000
0100
0001
,
1100
0100
0011
0010
,
1100
0010
0011
0100
,
1000
0100
0001
0100
1000
0000
0010
0001
,
1000
0001
0100
0000
0100
0010
0001
0001
,
1000
0101
0010
1100
,
0010
0100
1000
0001
1000
0100
0001
0000
,
1000
1000
0100
0010
0001
1000
0100
0000
,
0010
0100
0010
0000
0001
0001
1000
0000
,
2200
0300
3100
0000
0001
0100
0000
0000
,
1000
0010
0001
0000
0100
0100
0000
0000
,
0010
0010
1000
0001
0001
0001
0100
1000
,
1000
0000
0001
0010
0100
0100
0010
1000
,
2200
0000
3300
0000
0001
0010
0000
0000
,
0001
0001
0100
1000
0100
0010
1000
0000
,
1000
1010
1000
0100
,
0100
0100
1000
1000
0001
0001
0010
0010
,
0010
0010
0001
0000
0100
0100
1000
0000
,
0010
1000
0001
0000
0001
0100
0010
0000
,
1000
1000
0100
0010
0010
1000
1000
0000
,
0001
0000
0001
0010
1000
0100
0001
0100
,
1100
0100
0011
0010
,
1100
0010
0011
0100
,
1000
0100
0001
0100
1000
0000
0010
0001
,
1000
0001
0100
0000
0100
0010
0001
0001
,
0022
0000
0033
0000
1000
1000
0100
0000
,
0001
0001
0100
0010
0010
1000
1000
0000
,
0001
0100
0001
0000
1000
1000
0100
0000
,
0001
0100
0010
0010
,
0001
0000
0100
0100
0010
1000
1000
0000
,
0001
0001
0100
0010
0010
1000
1000
0000
,
0001
0001
0110
0010
0100
1000
1000
0000
,
0001
0000
0010
1000
0001
0100
0010
1000
,
0002
0003
0000
0000
;

//--------------- dance-single - Blood4Fame ----------------
#NOTES:
     dance-single:
     Blood4Fame:
     Hard:
     8:
     0,0,0,0,0:
0000
0000
0000
0000
,
0000
0000
0000
0000
,
0000
0000
0000
0000
,
0010
0001
0000
1000
0010
0000
0100
0000
0010
0000
0001
0000
0001
0100
0000
0000
,
1100
0100
0011
0010
,
1100
0010
0011
0100
,
1000
0100
0001
0100
1000
0000
0010
0001
,
1000
0000
0001
0000
0100
0000
0000
0010
0100
0000
0010
0000
0001
0000
0001
0000
,
0101
0100
1010
0010
,
0101
0010
1010
0100
,
0001
0100
1000
0100
0001
0000
0010
1000
,
0001
0000
1000
0000
0100
0000
0000
0010
0100
0000
0010
0000
1000
0000
1000
0000
,
1100
0000
0001
0000
0100
0010
0100
1000
,
0001
0010
1000
0100
0010
0010
0001
1100
,
0100
0010
1000
0010
0001
0100
1010
0000
,
0100
0000
0010
0000
0001
0000
0001
0000
0100
0000
0001
0000
0110
0000
0000
1000
,
0100
0000
0010
0000
0001
0000
1000
0000
0100
0000
0100
0000
0001
0000
0000
0010
,
1000
0010
1000
0100
0001
0100
0100
0000
,
0010
1000
0010
0100
0001
0100
0100
0000
,
1000
0010
1000
0000
0000
0000
0001
0000
0001
0000
0100
0000
0001
0000
0100
0000
,
1100
0100
0100
0000
0011
0010
0001
0000
,
1100
0000
1000
0000
0010
0000
0001
0000
0011
0000
0100
0010
0100
0000
0000
0000
,
1000
0100
0001
0100
1000
0100
0010
0001
,
1000
0001
0100
1000
0100
0010
0001
0100
,
2000
0000
0000
0000
3100
0000
0000
0000
0002
0000
0000
0000
0103
0000
0000
0100
,
0010
1000
1000
0001
0100
0001
0010
0000
,
1000
0010
1000
0000
0001
0000
0000
0100
0001
0100
0001
0000
0001
0000
0000
0000
,
0100
0010
0000
1000
0010
0000
0001
0000
0100
0000
1000
0000
0100
0000
0001
0000
,
1100
0100
0011
0010
,
1100
0010
0011
0100
,
1000
0100
0001
0100
1000
0000
0010
0001
,
1000
0000
0001
0000
0100
0000
0000
0010
0100
0000
0010
0000
0001
0000
0001
0000
,
1000
0101
0010
1100
,
0010
0000
0100
0000
1000
0000
0001
0000
1000
0001
0100
0000
0001
0000
0000
0000
,
1000
0000
1000
0000
0100
0000
0010
0000
0001
0000
1000
0000
0100
1000
0000
0000
,
0010
0100
0010
0000
0001
0001
1000
0000
,
2200
0000
0300
0000
3100
0000
0000
0100
0001
0000
0100
0000
0000
0000
0000
0010
,
1000
0000
0010
0000
0001
0000
0000
0000
0100
0000
0100
0010
0000
0000
0000
1000
,
0010
0000
0010
0000
1000
0000
0001
0100
0001
0000
0001
0000
0100
0000
1000
0000
,
1000
0010
0000
1000
0001
0000
0010
0000
0100
0000
0100
0000
0010
0000
1000
0000
,
2200
0000
0000
0000
3300
0000
0000
0000
0001
0000
0010
0100
0000
0000
0000
0000
,
0001
0001
0100
1000
0100
0010
1000
0000
,
1000
0010
0000
0000
1010
0000
0000
0000
1000
0010
0000
0000
0100
0000
0000
0000
,
0100
0001
0100
0000
1000
0010
1000
0000
0001
0100
0001
0000
0010
0100
0010
0000
,
0010
0010
0001
0000
0100
0100
1000
0000
,
0010
0000
1000
0000
0001
0000
0000
0100
0001
0000
0100
0000
0010
0000
0000
0000
,
1000
0000
1000
0000
0100
0000
0010
0100
0010
0000
1000
0000
1000
0000
0000
0000
,
0001
0100
0000
0100
0001
0000
0010
0000
1000
0000
0100
0000
0001
0000
0100
0000
,
1100
0100
0011
0010
,
1100
0010
0011
0100
,
1000
0100
0001
0100
1000
0000
0010
0001
,
1000
0000
0001
0000
0100
0000
0000
0010
0100
0000
0010
0000
0001
0000
0001
0000
,
0022
0000
0033
0000
1000
1000
0100
0000
,
0001
0001
0100
0010
0010
1000
1000
0000
,
0001
0100
0001
0000
1000
1000
0100
0000
,
0001
0000
0000
0001
0100
0000
0000
0000
0010
0000
0000
1000
0010
0000
0000
0000
,
0001
0000
0000
0001
0100
0000
0100
0000
0010
0000
1000
0000
1000
0000
0000
0000
,
0001
0100
0001
0000
0100
0000
0010
1000
0010
0000
1000
0000
1000
0000
0000
0000
,
0001
0001
0110
0010
0100
1000
1000
0000
,
0001
0100
0000
0100
0010
0000
1000
0000
0001
0000
0100
0000
0010
0000
1000
0000
,
0002
0003
0000
0000
;

//--------------- dance-single - Blood4Fame ----------------
#NOTES:
     dance-single:
     Blood4Fame:
     Challenge:
     9:
     0,0,0,0,0:
0000
0000
0000
0000
,
0000
0000
0000
0000
,
0000
0000
0000
0000
,
0010
0001
0000
1000
0010
0000
0100
0000
0010
0000
1000
0000
0001
0100
0001
0000
,
1100
0000
0000
1000
0100
0000
0000
0000
0011
0000
0000
0001
0010
0000
0000
0000
,
1100
0000
0000
0100
0010
0000
0000
0000
0011
0000
0000
0010
0100
0000
0000
0000
,
1000
0100
0001
0100
1000
0000
0010
0001
,
1000
0000
0001
0000
0100
0000
0000
0010
0100
0000
0010
0000
1000
0100
1000
0000
,
0101
0000
0000
0001
0100
0000
0000
0000
1010
0000
0000
1000
0010
0000
0000
0000
,
0101
0000
0000
0100
0010
0000
0000
0000
1010
0000
0000
0010
0100
0000
0000
0000
,
0001
0100
1000
0100
0001
0000
0010
1000
,
0001
0000
1000
0000
0100
0000
0000
0010
0100
0000
0010
0000
0001
0100
0001
0000
,
1100
0000
0001
0000
0100
0010
0100
0001
,
1000
0100
0000
0010
0001
0000
0100
0000
0010
0000
0010
0000
1000
0000
1100
0000
,
0100
1000
0010
0000
1000
0100
0010
0000
0001
0010
0100
0000
0011
0000
0000
0000
,
0100
0000
0010
0000
0001
0000
0001
0000
0100
0000
0001
0000
0110
0000
0000
1000
,
0100
0000
0110
0000
0001
0000
1000
0000
0100
0000
0100
0000
1000
0000
0000
0010
,
1000
0000
0010
0000
1000
0000
0000
1000
0001
0000
0100
0000
0100
0000
0000
0000
,
0010
0000
1000
0000
0010
0000
0100
0000
0001
0000
0100
0001
0100
0000
0000
0000
,
1000
0010
1000
0010
0000
0100
0001
0000
0001
0000
0100
0000
0100
0000
0100
0000
,
1100
0000
0100
1000
0100
0000
0000
0000
0011
0000
0010
0001
0010
0000
0000
0000
,
1100
0000
1000
0100
0010
0000
0001
0000
0011
0000
0100
0010
0100
0000
0000
0000
,
1000
0100
0001
0100
1000
0100
0010
0001
,
1000
0000
0001
0000
0100
0000
0010
1000
0100
0000
0010
0000
0001
0000
1000
0000
,
2000
0000
0000
0000
3100
0000
0000
0000
0002
0000
0000
0000
0103
0000
0000
0100
,
0010
0000
1000
0000
1000
0000
0001
0000
0100
0001
0100
0000
0010
0000
0000
0000
,
1000
0010
1000
0010
0000
0001
0000
0100
0001
0100
0001
0000
0001
0000
0000
0000
,
0100
0010
0000
1000
0010
0000
1000
0000
0100
0000
1000
0000
0001
0000
0001
0000
,
1100
0000
0000
1000
0100
0000
0000
0000
0011
0000
0000
0001
0010
0000
0000
0000
,
1100
0000
0000
0100
0010
0000
0000
0000
0011
0000
0000
0010
0100
0000
0000
0000
,
1000
0100
0001
0100
1000
0000
0010
0001
,
1000
0000
0001
0000
0100
0000
0000
0010
0100
0000
0010
0000
1000
0100
1000
0000
,
1000
0100
0000
0000
0101
0000
0000
0000
0010
0100
0000
0000
0110
0000
0000
0000
,
0010
0000
0100
0000
1000
0000
0000
0001
1000
0001
0100
0000
0001
0000
0000
0000
,
1000
0000
1000
0000
0100
0000
0010
0001
0010
0000
0001
0000
1000
0100
0000
0000
,
0010
0100
0010
0000
0001
0001
1000
0000
,
2200
0000
0300
0000
3100
0000
0000
0100
0001
0000
0100
0001
0000
1000
0000
0010
,
1000
0000
0010
0000
0001
0000
0001
0000
0100
0000
0100
0010
0000
0010
0000
1000
,
0010
1000
0010
0000
0001
0000
0001
0100
0001
0100
0001
0000
0010
0000
1000
0000
,
1000
0010
0000
1000
0001
0000
0010
0000
0100
0000
0100
0000
1000
0000
0001
0000
,
2200
0000
0000
0000
3300
0000
0000
0000
0001
0000
0010
0100
0000
0000
0000
0000
,
0001
0000
0001
0000
0100
0000
0100
0001
0100
0000
0010
0000
1000
0000
0000
0000
,
1000
0010
0000
0000
1010
0000
0001
0100
1000
0010
1000
0001
0100
0000
0100
0000
,
0100
0001
0100
0010
1000
0010
1000
0010
0001
0100
0001
0100
0010
0100
1010
0000
,
0010
0010
1000
0000
0100
0100
1000
0000
,
0010
0000
1000
0000
0001
0000
0000
0100
0001
0000
0100
0000
0010
0000
0000
0000
,
1000
0000
1000
0000
0100
0000
0010
0100
0010
0000
1000
0000
1000
0001
0000
0000
,
0001
0100
0000
0100
0001
0000
0010
0000
0001
0000
0100
0000
0001
0000
0100
0000
,
1100
0000
0000
1000
0100
0000
0000
0000
0011
0000
0000
0001
0010
0000
0000
0000
,
1100
0000
0000
0100
0010
0000
0000
0000
0011
0000
0000
0010
0100
0000
0000
0000
,
1000
0100
0001
0100
1000
0000
0010
1000
,
0001
0000
1000
0000
0100
0000
0000
0010
0100
0000
0010
0000
0001
0100
0001
0000
,
0022
0000
0033
0000
1000
1000
0100
0000
,
0001
0001
0100
0010
0010
1000
1000
0000
,
0001
0100
0001
0000
1000
1000
0100
0000
,
0001
0000
0000
0001
0100
0000
0000
0000
0010
0000
0000
1000
0010
0000
0000
0000
,
0001
0000
0000
0001
0100
0000
0100
0000
0010
0000
1000
0000
1000
0000
0000
0000
,
0001
0100
0001
0000
0100
0000
0010
1000
0010
0000
1000
0000
1000
0000
0000
0000
,
0001
0001
0110
0010
0100
1000
1000
0000
,
0001
0100
0000
0100
0010
0000
1000
0000
0001
0000
0100
0000
0010
0000
1010
0000
,
0002
0003
0000
0000
;
