#TITLE:Ninja Rap;
#SUBTITLE:;
#ARTIST:Vanilla Ice;
#TITLETRANSLIT:;
#SUBTITLETRANSLIT:;
#ARTISTTRANSLIT:;
#GENRE:Rap;
#CREDIT:Bloood4Fame;
#MUSIC:music.mp3;
#BANNER:banner.png;
#BACKGROUND:bg.png;
#CDTITLE:;
#SAMPLESTART:0.000;
#SAMPLELENGTH:0.000;
#SELECTABLE:YES;
#OFFSET:-0.095;
#BPMS:0.000=119.067
,236.000=120.000
,248.000=119.000
;
#STOPS:;
#BGCHANGES:;
#FGCHANGES:;

//--------------- dance-single - Blood4Fame ----------------
#NOTES:
     dance-single:
     Blood4Fame:
     Beginner:
     3:
     0,0,0,0,0:
0000
0000
0000
0000
,
0000
0000
0000
0000
,
1001
0000
0000
0000
,
0010
0000
0010
0100
,
1001
0000
0000
0000
,
0010
0000
0010
0100
,
1010
0000
0000
0000
,
0011
0000
0010
0100
,
1010
0000
0000
0000
,
0010
0000
0010
0100
,
0110
0000
0010
0000
,
1000
1000
0000
0001
,
0001
0000
0000
0000
0000
0000
0000
0000
2000
0000
0000
3000
0000
0000
0000
0000
,
0011
0000
1010
0000
,
1001
0000
0000
0000
,
0101
0000
1100
0000
,
0110
0000
0000
0000
,
0001
0010
1000
0000
,
1000
0000
0001
0000
,
0000
0110
0000
0000
,
0110
0000
0000
1001
,
1001
0000
0000
0110
,
0110
0000
0000
1001
,
1001
0000
0110
0000
,
0000
0000
0000
0000
,
0000
0000
0000
0000
,
1000
0000
1000
0000
,
0001
0000
0001
0001
,
0001
0000
0010
0000
,
0010
0000
0100
0000
,
1000
0000
0001
1000
,
2000
3000
0000
0000
0001
0000
0001
0000
,
0000
1000
0001
0000
,
1000
0000
0100
0000
,
0110
0000
0001
0000
,
0011
0001
0100
0000
,
1000
0100
0001
0000
,
0010
0100
0000
0100
,
0010
0000
0010
0100
,
0110
0000
0000
0000
,
0110
0000
0010
0001
,
0110
0000
0000
0000
,
1001
0000
0110
0000
,
1000
0000
1000
1000
,
0001
0000
0001
0001
,
0001
0000
0110
0000
,
0010
0000
0100
0000
,
1001
0000
0100
0000
,
1001
0000
1000
0000
,
0101
0000
1000
1000
,
0001
0000
0000
0001
,
0000
0100
0000
0100
,
0010
0000
0001
0010
,
1000
0000
1000
0100
,
0220
0330
0000
0100
,
0010
0000
0010
0100
,
0110
0000
0000
0000
,
0110
0000
0010
1000
,
0110
0000
0000
0000
,
1001
0000
0110
0000
,
1000
1000
1000
0000
,
0001
0001
0001
0000
,
1001
0000
0110
0000
,
1001
0000
0110
0000
,
0000
0010
0000
0000
,
0001
0000
1000
0000
,
0001
0000
1001
0000
,
0010
1000
0010
0000
;

//--------------- dance-single - Blood4Fame ----------------
#NOTES:
     dance-single:
     Blood4Fame:
     Easy:
     4:
     0,0,0,0,0:
0000
0000
0000
0000
,
0000
0000
0000
0000
,
1001
0000
0000
0000
,
0011
0000
0011
0101
,
1001
0000
0000
0000
,
0011
0000
0011
0101
,
1010
0100
0000
0010
,
0011
0000
0011
0101
,
1010
0010
0000
0100
,
0011
0000
0011
0101
,
0110
0000
0010
0001
,
1000
1000
0001
0001
,
1000
0000
0000
0000
0001
0000
0000
0000
2000
0000
0000
3000
0000
0000
0000
0000
,
0011
0000
1010
0000
,
1001
0010
0010
0001
,
0101
0000
1100
0100
,
0110
0000
0001
0100
,
0001
0000
0000
0000
0010
0000
0000
0000
1000
0000
0000
0010
0000
0000
0000
0000
,
1000
0002
0003
0000
0001
0000
0010
0000
,
0100
0110
0100
0010
,
0110
0000
0000
0110
0000
0000
1001
0000
,
0110
0000
0110
1001
,
0110
0000
0000
0110
0000
0000
1001
0000
,
1001
0000
0110
0000
,
0000
0000
0000
0000
,
0000
0000
0000
0000
,
1000
0001
1000
0001
,
0001
1000
0001
1000
,
1001
0000
0110
0000
,
0010
0100
0100
1000
,
1000
0001
0001
1000
,
2000
3010
0000
1000
0001
0000
0001
0000
,
1000
1000
0001
0001
,
1000
0100
0100
1000
,
0110
0000
0000
0000
0100
0000
0000
0000
0001
0000
0000
0100
0000
0000
0000
0000
,
0011
0001
0001
0010
,
1000
0100
0001
0100
,
0010
0100
1000
0100
,
0010
0010
0010
0100
,
0110
0000
0000
0110
0000
0000
1001
0000
,
0110
0000
0110
1001
,
0110
0000
0000
0110
0000
0000
1001
0000
,
1001
0000
0110
0000
,
1000
0001
1000
0001
,
0001
1000
0001
1000
,
1001
0000
0110
0000
,
0010
0100
0100
0001
,
1001
1000
0100
1000
,
1001
0000
1000
0010
,
0101
0101
1000
1000
,
0001
0000
0000
0100
0000
0000
0010
0000
0000
0000
0000
0000
0001
0000
0000
0000
,
0001
0100
1000
0100
,
0010
0110
0001
0010
,
1000
0100
1000
0100
,
0220
0000
0330
0010
0000
0000
0100
0000
,
0010
0100
0010
0100
,
0110
0000
0000
0110
0000
0000
1001
0000
,
0110
0000
0110
1001
,
0110
0000
0000
0110
0000
0000
1001
0000
,
1001
0000
0110
0000
,
1000
0001
1000
0001
,
0001
1000
0001
1000
,
1001
0000
0110
0000
,
1001
0000
0110
0000
,
0000
0010
0000
0010
,
0001
0000
1000
0100
,
0001
0000
1001
0000
,
0110
1001
0110
0000
;

//--------------- dance-single - Blood4Fame ----------------
#NOTES:
     dance-single:
     Blood4Fame:
     Medium:
     6:
     0,0,0,0,0:
0000
0000
0000
0000
,
0000
0000
0000
0000
,
1001
0100
0001
0100
,
0011
0000
0011
0101
,
1001
0100
0100
0001
,
0011
0000
0011
0101
,
1010
0000
0001
1000
1000
0010
1000
0000
,
0011
0000
0011
0101
,
1010
0000
0010
0001
0010
1000
0100
0000
,
0011
0000
0011
0101
,
0110
0000
0000
0000
0010
1000
0001
0000
,
1000
0100
1000
0000
0001
0100
0001
0000
,
1000
0000
0100
0000
0001
0000
0100
0000
2000
0000
0000
3000
1001
0000
0000
0000
,
0011
0011
1010
1010
,
1001
0000
0010
0000
0010
1000
0001
0000
,
0101
0000
0100
0000
1100
0000
0100
0010
,
0110
0000
0100
0000
0001
0010
0100
0000
,
0001
0000
0100
0000
0010
0000
0001
0000
1000
0100
0000
0010
0000
0000
0000
0000
,
1001
0002
0003
0000
0001
1000
0010
0000
,
0100
0001
0100
0000
0100
1000
0010
0000
,
0010
0100
0000
0010
0100
0000
1001
0000
,
0010
0100
0000
0010
0100
0000
1001
0000
,
0010
0100
0000
0010
0100
0000
1001
0000
,
1001
0110
1001
0110
,
2002
0000
0000
0000
,
0000
0000
0000
3003
,
1000
0100
0001
0100
1000
0100
0001
0000
,
0001
0100
1000
0100
0001
0100
1000
0000
,
1001
0110
1001
0110
,
0010
0000
0000
0010
0100
0000
0000
0000
0100
0000
0001
0000
1000
0000
0000
0000
,
1000
0010
0001
0000
0001
0010
1000
0000
,
2000
3010
0000
1000
0001
0100
0001
0000
,
1000
0100
1000
0000
0001
0100
0001
0000
,
1000
0001
0100
0010
0100
0001
1000
0000
,
0110
0000
0000
0000
0100
0000
0000
0000
0001
0000
1000
0100
0000
0010
0000
0000
,
0011
0000
0001
0000
0001
0100
0010
0000
,
1000
0000
0010
0000
0100
0000
0001
0000
0001
0000
0010
0000
0100
1000
0000
0000
,
0010
0000
0100
0010
1000
1000
0100
0000
,
0010
0001
0010
0100
0010
0001
0100
0000
,
0010
0100
0000
0010
0100
0000
1001
0000
,
0010
0100
0000
0010
0100
0000
1001
0000
,
0010
0100
0000
0010
0100
0000
1001
0000
,
1001
0110
1001
0110
,
1000
0100
0001
0100
1000
0100
0001
0000
,
0001
0100
1000
0100
0001
0100
1000
0000
,
1001
0110
1001
0110
,
0010
0000
0100
0000
0100
1000
0001
0000
,
1001
0010
1000
0000
0100
0010
1000
0100
,
1001
0000
0000
0000
1000
0100
0010
0000
,
0101
0000
0101
0000
1000
0100
1000
0000
,
0001
0000
0010
0100
0000
0000
0010
0000
0000
0000
1000
0000
0001
0000
0000
0000
,
0001
1000
0100
0000
1000
0001
0100
0100
,
0010
0000
0110
1000
0001
0100
0010
0000
,
1000
0000
0010
0000
0100
0000
0001
0000
1000
0000
0010
0000
0100
0001
0000
0000
,
0220
0000
0330
0010
1000
1000
0100
0000
,
0010
0001
0100
0100
0010
1000
0100
0000
,
0010
0100
0000
0010
0100
0000
1001
0000
,
0010
0100
0000
0010
0100
0000
1001
0000
,
0010
0100
0000
0010
0100
0000
1001
0000
,
1001
0110
1001
0110
,
1000
0100
0001
0100
1000
0100
0001
0000
,
0001
0100
1000
0100
0001
0100
1000
0000
,
1001
0110
1001
0110
,
1001
0110
1001
0110
,
1000
0010
0100
0010
,
1000
0000
0010
0100
1000
0000
0100
0100
,
0001
0000
1001
0000
,
0110
1001
0110
0000
;

//--------------- dance-single - Blood4Fame ----------------
#NOTES:
     dance-single:
     Blood4Fame:
     Hard:
     8:
     0,0,0,0,0:
0000
0000
0000
0000
,
0000
0000
0000
0000
,
1000
1000
0100
0010
0001
0010
0100
0000
,
0011
0000
0011
0101
,
1000
1000
0100
0010
0100
0010
0001
0000
,
0011
0000
0011
0101
,
0010
0000
0100
0010
0001
0000
0001
0000
1000
0100
0010
0000
0001
0000
0000
0000
,
0011
0000
0011
0101
,
0010
0000
1000
0100
0010
0000
0001
0000
0010
0100
1000
0000
0100
0000
0000
0000
,
0011
0000
0011
0101
,
0100
0000
0000
0100
0010
0000
0000
0000
0010
0000
1000
0000
0001
0000
0000
0000
,
1000
0100
1000
0000
0001
0100
0001
0000
,
1000
0000
0100
0010
0001
0000
0100
0010
2000
0000
0000
3000
1001
0000
0000
0000
,
0011
0010
0011
0000
1010
0010
1010
0000
,
0001
0000
1000
0100
0010
0000
0000
0000
0010
0100
1000
0000
0001
0000
0000
0000
,
0101
1000
0100
0000
1100
0001
0100
0010
,
0110
0000
0100
0000
0001
0010
0100
0000
,
0001
0000
0100
0000
0010
0000
0001
0000
1000
0100
0000
0010
0000
0000
0001
0000
,
1001
0000
0002
0000
0003
0000
0000
0010
0001
0000
1000
0000
0010
0000
0010
0000
,
0100
0000
0001
1000
0100
0000
0010
0000
0100
0000
1000
0100
0010
0000
0001
0000
,
0110
0100
0000
0010
0110
0000
1001
0000
,
0110
0100
0000
0010
0110
0000
1001
0000
,
0110
0100
0000
0010
0110
0000
1001
0000
,
1001
0110
1001
0110
,
2002
0000
0000
0000
,
0000
0000
0000
0000
0000
0000
0000
0000
0000
0000
0000
0000
3003
0000
0000
0001
,
1000
0000
0100
0000
0001
0000
0100
0000
1000
0000
0100
0000
0001
0000
0000
1000
,
0001
0100
1000
0100
0001
0100
1000
0000
,
1001
0110
1001
0110
,
0010
0000
0000
0010
0100
0000
0000
0000
0100
0000
0001
0000
1000
0000
0000
0000
,
1000
0010
0001
0000
0001
0010
1000
0000
,
1001
0010
0000
1000
0001
0100
0001
0000
,
1100
0100
1100
0000
0101
0100
0101
0000
,
1000
0000
0001
0010
0100
0000
0010
0000
0100
0010
0001
0000
1000
0000
0000
0000
,
1010
0000
0001
0000
0100
0000
0000
0000
0011
0000
1000
0100
0000
0010
0000
0000
,
1100
0000
0011
0000
0001
0100
0010
0000
,
1000
0000
0010
0000
0100
0000
0001
0000
0001
0000
0010
0000
0100
1000
0000
0000
,
0010
0100
0000
0001
0100
0000
0010
0100
0001
0000
1000
0000
0100
0000
0000
0000
,
0010
0000
0001
1000
0010
0000
0100
0000
0010
0000
1000
0000
0100
0000
1000
0000
,
0110
0100
0000
0010
0110
0000
1001
0000
,
0110
0100
0000
0010
0110
0000
1001
0000
,
0110
0100
0000
0010
0110
0000
1001
0000
,
1001
0000
0000
0000
0110
0000
0000
0000
1001
0000
0000
0000
0110
0000
0000
0001
,
1000
0000
0100
0000
0001
0000
0100
0000
1000
0000
0100
0000
0001
0000
0000
1000
,
0001
0100
1000
0100
0001
0100
1000
0000
,
1001
0110
1001
0110
,
0010
0000
0000
0010
0100
0000
0000
0000
0100
0000
1000
0000
0001
0000
0000
0000
,
1001
0010
1000
0010
0100
0010
1000
0100
,
1001
0000
0100
0000
1000
0100
0010
0000
,
0101
0100
0101
0000
1100
0100
1100
0000
,
0001
1000
0010
0100
0000
0000
0010
0000
0100
0010
1000
0000
0001
0000
0000
0000
,
0011
1000
0001
0000
1010
0001
1000
0100
,
0010
0000
0000
0000
0110
0000
0001
0010
0001
0000
0100
0000
0010
0000
0000
0000
,
1000
0000
0010
0000
0100
0000
0001
0000
1000
0000
0010
0000
0100
0001
0000
0000
,
0120
0000
2000
0000
3030
0000
0010
0100
0001
0000
1000
0000
0100
0000
0000
0000
,
0010
0000
0001
0010
0100
0000
0100
0000
0010
0000
0001
0000
0100
0000
0000
0000
,
0110
0100
0000
0010
0110
0000
1001
0000
,
0110
0100
0000
0010
0110
0000
1001
0000
,
0110
0100
0000
0010
0110
0000
1001
0000
,
1001
0000
0000
0000
0110
0000
0000
0000
1001
0000
0000
0000
0110
0000
0000
0001
,
1000
0000
0100
0000
0001
0000
0100
0000
1000
0000
0100
0000
0001
0000
0000
1000
,
0001
0100
1000
0100
0001
0100
1000
0000
,
1001
0110
1001
0110
,
1001
0110
1001
0110
,
1000
0000
0000
0100
0010
0000
0010
0000
0100
0000
1000
0000
0010
0000
0010
0000
,
1000
0000
0000
0100
0010
0000
0100
0000
1000
0000
0010
0000
0100
0000
0100
0000
,
0001
0000
1001
0000
,
0110
1001
0110
0000
;
