#TITLE:My Boo;
#SUBTITLE:;
#ARTIST:Ghostown DJs;
#TITLETRANSLIT:;
#SUBTITLETRANSLIT:;
#ARTISTTRANSLIT:;
#GENRE:R&B;
#CREDIT:Blood4Fame;
#MUSIC:My Boo.mp3;
#BANNER:Banner.png;
#BACKGROUND:BG.png;
#CDTITLE:;
#SAMPLESTART:14.822;
#SAMPLELENGTH:14.873;
#SELECTABLE:YES;
#OFFSET:-0.036;
#BPMS:0.000=129.935;
#STOPS:;
#BGCHANGES:-0.036=My Boo.avi=1.000=1=0=1===CrossFade==,
99999.000=-nosongbg-=1.000=0=0=0=StretchNoLoop====;
#FGCHANGES:;

//--------------- dance-single - Blood4Fame ----------------
#NOTES:
     dance-single:
     Blood4Fame:
     Easy:
     3:
     0,0,0,0,0:
0000
2000
0000
0000
,
3200
0000
0000
0000
,
0320
0000
0000
0000
,
0230
0000
0302
0000
,
2003
0000
0000
0000
,
3200
0000
0000
0000
,
0320
0000
0000
0000
,
0031
0001
0100
0000
,
1010
0000
0100
0000
,
0001
0010
0100
0000
,
0101
0000
0010
0000
,
1000
0100
0010
0000
,
1010
0000
0100
0000
,
0001
0010
0100
0000
,
1100
0000
0001
0000
,
1000
0100
0010
0001
,
1010
0000
0100
0000
,
0001
0010
0100
0000
,
0101
0000
0010
0000
,
1000
0100
0010
0000
,
1010
0000
0100
0000
,
0001
0010
0100
0000
,
1100
0000
0001
0000
,
1000
0100
0010
0001
,
0100
0100
0000
0020
,
0000
1030
0000
1000
,
0000
0100
0000
0002
,
0000
0103
0000
0010
,
0000
1000
0000
0002
,
0000
1003
0000
0100
,
0000
0001
0000
2000
,
0000
3010
0000
0100
,
1010
0000
0100
0000
,
0001
0010
0100
0000
,
0101
0000
0010
0000
,
1000
0100
0010
0000
,
1010
0000
0100
0000
,
0001
0010
0100
0000
,
1100
0000
0001
0000
,
1000
0100
0010
0001
,
1010
0000
0100
0000
,
0001
0010
0100
0000
,
0101
0000
0010
0000
,
1000
0100
0010
0000
,
1010
0000
0100
0000
,
0001
0010
0100
0000
,
1100
0000
0001
0000
,
1000
0100
0010
0001
,
0100
0000
0100
0000
,
0100
0000
0100
0010
,
0010
0000
0100
0000
,
0100
0000
0100
0010
,
0010
0000
0100
0000
,
0100
0000
0100
0010
,
0010
0000
0100
0000
,
0001
0010
0100
1000
,
2002
0000
3003
0000
,
2020
0000
3030
0000
,
0202
0000
0303
0000
,
0022
0000
0033
0000
,
2002
0000
3003
0000
,
2020
0000
3030
0000
,
0022
0000
0033
0000
,
0220
0330
2002
0000
,
3003
0000
0000
0000
;

//--------------- dance-single - Blood4Fame ----------------
#NOTES:
     dance-single:
     Blood4Fame:
     Medium:
     6:
     0,0,0,0,0:
0000
0000
0000
0000
0000
0000
0000
0000
0000
0000
0000
0000
0000
0000
0000
0000
0000
0000
0000
0000
0000
0000
0000
0000
0000
0000
0000
0000
0000
0000
0000
0000
0000
0000
0000
0000
2000
0000
0000
0000
0000
0000
0000
0000
0000
0000
3200
0000
0000
0000
0000
0000
0000
0000
0000
0000
0000
0302
0000
0000
0000
0000
0000
0000
,
0000
0000
0000
0000
0000
0203
0000
0000
0000
0000
0000
0000
0000
0000
0000
0000
0000
0000
0000
0000
0000
0000
0000
0000
0000
0000
0000
0000
0300
0000
0000
0000
0000
0000
0000
0000
0000
0000
0020
0000
0000
0000
0000
0000
0000
0000
0000
0000
0000
0000
0000
0000
0000
0000
0000
0000
0000
0000
0000
0000
0000
0000
0000
0000
,
0000
0000
0000
0000
0000
0000
0000
0000
0000
0000
0000
0030
0000
0000
0000
0000
0000
0000
0000
0000
0000
0000
0000
0000
0000
0000
0000
0000
0000
0000
0000
0000
0000
0000
2000
0000
0000
0000
0000
0000
0000
0000
0000
0000
0000
0000
0000
3020
0000
0000
0000
0000
0000
0000
0000
0230
0000
0000
0000
0000
0000
0000
0000
0000
,
0000
0000
0000
0302
0000
0000
0000
0000
0000
0000
0000
0000
0000
0000
0000
0000
0000
0000
0000
0000
0000
0000
0000
0000
0000
0000
0000
0000
0003
0000
0000
0000
0000
0000
0000
0000
0000
2000
0000
0000
0000
0000
0000
0000
0000
0000
0000
0000
0000
0000
0000
0000
0000
0000
0000
0000
0000
0000
0000
3000
0000
0000
0000
0000
,
0020
0000
0000
0000
0000
0000
0000
0000
0000
0000
0000
0000
0000
0000
0000
0000
0030
0000
0000
0000
0000
0000
0000
0000
0000
0000
0000
0000
0000
0000
0000
0001
0000
0000
0000
0000
0000
0000
0020
0000
0000
0000
0000
0000
0000
0000
0000
0032
0000
0000
0000
0000
0000
0000
0000
0000
0000
0000
1000
0000
0000
0000
0000
0000
,
0000
0000
0000
0000
0000
0203
0000
0000
0000
0000
0000
0000
0000
0000
0000
0000
0000
0000
0000
0000
0000
0000
0000
0000
0000
0000
0000
0000
0000
0000
0000
0020
0000
0000
0000
0000
0000
0000
0000
0000
0000
0000
0000
0000
0000
0000
0000
0000
0000
0000
0000
0000
0000
0000
0000
0000
0000
0000
0000
0000
0000
0000
0000
0000
,
0000
0330
0000
0000
0000
0000
0000
0000
0000
0000
0000
0000
0000
0000
0000
0000
0000
0000
0000
0000
0000
0000
0000
0000
0000
0000
0000
0000
0000
0000
0000
0000
0000
0000
0020
0000
0000
0000
0000
0000
0000
0000
0000
0000
0000
0000
0000
0000
0000
0000
0000
2030
0000
0000
0000
0000
0000
0000
0000
0000
0000
0000
0000
0000
,
0000
0000
0000
3000
0000
0000
0000
0000
1000
0000
0000
0000
0001
0000
0000
0000
0000
0000
0000
0000
1000
0000
0000
0000
0000
0000
0000
0000
0000
0000
0000
0000
0010
0000
0000
0000
0000
0000
0000
0000
0000
0000
0000
0000
1000
0000
0000
0000
0000
0000
0000
0000
0100
0000
0000
0000
0000
0000
0000
0000
0000
0000
0000
0000
,
1001
0000
0000
0000
0011
0000
0000
0000
2200
0000
0000
3300
0000
0000
1000
0000
,
0010
1010
0202
0000
,
0303
0000
0000
0000
0110
0000
0000
0000
2002
0000
0000
0000
0000
3003
1000
0000
,
0002
0000
0023
0000
0230
0000
2300
0010
,
0000
0000
3000
0000
0001
0000
0010
0000
0100
0000
0000
0010
0000
0000
0002
0000
,
0000
1003
0100
0010
0002
0000
0200
0000
,
0303
0000
0000
0000
0001
0000
0100
0000
0010
0000
0000
1000
0000
0000
0010
0000
,
0000
0100
0100
0001
0011
0000
0110
0000
,
1100
0000
1100
0000
0022
0000
0033
0001
,
0100
0101
2020
0000
,
3030
0000
0110
0000
1001
0000
0000
0001
,
2000
0000
3200
0000
0320
0000
0032
0100
,
0000
0000
0003
0000
1000
0000
0100
0000
0010
0000
0000
0100
0000
0000
2000
0000
,
0000
3001
0010
0100
2000
0000
0020
0000
,
3030
0000
0000
0000
1000
0000
0010
0000
0100
0000
0000
0001
0000
0000
0100
0000
,
0000
0010
0010
1000
1100
0000
0110
0000
,
0011
0000
0010
0001
0000
0010
2000
0000
,
0000
0000
0010
0000
0000
0010
0000
0000
3010
0000
0100
0000
0001
0000
0000
0000
,
0100
0000
1100
1000
0000
0000
0022
0000
,
0003
0000
0001
0000
0000
0001
0000
0000
0031
0000
0010
0000
0100
0000
0000
0000
,
0001
0000
1001
0010
0000
0000
0202
0000
,
0300
0000
0100
0000
0000
0100
0000
0000
0103
0000
0001
0000
0100
0000
0000
0000
,
1000
0000
0110
0001
0000
0000
2020
0000
,
3000
0000
1000
0000
0000
1000
0000
0000
1030
0000
0010
0000
0100
0000
0000
0000
,
0000
0000
0011
0000
2200
0000
3300
1000
,
0010
1010
0202
0000
,
0303
0000
0110
0000
2002
0000
3003
1000
,
0002
0000
0023
0000
0230
0000
2300
0010
,
0000
0000
3000
0000
0001
0000
0010
0000
0100
0000
0000
0010
0000
0000
0002
0000
,
0000
1003
0100
0010
0002
0000
0200
0000
,
0303
0000
0000
0000
0001
0000
0100
0000
0010
0000
0000
1000
0000
0000
0010
0000
,
0000
0100
0100
0001
0011
0000
0110
0000
,
1100
0000
1100
0000
0022
0000
0033
0001
,
0100
0101
2020
0000
,
3030
0000
0110
0000
2002
0000
3003
0001
,
2000
0000
3200
0000
0320
0000
0032
0100
,
0000
0000
0003
0000
1000
0000
0100
0000
0010
0000
0000
0100
0000
0000
2000
0000
,
0000
3001
0010
0100
2000
0000
0020
0000
,
3030
0000
0000
0000
1000
0000
0010
0000
0100
0000
0000
0001
0000
0000
0100
0000
,
0000
0010
0010
1000
1100
0000
0110
0000
,
0011
0000
0000
0000
2002
0000
3003
1001
,
0000
0110
0000
0011
0000
1100
0000
2002
,
0000
0000
0000
3003
0000
0100
0010
1000
,
0000
0202
0000
0000
0300
2000
0000
3003
,
0000
0000
0000
0020
0002
0000
0033
0011
,
0000
0110
0000
0011
0000
1001
0000
1010
,
0000
1100
0000
1010
0000
0100
0000
0001
,
0000
0000
0010
0000
1000
0000
0000
0000
0100
0000
0010
0000
0001
0100
0001
0000
,
2020
0000
0000
0000
3000
0000
0200
0000
0000
0030
0020
0000
0330
0000
0220
0000
,
0000
0000
0300
0130
0001
0010
0100
0000
,
2200
0000
3000
2000
0300
0200
3300
0220
,
0330
0100
0010
0001
0202
0303
0202
0303
,
2200
0000
0000
0000
3000
0000
0020
0000
0000
0300
0200
0000
0330
0000
0220
0000
,
0000
0000
0030
0310
0001
0100
0010
0000
,
2020
0000
3000
2000
0030
0020
3030
0220
,
0330
0010
0100
0001
0020
0000
0000
0000
,
0030
0000
0000
0000
;

//--------------- dance-single - Blood4Fame ----------------
#NOTES:
     dance-single:
     Blood4Fame:
     Hard:
     7:
     0,0,0,0,0:
0000
0000
0000
0000
0000
0000
0000
0000
0000
0000
0000
0000
0000
0000
0000
0000
0000
0000
0000
0000
0000
0000
0000
0000
0000
0000
0000
0000
0000
0000
0000
0000
0000
0000
0000
0000
2000
0000
0000
0000
0000
0000
0000
0000
0000
0000
3200
0000
0000
0000
0000
0000
0000
0000
0000
0000
0000
0302
0000
0000
0000
0000
0000
0000
,
0000
0000
0000
0000
0000
0203
0000
0000
0000
0000
0000
0000
0000
0000
0000
0000
0000
0000
0000
0000
0000
0000
0000
0000
0000
0000
0000
0000
0000
0000
0000
0000
0000
0000
0000
0000
0000
0000
0020
0000
0000
0000
0000
0000
0000
0000
0000
0000
0000
0000
0000
0000
0000
0000
0000
0000
0000
0000
0000
0000
0000
0000
0000
0000
,
0000
0000
0000
0000
0000
0000
0000
0000
0000
0000
0000
0330
0000
0000
0000
0000
0000
0000
0000
0000
0000
0000
0000
0000
0000
0000
0000
0000
0000
0000
0000
0000
0000
0000
2000
0000
0000
0000
0000
0000
0000
0000
0000
0000
0000
0000
0000
3020
0000
0000
0000
0000
0000
0000
0000
0230
0000
0000
0000
0000
0000
0000
0000
0000
,
0000
0000
0000
0302
0000
0000
0000
0000
0000
0000
0000
0000
0000
0000
0000
0000
0000
0000
0000
0000
0000
0000
0000
0000
0000
0000
0000
0000
0000
0000
0000
0000
0000
0000
0000
0000
0000
2000
0000
0000
0000
0000
0000
0000
0000
0000
0000
0000
0000
0000
0000
0000
0000
0000
0000
0000
0000
0000
0000
3000
0000
0000
0000
0000
,
0020
0000
0000
0000
0000
0000
0000
0000
0000
0000
0000
0000
0000
0000
0000
0000
0033
0000
0000
0000
0000
0000
0000
0000
0000
0000
0000
0000
0000
0000
0000
0001
0000
0000
0000
0000
0000
0000
0020
0000
0000
0000
0000
0000
0000
0000
0000
0032
0000
0000
0000
0000
0000
0000
0000
0000
0000
0000
1000
0000
0000
0000
0000
0000
,
0000
0000
0000
0000
0000
0203
0000
0000
0000
0000
0000
0000
0000
0000
0000
0000
0000
0000
0000
0000
0000
0000
0000
0000
0000
0000
0000
0000
0000
0000
0000
0020
0000
0000
0000
0000
0000
0000
0000
0000
0000
0000
0000
0000
0000
0000
0000
0000
0000
0000
0000
0000
0000
0000
0000
0000
0000
0000
0000
0000
0000
0000
0000
0000
,
0000
0330
0000
0000
0000
0000
0000
0000
0000
0000
0000
0000
0000
0000
0000
0000
0000
0000
0000
0000
0000
0000
0000
0000
0000
0000
0000
0000
0000
0000
0000
0000
0000
0000
0020
0000
0000
0000
0000
0000
0000
0000
0000
0000
0000
0000
0000
0000
0000
0000
0000
2030
0000
0000
0000
0000
0000
0000
0000
0000
0000
0000
0000
0000
,
0000
0000
0000
3001
0000
0000
0000
0000
1000
0000
0000
0000
0001
0000
0000
0000
0000
0000
0000
0000
1000
0000
0000
0000
0000
0000
0000
0000
1000
0000
0000
0000
0010
0000
0000
0000
0000
0000
0000
0000
0000
0000
0000
0000
1000
0000
0000
0000
0000
0000
0000
0000
0100
0000
0000
0000
0010
0000
0000
0000
0000
0000
0000
0000
,
1001
0000
0011
0000
1100
0000
0010
1000
,
0010
0000
0000
0000
1010
0000
0000
0000
0102
0000
1000
0000
0000
1000
0000
0000
,
1003
0000
0110
0000
1001
0000
0001
1000
,
0002
0000
0023
0000
0230
0000
2300
0010
,
0000
0000
3100
0000
0001
0000
0010
0000
0100
0000
0000
0010
0000
0000
0002
0000
,
0000
1003
0100
0010
0002
0000
0200
0000
,
0303
0000
0000
0000
0001
0000
0100
0000
0010
0000
0000
1000
0000
0000
0010
0000
,
0000
0000
0100
0010
0100
0000
0001
0000
0011
0000
0000
0000
0110
0000
0000
0000
,
1100
0000
1100
0000
0011
0000
0100
0001
,
0100
0000
0000
0000
0101
0000
0000
0000
2010
0000
0001
0000
0000
0001
0000
0000
,
3001
0000
0110
0000
1001
0000
1000
0001
,
2000
0000
3200
0000
0320
0000
0032
0100
,
0000
0000
0013
0000
1000
0000
0100
0000
0010
0000
0000
0100
0000
0000
2000
0000
,
0000
3001
0010
0100
2000
0000
0020
0000
,
3030
0000
0000
0000
1000
0000
0010
0000
0100
0000
0000
0001
0000
0000
0100
0000
,
0000
0000
0010
0100
0010
0000
1000
0000
1100
0000
0000
0000
0110
0000
0000
0000
,
0011
0000
0000
0000
0010
0000
0001
0100
0000
0000
0010
0000
2000
0000
0000
0000
,
0000
0000
0010
0000
0000
0010
0000
0000
3010
0000
0100
0000
0001
0010
0000
0000
,
0100
0000
0000
0000
1100
0000
1000
0100
0000
0000
0000
0000
0022
0000
0000
0000
,
0003
0000
0001
0000
0000
0001
0000
0000
0031
0000
0010
0000
0100
1000
0000
0000
,
0001
0000
0000
0000
1001
0000
0010
0100
0000
0000
0000
0000
0202
0000
0000
0000
,
0300
0000
0100
0000
0000
0100
0000
0000
0103
0000
0001
0000
0100
0010
0000
0000
,
1000
0000
0000
0000
0110
0000
0001
0100
0000
0000
0000
0000
2020
0000
0000
0000
,
3000
0000
1000
0000
0000
1000
0000
0000
1030
0000
0010
0000
0100
0001
0000
0000
,
0000
0000
0011
0000
1100
0000
0010
1000
,
0010
0000
0000
0000
1010
0000
0000
0000
0102
0000
1000
0000
0000
1000
0000
0000
,
1003
0000
0110
0000
1001
0000
0001
1000
,
0002
0000
0023
0000
0230
0000
2300
0010
,
0000
0000
3100
0000
0001
0000
0010
0000
0100
0000
0000
0010
0000
0000
0002
0000
,
0000
1003
0100
0010
0002
0000
0200
0000
,
0303
0000
0000
0000
0001
0000
0100
0000
0010
0000
0000
1000
0000
0000
0010
0000
,
0000
0000
0100
0010
0100
0000
0001
0000
0011
0000
0000
0000
0110
0000
0000
0000
,
1100
0000
1100
0000
0011
0000
0100
0001
,
0100
0000
0000
0000
0101
0000
0000
0000
2010
0000
0001
0000
0000
0001
0000
0000
,
3001
0000
0110
0000
1001
0000
1000
0001
,
2000
0000
3200
0000
0320
0000
0032
0100
,
0000
0000
0013
0000
1000
0000
0100
0000
0010
0000
0000
0100
0000
0000
2000
0000
,
0000
3001
0010
0100
2000
0000
0020
0000
,
3030
0000
0000
0000
1000
0000
0010
0000
0100
0000
0000
0001
0000
0000
0100
0000
,
0000
0000
0010
0100
0010
0000
1000
0000
1100
0000
0000
0000
0110
0000
0000
0000
,
0011
0000
0000
0000
2002
0000
3003
1001
,
0000
0110
0000
0011
0000
1100
0000
2002
,
0000
0000
0000
3003
0000
0100
0010
1010
,
0000
0202
0000
0000
0300
2000
0000
3003
,
0000
0000
0000
0010
0022
0000
0033
0011
,
0000
0110
0000
0011
0000
1001
0000
1010
,
0000
1100
0000
1010
0000
0100
0000
0001
,
0000
0000
0010
1000
0000
1000
0000
1000
0100
0010
0000
0000
0001
0100
0001
0000
,
2020
0000
0000
0000
3000
0000
0200
0000
0000
0030
0020
0000
0330
0000
0220
0000
,
0000
0000
0300
0130
0001
0010
0100
0000
,
2200
0000
3000
2000
0300
0200
3300
0220
,
0330
0100
0010
0001
0202
0303
0202
0303
,
2200
0000
0000
0000
3000
0000
0020
0000
0000
0300
0200
0000
0330
0000
0220
0000
,
0000
0000
0030
0310
0001
0100
0010
0000
,
2020
0000
3000
2000
0030
0020
3030
0220
,
0330
0010
0100
0001
0022
0000
0000
0000
,
0033
0000
0000
0000
;
