#TITLE:Murder Mitten;
#SUBTITLE:;
#ARTIST:I See Stars;
#TITLETRANSLIT:;
#SUBTITLETRANSLIT:;
#ARTISTTRANSLIT:;
#GENRE:Rock;
#CREDIT:Blood4Fame;
#MUSIC:music.mp3;
#BANNER:banner.png;
#BACKGROUND:bg.png;
#CDTITLE:;
#SAMPLESTART:67.094;
#SAMPLELENGTH:27.049;
#SELECTABLE:YES;
#OFFSET:-0.167;
#BPMS:0.000=142.971
,129.000=285.941
,131.000=142.971
,132.000=285.941
,134.000=142.971
,134.500=285.941
,137.000=142.971
,138.000=285.941
,140.000=142.971
,141.000=285.941
,149.000=142.971
,150.000=285.941
,152.000=142.971
,152.500=285.941
,154.000=142.971
,163.000=285.941
,165.000=142.971
,166.000=285.941
,168.000=142.971
,168.500=285.941
,170.000=142.971
,172.000=285.941
,174.000=142.971
,176.000=285.941
,183.000=142.971
,184.000=285.941
,186.000=142.971
,186.500=285.941
,188.000=142.971
,400.000=143.000
;
#STOPS:128.000=0.420
,129.000=0.052
,129.250=0.052
,129.500=0.052
,129.750=0.052
,130.000=0.052
,130.250=0.052
,130.500=0.052
,130.750=0.052
,134.500=0.105
,135.000=0.105
,135.500=0.105
,136.000=0.210
,138.000=0.052
,138.250=0.052
,138.500=0.052
,138.750=0.052
,139.000=0.052
,139.250=0.052
,139.500=0.052
,139.750=0.052
,141.000=0.105
,141.500=0.105
,142.000=0.105
,142.500=0.105
,145.000=0.420
,147.000=0.052
,147.250=0.052
,147.500=0.052
,147.750=0.052
,148.000=0.052
,148.250=0.052
,148.500=0.052
,148.750=0.052
,152.500=0.105
,153.000=0.105
,153.500=0.105
,162.000=0.420
,163.000=0.052
,163.250=0.052
,163.500=0.052
,163.750=0.052
,164.000=0.052
,164.250=0.052
,164.500=0.052
,164.750=0.052
,168.500=0.105
,169.000=0.105
,169.500=0.105
,172.000=0.052
,172.250=0.052
,172.500=0.052
,172.750=0.052
,173.000=0.052
,173.250=0.052
,173.500=0.052
,173.750=0.052
,176.000=0.105
,176.500=0.052
,176.750=0.052
,179.000=0.420
,181.000=0.052
,181.250=0.052
,181.500=0.052
,181.750=0.052
,182.000=0.052
,182.250=0.052
,182.500=0.052
,182.750=0.052
,186.500=0.105
,187.000=0.105
,187.500=0.105
;
#DISPLAYBPM:143.000:286.000;
#BGCHANGES:-0.167=video.avi=1.000=1=0=1;
#FGCHANGES:;

//--------------- dance-single - Blood4Fame ----------------
#NOTES:
     dance-single:
     Blood4Fame:
     Easy:
     3:
     0,0,0,0,0:
0000
0000
0000
0000
,
0000
0000
0000
0000
,
0000
0000
0000
0000
,
0000
0000
0000
0000
,
1001
0000
0100
0000
,
1001
0000
0100
0000
,
0010
0000
0010
0000
,
0100
0000
0100
0000
,
1001
0000
0100
0000
,
1001
0000
0100
0000
,
0010
0000
0010
0000
,
0100
0000
0100
0000
,
2000
0000
0000
3000
,
0001
0000
0001
0000
,
0200
0000
0000
0300
,
0010
0000
0010
0000
,
2000
0000
0000
3000
,
1000
0000
1000
0000
,
0020
0000
0000
0030
,
0001
0000
0100
0000
,
0010
0010
0010
0000
,
1000
1000
1000
0000
,
0001
0001
0001
0000
,
1000
0100
1000
0000
,
0001
0000
0010
0000
,
1000
0100
1000
0000
,
0010
0000
0010
0000
,
0001
0000
0001
0000
,
2000
0000
0000
0000
,
0000
0000
0000
0000
,
0000
0000
0000
0000
,
0000
0000
3000
0000
,
0100
1000
0000
0002
,
0000
0000
0003
0000
,
1000
0000
0010
0000
,
0200
0000
0000
0300
,
0000
0001
0000
1000
,
0000
0200
0000
0000
,
0300
0000
0010
0000
,
0100
0000
0010
0010
,
0100
0100
1001
0000
,
0000
0200
0000
0300
,
0010
0000
1000
0000
,
0001
0000
0100
0100
,
0200
0000
0000
0310
,
0000
0000
0000
0002
,
0000
0003
1000
0000
,
0001
0000
0010
0000
,
0010
0000
1000
0000
,
0100
0000
0100
0000
,
0020
0000
0031
0000
,
0100
0000
0100
0000
,
0200
0000
0310
0000
,
1000
1000
1000
0000
,
0001
0001
0001
0000
,
0010
0000
0001
0000
,
0200
0000
0310
0010
,
2000
3000
2000
3000
,
0002
0003
0001
0001
,
2000
3000
0200
0300
,
0020
0030
0100
0100
,
0020
0030
0020
0030
,
0002
0003
0100
1000
,
0200
0300
0002
0003
,
0020
0030
0100
0001
,
0100
0000
0100
0000
,
1001
0000
1001
0000
,
0010
0000
0100
0000
,
1001
0000
1001
0000
,
0010
0000
0001
0000
,
0100
0000
0010
0000
,
0100
0000
1000
0000
,
0100
0010
0001
0010
,
0110
0000
0000
0000
,
0000
0000
0000
0000
,
0110
0000
0000
0000
,
0000
0000
0000
0000
,
1001
0000
0000
0000
,
0000
0000
0000
0000
,
1001
0000
0000
0000
,
0000
0000
0000
0000
,
0011
0000
0000
0000
,
0000
0000
0000
0000
,
0011
0000
0000
0000
,
0000
0000
0000
0000
,
1010
0000
0000
0000
,
0000
0000
0000
0000
,
1010
0000
0000
0000
,
0000
0000
0000
0000
,
2000
3000
0200
0300
,
2000
3000
1100
0000
,
0002
0003
0200
0300
,
0002
0003
0101
0000
,
0020
0030
0002
0003
,
0020
0030
0011
0000
,
0020
0030
2000
3000
,
0020
0030
1010
0000
,
1000
0000
1000
0000
,
0001
0001
0001
0000
,
0010
0000
0100
0000
,
0001
0001
1000
1000
,
0100
0000
0010
0000
,
0100
0000
0100
0100
,
0010
0000
0001
0000
,
0010
0010
0100
0001
,
0200
0000
0000
0000
,
0000
0000
0300
0000
,
1000
0000
2000
0000
,
0000
0000
3000
0000
,
0002
0000
0000
0000
,
0003
0000
0010
0000
,
0010
0000
0010
0000
,
0010
0000
0020
0000
,
0030
0000
0000
0000
;

//--------------- dance-single - Blood4Fame ----------------
#NOTES:
     dance-single:
     Blood4Fame:
     Medium:
     5:
     0,0,0,0,0:
0000
0000
0000
0000
,
0000
0000
0000
0000
,
0000
0000
0000
0000
,
0000
0000
0000
0000
,
1000
0000
0100
0000
1000
0100
0000
0000
0100
0000
0000
0000
0000
0000
0000
0000
,
0001
0000
0100
0000
0001
0100
0000
0000
0100
0000
0000
0000
0000
0000
0000
0000
,
0001
0000
0010
0000
0001
0010
0000
0000
0010
0000
0000
0000
0000
0000
0000
0000
,
1000
0000
0010
0000
1000
0010
0000
0000
1000
0000
0000
0000
0000
0000
0000
0000
,
1000
0000
0100
0000
0010
0001
0000
0000
0001
0000
0000
0000
0000
0000
0000
0000
,
0001
0000
0100
0000
0010
1000
0000
0000
1000
0000
0000
0000
0000
0000
0000
0000
,
1000
0000
0010
0000
0100
0001
0000
0000
0001
0000
0000
0000
0000
0000
0000
0000
,
0001
0000
0010
0000
0100
1000
0000
0000
1000
0000
0000
0000
0000
0000
0000
0000
,
0020
1000
0100
0100
,
0130
1000
0010
0100
,
0001
0000
0000
0001
0000
0000
0010
0000
0000
0000
0001
0000
1000
0000
0010
0000
,
0000
0100
0001
0010
,
0001
2000
0000
0200
3000
2000
0300
0000
,
0001
0010
3001
0100
,
0010
0200
0000
0302
0000
0203
0000
0000
,
0001
0310
0010
0100
,
0000
1000
0100
0020
0000
0000
0031
0100
,
0020
0100
0030
0110
0000
2020
0000
3030
,
0001
0001
0000
0200
0000
0020
0000
0330
,
1000
0200
0000
0320
0000
0031
0010
0000
,
0100
2000
0000
0000
0000
3000
0000
0000
,
0001
0200
0000
0320
0000
2030
3010
0000
,
0200
0000
0000
0000
,
0000
0000
0000
0000
,
0301
0000
0001
0000
,
0001
0000
0001
0000
,
0001
0001
0001
0001
,
1000
0100
0010
0100
,
1001
0010
0100
0202
,
0000
0000
0303
0000
0000
0010
0010
0010
,
1000
0000
0100
0010
,
0101
0000
0010
0100
0010
0100
0002
0000
,
0000
1003
0000
1000
,
0010
2000
0000
3000
,
0000
0010
0100
0010
1000
0000
0000
0110
,
0000
0000
1010
0000
0000
0101
0000
0000
,
0011
0110
1100
0001
,
0010
0002
0000
0003
,
0000
0010
1000
0010
0200
0000
0310
0000
,
0200
0310
0010
0010
,
0020
0000
0000
0000
0000
0030
1000
0000
,
0000
0001
1000
0002
,
0000
0000
0000
0000
0003
1000
0010
0100
,
0100
0000
0101
0000
,
1010
0000
0110
0101
,
0020
0000
0000
0031
0000
0000
0200
0000
,
0000
0320
0000
1030
,
0200
0000
0000
2300
0000
0000
3020
0000
,
0000
0130
0002
0010
,
0010
0023
0030
0001
,
0100
0001
0002
0000
,
0023
0000
0000
0230
0000
0000
0302
0000
,
0000
1000
1003
0000
,
0101
0000
0101
0000
,
1010
0000
1010
0000
,
1100
0000
1100
0000
,
0011
0000
0011
0000
,
0110
0000
0110
0000
,
1001
0000
1001
0000
,
0110
0000
0110
0000
,
2000
0000
3001
0200
0000
1300
0200
0000
,
0000
0310
2000
0000
0000
0000
3000
0000
,
0002
0000
0000
0000
1003
0100
0020
0000
,
0000
0000
0030
0000
0000
0000
0000
0001
,
0200
0000
0000
0000
0310
0100
0002
0000
,
0000
0000
0003
0000
0000
0001
2000
0000
,
3100
0020
0000
0032
0000
0023
0000
0000
,
0000
0030
0000
0000
0000
2000
3010
0000
,
0200
0301
0000
0020
0000
0032
0100
0000
,
1003
0000
0010
0000
,
0000
0100
0010
0000
,
0100
0000
0010
0000
,
0000
0100
0001
0000
0100
0000
0000
0000
,
0100
0000
0001
0000
,
0000
0100
0010
0000
,
0100
0000
1000
0000
,
0000
0100
0100
0000
0001
0000
0000
0000
,
0100
0000
0010
0000
,
0000
0100
0001
0000
,
1000
0000
0100
0000
,
0000
0100
0100
0000
1000
0000
0000
0000
,
0001
0000
0100
0000
,
0000
0010
0100
0000
,
0001
0000
0010
0000
,
0000
1000
0100
0000
0001
0000
0000
0000
,
0010
0010
0100
0000
,
0000
0001
0100
0000
0010
0000
0000
0000
,
1000
1000
0100
0001
,
0010
0000
0000
0000
0100
0000
0001
0000
0000
0000
1000
0000
0000
0100
0000
0000
,
0010
0000
0001
0000
,
1000
1000
0010
0000
,
0100
0010
1000
0100
,
0001
0000
0100
0000
0000
0000
0010
0000
0000
0000
1000
0000
0000
0100
0000
0000
,
0010
0000
0001
0000
,
0100
0100
0010
0000
,
1000
1000
0001
0010
,
0100
0000
0000
0000
1000
0000
0000
0000
0001
0000
0000
0100
0000
0000
0010
0000
,
1000
0000
0100
0000
,
0100
0100
1000
0000
,
0001
0010
0100
0001
,
0000
0100
0100
0000
0010
0000
1000
0000
,
1001
0000
0000
0000
,
0000
0000
0000
0000
,
0000
0000
0000
0000
,
0000
0000
0000
0000
,
0000
0000
0000
0100
,
0100
0001
0200
0000
,
0000
0000
0000
0000
,
0000
0000
0000
0000
,
0300
0000
0000
0000
;

//--------------- dance-single - Blood4Fame ----------------
#NOTES:
     dance-single:
     Blood4Fame:
     Hard:
     9:
     0,0,0,0,0:
0000
0000
0000
0000
,
0000
0000
0000
0000
,
0000
0000
0000
0000
,
0000
0000
0000
0000
,
0010
0000
0000
1000
0100
0000
0000
1000
0010
0000
1000
0001
0000
1000
0100
0000
,
0010
0000
0000
0001
0100
0000
0000
0001
0010
0000
0001
1000
0000
0001
0100
0000
,
0010
1000
1000
0100
0010
0001
0100
0010
,
0100
0001
0001
1000
0010
0100
0001
0010
,
0100
0000
1000
0100
0000
1000
0100
0000
0010
0000
0001
0000
0100
0000
0010
0000
,
0100
0000
0001
0100
0000
0001
0100
0000
0001
1000
0000
0100
0010
0000
0001
0000
,
0010
0001
0001
0100
0010
1000
0100
0010
,
0100
1000
1000
0001
0010
0100
1000
0010
,
2000
0000
0100
3100
0020
0000
0031
0100
,
0020
0000
1030
0010
0200
0000
0001
0301
,
2000
0000
0000
3100
0010
0000
0001
0000
0200
0000
0000
0000
0010
0000
0310
0000
,
0100
0000
0000
0100
0000
0000
0001
0000
1001
0000
0000
0000
1000
0000
0100
0000
,
1000
0000
0000
0100
0000
0000
0010
0000
0002
0000
0000
0000
0100
0000
0103
0000
,
0020
0000
0000
0000
1030
0000
0000
1000
0020
0000
0000
0000
0130
0000
0010
0000
,
0100
0000
0000
0001
0000
0000
1000
0000
0010
0000
0000
0000
1000
0000
0001
0000
,
0010
0110
1001
0110
,
1001
0000
0010
1000
0001
0100
0010
0100
,
0010
1000
0001
0100
0001
1000
0010
1000
,
1100
0000
0100
0001
1000
0010
0100
0010
,
0100
0001
1000
0010
1000
0001
0100
0001
,
0011
0000
0100
0001
1000
0010
0100
0010
,
0100
0001
1000
0010
1000
0001
0100
0001
,
0011
0000
0010
1000
0001
0100
0010
0100
,
0010
1000
0001
0100
0001
1000
0010
1000
,
2200
0000
0000
0000
,
0000
0000
0000
0000
,
0000
0000
0000
0000
,
0000
0000
0000
0000
0000
0000
0000
3300
,
1100
0000
0000
0000
1000
0010
0000
1000
0000
0100
0010
0000
0012
0000
0000
0000
,
0203
0000
0000
0000
0000
0310
1000
0010
,
2000
0000
0000
0000
3002
0000
0000
0000
0103
0010
0000
0010
0000
1000
0001
0000
,
0010
0000
0100
0100
0100
0100
2000
0000
,
0000
0000
0000
0000
3100
0000
0000
0000
0000
0000
0000
0000
1000
0100
0000
1000
,
0000
0001
0100
0000
0020
0000
0000
0000
2000
0000
0000
0000
0000
0000
0030
0000
,
0000
0000
0010
0000
0010
0000
3010
0000
1020
0000
0000
0130
0000
0000
0002
0000
,
0000
0013
0000
0000
0200
0000
0000
1300
0000
0000
0001
0000
0100
0000
0001
0000
,
1000
0000
0001
0000
0010
0002
0000
0000
0013
0000
0000
0000
0001
0000
0000
0010
,
0000
0001
0100
0000
0020
0000
0000
0000
0200
0000
0000
0000
0000
0000
0000
0000
,
0030
0310
0010
0010
2000
3002
0023
0030
,
2000
3002
0023
0030
0011
0000
1010
0000
,
0001
0000
0010
0100
0020
0000
0000
0000
0000
0000
0000
0000
0031
0000
0000
0000
,
0000
0000
0000
0000
1000
0001
0000
0100
0000
0010
0000
0010
0100
0000
0000
0000
,
0002
0000
0000
0000
0003
0001
1000
0001
,
2000
0000
0000
3100
0000
0000
2000
0000
0000
3010
0000
0000
0200
0000
0000
0301
,
0000
0000
1000
0000
0100
0000
1000
0000
0001
0000
1000
0000
0010
2000
0000
0000
,
3100
0010
0001
0100
0010
1000
0001
0010
,
0001
0100
0010
1000
0010
0100
0001
0100
,
0010
1000
0100
0010
0001
0100
0001
0010
,
0100
0010
0001
0100
0010
0100
0001
0010
,
0100
0010
0001
0100
0001
1000
0010
1000
,
0100
0010
0100
0010
0001
0100
0001
0010
,
0100
1000
0010
1000
0001
0100
0010
1000
,
0100
1000
0010
0100
0010
1000
0100
0010
,
0010
0000
0000
0001
0000
0000
0010
0000
0100
0000
0000
1000
0000
0000
0010
0000
,
0100
0000
0000
0001
0000
0000
1000
0000
0010
0000
0000
0000
1010
0000
0000
0000
,
0100
0000
0000
1000
0000
0000
0100
0000
0010
0000
0000
0001
0000
0000
0100
0000
,
0010
0000
0000
1000
0000
0000
0001
0000
0100
0000
0000
0000
0101
0000
0000
0000
,
1000
0000
0000
0010
0000
0000
0100
0000
0001
0000
0000
0010
0000
0000
0100
0000
,
1000
0000
0000
0100
0000
0000
0010
0000
0001
0000
0000
0000
0011
0000
0000
0000
,
0001
0000
0000
0100
0000
0000
0010
0000
1000
0000
0000
0100
0000
0000
0010
0000
,
0001
0000
0000
0010
0000
0000
0100
0000
1000
0000
0000
0000
1100
0000
0000
0000
,
1010
0000
0000
0010
0000
0000
0100
0000
0001
0000
0000
0001
0000
0000
0010
0000
,
0100
0000
0000
0100
0000
0000
1000
0000
0001
0000
0000
0000
1001
0000
0000
0000
,
1001
0000
0000
0001
0000
0000
0100
0000
0010
0000
0000
0010
0000
0000
0100
0000
,
0001
0000
0000
1000
0000
0000
0100
0000
0010
0000
0000
0000
0110
0000
0000
0000
,
0011
0000
0000
0011
0000
0000
0011
0000
0101
0000
0000
0101
0000
0000
0101
0000
,
0110
0000
0000
0110
0000
0000
0110
0000
1010
0000
0000
0000
1010
0000
0000
0000
,
1100
0000
0000
1100
0000
0000
1100
0000
1001
0000
0000
1001
0000
0000
1001
0000
,
0101
0000
0000
0101
0000
0000
0101
0000
1010
0000
0000
0000
1010
0000
0000
0000
,
2001
0000
0001
0000
,
0000
0000
0010
0000
0001
0000
0000
3000
,
1002
0000
1000
0000
,
0000
0010
0010
0000
1000
0000
0000
0003
,
2001
0000
0001
0000
,
0000
0000
0100
0000
0001
0000
0000
3000
,
1002
0000
1000
0000
,
0000
0100
0100
0000
1000
0000
0000
0003
,
2001
0000
0010
0000
,
3020
0230
0302
0000
,
1003
0010
0100
0001
0010
0100
1000
0010
,
0100
0000
0200
0000
0320
0000
0000
0030
,
1002
0000
0100
0000
,
0203
0320
0230
0000
,
0301
2000
0000
0000
0100
0000
3200
0000
,
2300
0000
0000
3020
0000
0000
0130
0000
,
0110
0000
1000
0001
0010
0000
1000
0100
,
0010
0000
1000
0010
0100
0000
0100
0000
,
0110
0000
0001
1000
0010
0000
0001
0100
,
0010
0000
0000
0000
0001
0000
0010
0000
0100
0000
0000
0010
0000
0000
0011
0000
,
1001
0000
0010
0100
0001
0000
0010
1000
,
0100
0000
0010
0100
1000
0000
0010
0000
,
1001
0000
0100
0010
0001
0000
0100
0010
,
0000
0000
0010
0000
0000
0000
1000
0000
0001
0000
0000
0100
0000
0000
0010
0000
,
1001
0000
0100
0001
0010
0001
1000
0100
,
0010
0100
1000
0001
0100
0001
0010
0100
,
1000
0001
0100
0010
1000
0010
1000
0100
,
0010
0000
0001
0000
0100
0000
0010
0000
0100
0000
0000
0110
0000
0000
1001
0000
,
0010
0100
0010
0001
0100
0001
1000
0010
,
0100
0010
0100
0001
0010
0001
1000
0100
,
1000
0010
0100
0010
1000
0100
0010
0011
,
0000
0011
0011
0000
0101
0000
0110
0000
,
2002
0000
0000
0000
,
0000
0000
0000
0000
,
0000
0000
0000
0000
,
0000
0000
0000
0000
,
0000
0000
0000
0000
,
0000
0000
0000
0000
,
0000
0000
0000
0000
,
0000
0000
0000
0000
0000
0000
0000
0000
0000
0000
0000
0000
0000
0000
0000
3003
;
