#TITLE:Moves Like Jagger;
#SUBTITLE:;
#ARTIST:Maroon 5;
#TITLETRANSLIT:;
#SUBTITLETRANSLIT:;
#ARTISTTRANSLIT:;
#GENRE:Pop-Rock;
#CREDIT:Blood4Fame;
#MUSIC:Moves Like Jagger.mp3;
#BANNER:Banner.png;
#BACKGROUND:BG.png;
#CDTITLE:;
#SAMPLESTART:43.047;
#SAMPLELENGTH:17.058;
#SELECTABLE:YES;
#OFFSET:-0.163;
#BPMS:0.000=127.875;
#STOPS:;
#BGCHANGES:;
#FGCHANGES:;

//--------------- dance-single - Blood4Fame ----------------
#NOTES:
     dance-single:
     Blood4Fame:
     Beginner:
     2:
     0,0,0,0,0:
0000
0000
0000
0000
,
0000
0000
0000
0000
,
0000
0000
0000
0000
,
0000
0000
0000
0000
,
0100
0000
0000
0000
,
0100
0000
0000
0000
,
0100
0000
0000
0000
,
0100
0000
0000
0000
,
0100
0000
0000
0000
,
0110
0000
0000
0000
,
0100
0000
0000
0000
,
0100
0000
0000
0000
,
0100
0000
0000
0000
,
0100
0000
0000
0000
,
0100
0000
0000
0000
,
0100
0000
0000
0000
,
2000
0000
3000
0000
,
2000
0000
3000
0000
,
2000
0000
3000
0000
,
2000
0000
3000
0000
,
0002
0000
0003
1000
,
0002
0000
0003
1000
,
0002
0000
0003
1000
,
0000
1000
0000
1000
0000
0000
0000
0001
,
0000
0000
0000
0100
0000
0000
0000
0001
,
0000
0000
0000
0100
0000
0000
0000
0001
,
0000
0000
0000
0010
0000
0000
0000
1000
,
0000
0000
0000
0100
0000
0000
0000
0000
,
2000
0000
0000
3001
0000
0001
0000
0000
,
0002
0000
0000
1003
0000
1000
0000
0000
,
1000
0000
0100
0100
,
0200
0000
0300
0010
0000
0000
0010
0000
,
0010
0000
0000
0010
0000
0000
0000
1000
,
0000
0000
0000
0010
0000
0000
0000
1000
,
0000
0000
0000
0100
0000
0000
0000
0001
,
0000
0000
0000
0010
0000
0000
0000
0000
,
0002
0000
0000
1003
0000
1000
0000
0000
,
2000
0000
0000
3001
0000
0001
0000
0000
,
0001
0000
0010
0010
,
0020
0000
0030
0200
0000
0000
0300
0000
,
0002
0000
0003
0000
,
0002
0000
0003
0000
,
0002
0000
0003
0000
,
0002
0000
0003
0000
,
2000
0000
3000
0001
,
2000
0000
3000
0001
,
2000
0000
3000
0000
,
0000
0001
0000
0001
0000
0000
0000
1000
,
0000
0000
0000
0100
0000
0000
0000
1000
,
0000
0000
0000
0100
0000
0000
0000
1000
,
0000
0000
0000
0010
0000
0000
0000
0001
,
0000
0000
0000
0100
0000
0000
0000
0000
,
0002
0000
0000
1003
0000
1000
0000
0000
,
2000
0000
0000
3001
0000
0001
0000
0000
,
0001
0000
0100
0100
,
0100
0000
0000
0010
0000
0000
0110
0000
,
0010
0000
0000
0010
0000
0000
0010
0000
,
0010
0000
0000
0010
0000
0000
1000
0000
,
1000
0000
0000
0100
0000
0000
0001
0000
,
0010
0000
0000
0010
0000
0000
0000
0000
,
2000
0000
0000
3001
0000
0001
0000
0000
,
0002
0000
0000
1003
0000
1000
0000
0000
,
1000
0000
0010
0010
,
0020
0000
0030
0010
0000
0000
0010
0000
,
0010
0000
0000
0010
0000
0000
0010
0000
,
0010
0000
0000
0010
0000
0000
0001
0000
,
0001
0000
0000
0100
0000
0000
0000
0000
,
0010
0000
0000
0010
0000
0100
0000
0000
,
0002
0000
0000
1003
0000
1000
0000
0000
,
2000
0000
0000
3001
0000
0001
0000
0000
,
0001
0000
0010
0010
,
0020
0000
0030
0100
0000
0000
0100
0000
,
1100
0000
0000
0000
,
1001
0000
0000
0000
;

//--------------- dance-single - Blood4Fame ----------------
#NOTES:
     dance-single:
     Blood4Fame:
     Easy:
     3:
     0,0,0,0,0:
0000
0000
0000
0000
,
0000
0000
0000
0000
,
0000
0000
0000
0000
,
0000
0000
0000
0000
,
0100
0000
0000
0000
,
0100
0000
0000
0000
,
0100
0000
0000
0000
,
0100
0000
0000
0000
,
0100
0000
0000
0000
,
0110
0000
0000
0000
,
0100
0000
0000
0000
,
0100
0000
0000
0000
,
0100
0000
0000
0000
,
0100
0000
0000
0000
,
0100
0000
0000
0000
,
0100
0000
0000
0000
,
2000
0000
0000
0100
3000
0100
0000
0000
,
2000
0000
0000
0100
3000
0100
0000
0000
,
2000
0000
0000
0100
3000
0100
0000
0000
,
2000
0000
0000
0100
3000
0100
0000
0000
,
0002
0000
0000
1000
0003
0000
1000
0000
,
0002
0000
0000
1000
0003
0000
1000
0000
,
0002
0000
0000
1000
0003
0000
1000
0000
,
0000
1000
0000
1000
0000
0100
0000
0001
,
0000
0000
0000
0100
0000
0000
0000
0001
,
0000
0000
0000
0100
0000
0000
0000
0001
,
0000
0000
0000
0010
0000
0000
0000
1000
,
0000
0000
0000
0100
0000
0010
0000
0000
,
2000
0000
0000
3001
0000
0001
0000
0000
,
0002
0000
0000
1003
0000
1000
0000
0000
,
1000
0100
0100
0100
,
0200
0000
0300
0010
0000
0000
0010
0000
,
0010
0000
0000
0010
0000
0000
0000
1000
,
0000
0000
0000
0010
0000
0000
0000
1000
,
0000
0000
0000
0100
0000
0000
0000
0001
,
0000
0000
0000
0010
0000
0100
0000
0000
,
0002
0000
0000
1003
0000
1000
0000
0000
,
2000
0000
0000
3001
0000
0001
0000
0000
,
0001
0010
0010
0010
,
0020
0000
0030
0200
0000
0000
0300
0000
,
0002
0000
0000
0100
0003
0100
0000
0000
,
0002
0000
0000
0100
0003
0100
0000
0000
,
0002
0000
0000
0100
0003
0100
0000
0000
,
0002
0000
0000
0100
0003
0100
0000
0000
,
2000
0000
0000
0001
3000
0000
0001
0000
,
2000
0000
0000
0001
3000
0000
0001
0000
,
2000
0000
0000
0001
3000
0000
0001
0000
,
0000
0001
0000
0001
0000
0100
0000
1000
,
0000
0000
0000
0100
0000
0000
0000
1000
,
0000
0000
0000
0100
0000
0000
0000
1000
,
0000
0000
0000
0010
0000
0000
0000
0001
,
0000
0000
0000
0100
0000
0010
0000
0000
,
0002
0000
0000
1003
0000
1000
0000
0000
,
2000
0000
0000
3001
0000
0001
0000
0000
,
0001
0100
0100
0100
,
0100
0000
0000
0010
0000
0000
0110
0000
,
0010
0000
0000
0010
0000
0000
0010
0000
,
0010
0000
0000
0010
0000
0000
1000
0000
,
1000
0000
0000
0100
0000
0000
0001
0000
,
0010
0000
0000
0010
0000
0100
0000
0000
,
2000
0000
0000
3001
0000
0001
0000
0000
,
0002
0000
0000
1003
0000
1000
0000
0000
,
1000
0010
0010
0010
,
0020
0000
0030
0010
0000
0000
0010
0000
,
0010
0000
0000
0010
0000
0000
0010
0000
,
0010
0000
0000
0010
0000
0000
0001
0000
,
0001
0000
0000
0100
0000
0000
1000
0000
,
0010
0000
0000
0010
0000
0100
0000
0000
,
0002
0000
0000
1003
0000
1000
0000
0000
,
2000
0000
0000
3001
0000
0001
0000
0000
,
0001
0010
0010
0010
,
0020
0000
0030
0100
0000
0000
0100
0000
,
1100
0000
0000
0000
,
1001
0000
0000
0000
;

//--------------- dance-single - Blood4Fame ----------------
#NOTES:
     dance-single:
     Blood4Fame:
     Medium:
     6:
     0,0,0,0,0:
0000
0000
0000
0000
,
0000
0000
0000
0000
,
0000
0000
0000
0000
,
0000
0000
0000
0000
,
0100
0000
0100
0000
,
0100
0000
0100
0000
,
0100
0000
0100
0000
,
0100
0000
0000
0000
0100
0000
0000
1000
,
0100
0000
0000
0000
0100
0010
0000
0000
,
0110
0000
0000
0010
0100
0000
0000
0010
,
0100
0000
0000
0010
0100
0000
0000
0010
,
0100
0000
0000
0010
0100
0000
0000
0010
,
0100
0000
0000
0010
0100
0000
0000
0010
,
0100
0000
0000
0010
0100
0000
0000
0010
,
0100
0000
0000
0010
0100
0000
0000
0010
,
0100
0000
0000
0010
0100
0000
0000
0010
,
2000
0000
0000
0100
3000
0100
0000
0100
,
2000
0000
0000
0100
3000
0100
0000
0100
,
2000
0000
0000
0100
3000
0100
0000
0100
,
2000
0000
0000
0100
3000
0100
0000
0100
,
0002
0000
0000
1000
0003
0000
1000
0000
,
0002
0000
0000
1000
0003
0000
1000
0000
,
0002
0000
0000
1000
0003
0000
1000
0000
,
0000
1000
0000
1000
0010
0100
0001
0001
,
0100
0000
0000
0100
0000
0000
0100
0001
,
0100
0000
0000
0100
0000
0000
1000
0001
,
1000
0000
0000
0010
0000
0000
0001
1000
,
0100
0000
0000
0100
0000
0010
0100
0010
,
2100
0000
0001
3001
0000
0001
0100
1000
,
0102
0000
1000
1003
0000
1000
0010
0000
,
1000
0010
0100
0001
0100
0001
0100
1000
,
0200
0000
0300
0010
0000
0000
0010
0000
,
0010
0000
0000
0010
0000
0000
0010
1000
,
0010
0000
0000
0010
0000
0000
0001
1000
,
0001
0000
0000
0100
0000
0000
1000
0001
,
0010
0000
0000
0010
0000
0100
0010
0100
,
0012
0000
1000
1003
0000
1000
0010
0001
,
2010
0000
0001
3001
0000
0001
0100
0000
,
0001
0100
0010
1000
0010
1000
0010
0001
,
0020
0000
0030
0200
0000
0000
0300
0000
,
0002
0000
0000
0100
0003
0100
0000
0100
,
0002
0000
0000
0100
0003
0100
0000
0100
,
0002
0000
0000
0100
0003
0100
0000
0100
,
0002
0000
0000
0100
0003
0100
0000
0100
,
2000
0000
0000
0001
3000
0000
0001
0000
,
2000
0000
0000
0001
3000
0000
0001
0000
,
2000
0000
0000
0001
3000
0000
0001
0000
,
0000
0001
0000
0001
0010
0100
1000
1000
,
0100
0000
0000
0100
0000
0000
0100
1000
,
0100
0000
0000
0100
0000
0000
0001
1000
,
0001
0000
0000
0010
0000
0000
1000
0001
,
0100
0000
0000
0100
0001
0010
0100
0010
,
0102
0000
0000
1003
0100
1000
0100
0001
,
2100
0000
0000
3001
0100
0001
0010
0000
,
0001
0010
0100
1000
0100
1000
0100
0001
,
0100
0100
0000
0010
0001
0000
0110
0000
,
0010
0000
0000
0010
0000
0000
0010
0001
,
0010
0000
0000
0010
0000
0000
1000
0001
,
1000
0000
0000
0100
0000
0000
0001
1000
,
0010
0000
0000
0010
0000
0100
0010
0100
,
2010
0000
0001
3001
0000
0001
0010
1000
,
0012
0000
1000
1003
0000
1000
0100
0000
,
1000
0100
0010
0001
0010
0001
0010
1000
,
0020
0000
0030
0010
0000
0000
0010
0000
,
0010
0000
0000
0010
0000
0000
0010
1000
,
0010
0000
0000
0010
0000
0000
0001
1000
,
0001
0000
0000
0100
0000
0000
1000
0001
,
0010
0000
0000
0010
0000
0100
0010
0100
,
0012
0000
1000
1003
0000
1000
0010
0001
,
2010
0000
0001
3001
0000
0001
0100
0000
,
0001
0100
0010
1000
0010
1000
0010
0001
,
0020
0000
0030
0100
0000
0000
0100
0000
,
1100
0000
0000
0000
,
1001
0000
0000
0000
;

//--------------- dance-single - Blood4Fame ----------------
#NOTES:
     dance-single:
     Blood4Fame:
     Hard:
     7:
     0,0,0,0,0:
0000
0000
0000
0000
,
0000
0000
0000
0000
,
0000
0000
0000
0000
,
0000
0000
0000
0000
,
0100
0100
0100
0100
,
0100
0100
0100
0100
,
0100
0100
0100
0100
,
0100
0000
0000
0000
0100
0000
0000
0000
0100
0000
0000
0000
0100
0000
1000
0010
,
0100
0010
0100
0000
0100
0010
0100
0000
,
0110
0000
0000
0010
0100
0000
0010
0000
0100
0000
0000
0000
0100
0000
0010
0000
,
0100
0000
0000
0010
0100
0000
0010
0000
0100
0000
0000
0000
0100
0000
0010
0000
,
0100
0000
0000
0010
0100
0000
0010
0000
0100
0000
0000
0000
0100
0000
0010
0000
,
0100
0000
0000
0010
0100
0000
0010
0000
0100
0000
0000
0000
0100
0000
0010
0000
,
0100
0000
0000
0010
0100
0000
0010
0000
0100
0000
0000
0000
0100
0000
0010
0000
,
0100
0010
0000
0000
0100
0000
0010
0000
0100
0000
0000
0000
0100
0000
0010
0000
,
0100
0000
0000
0010
0100
0000
0010
0000
0100
0000
0000
0000
0100
0000
0010
0000
,
2000
0000
0000
0100
0000
0000
0100
0000
3000
0000
0100
0000
0000
0000
0100
0000
,
2000
0000
0000
0100
0000
0000
0100
0000
3000
0000
0100
0000
0000
0000
0100
0000
,
2000
0000
0000
0100
0000
0000
0100
0000
3000
0000
0100
0000
0000
0000
0100
0000
,
2000
0000
0000
0100
0000
0000
0100
0000
3000
0000
0100
0000
0000
0000
0100
0000
,
0002
0000
0000
1000
0000
0000
1000
0000
0003
1000
0000
0000
1000
0000
0000
0000
,
0002
0000
0000
1000
0000
0000
1000
0000
0003
1000
0000
0000
1000
0000
0000
0000
,
0002
0000
0000
1000
0000
0000
1000
0000
0003
1000
0000
0000
1000
0000
0000
0000
,
0000
0000
1000
0000
0000
0000
1000
0001
0010
0000
0100
0010
0001
0000
0001
0010
,
0100
0000
0000
1000
0000
0000
0100
0000
0000
0010
0000
0000
0100
0000
0001
0000
,
0100
0000
0000
0001
0000
0000
0100
0000
0000
0010
0000
0000
1000
0000
0001
0000
,
1000
0000
0000
0010
0000
0000
0010
0000
0000
0100
0000
0000
0001
0000
1000
0000
,
0100
0000
0000
0001
0000
0000
0100
0000
0000
0000
0010
0000
0100
0000
0010
0000
,
2100
0000
0001
3001
0000
0001
0100
1000
,
0102
0000
1000
1003
0000
1000
0010
0000
,
1000
0010
0100
0001
0100
0001
0100
1000
,
0200
0000
0000
0000
0300
0000
0010
0000
0000
0010
0000
0000
0010
0000
0000
0000
,
0010
0000
0000
1000
0000
0000
0010
0000
0000
0100
0000
0000
0010
0000
1000
0000
,
0010
0000
0000
1000
0000
0000
0010
0000
0000
0100
0000
0000
0001
0000
1000
0000
,
0001
0000
0000
0100
0000
0000
0100
0000
0000
0010
0000
0000
1000
0000
0001
0000
,
0010
0000
0000
0001
0000
0000
0010
0000
0000
0000
0100
0000
0010
0000
0100
0000
,
0012
0000
1000
1003
0000
1000
0010
1000
,
2010
0000
0001
3001
0000
0001
0100
0000
,
0001
0100
0010
1000
0010
1000
0010
0001
,
0020
0000
0030
0200
0000
0000
0300
0000
,
0002
0000
0000
0100
0000
0000
0100
0000
0003
0000
0100
0000
0000
0000
0100
0000
,
0002
0000
0000
0100
0000
0000
0100
0000
0003
0000
0100
0000
0000
0000
0100
0000
,
0002
0000
0000
0100
0000
0000
0100
0000
0003
0000
0100
0000
0000
0000
0100
0000
,
0002
0000
0000
0100
0000
0000
0100
0000
0003
0000
0100
0000
0000
0000
0100
0000
,
2000
0000
0000
0001
0000
0000
0001
0000
3000
0001
0000
0000
0001
0000
0000
0000
,
2000
0000
0000
0001
0000
0000
0001
0000
3000
0001
0000
0000
0001
0000
0000
0000
,
2000
0000
0000
0001
0000
0000
0001
0000
3000
0001
0000
0000
0001
0000
0000
0000
,
0000
0000
0001
0000
0000
0000
0001
1000
0010
0000
0100
0010
1000
0000
1000
0010
,
0100
0000
0000
1000
0000
0000
0100
0000
0000
0010
0000
0000
0100
0000
1000
0000
,
0100
0000
0000
1000
0000
0000
0100
0000
0000
0010
0000
0000
0001
0000
1000
0000
,
0001
0000
0000
0010
0000
0000
0010
0000
0000
0100
0000
0000
1000
0000
0001
0000
,
0100
0000
0000
1000
0000
0000
0100
0000
0001
0000
0010
0000
0100
0000
0010
0000
,
0102
0000
0000
1003
0100
1000
0100
0001
,
2100
0000
0000
3001
0100
0001
0010
0000
,
0001
0010
0100
1000
0100
1000
0100
0001
,
0100
1000
0100
1000
0000
0000
0010
0000
0001
0010
0000
0000
0110
0000
0000
0100
,
0010
0000
0000
0001
0000
0000
0010
0000
0000
0100
0000
0000
0010
0000
0001
0000
,
0010
0000
0000
0001
0000
0000
0010
0000
0000
0100
0000
0000
1000
0000
0001
0000
,
1000
0000
0000
0100
0000
0000
0100
0000
0000
0010
0000
0000
0001
0000
1000
0000
,
0010
0000
0000
0001
0000
0000
0010
0000
0000
0000
0100
0000
0010
0000
0100
0000
,
2010
0000
0001
3001
0000
0001
0010
1000
,
0012
0000
1000
1003
0000
1000
0100
0000
,
1000
0100
0010
0001
0010
0001
0010
1000
,
0020
0000
0000
0000
0030
0000
0010
0000
0000
0010
0000
0000
0010
0000
0000
0000
,
0010
0000
0000
1000
0000
0000
0010
0000
0000
0100
0000
0000
0010
0000
1000
0000
,
0010
0000
0000
1000
0000
0000
0010
0000
0000
0100
0000
0000
0001
0000
1000
0000
,
0001
0000
0000
0100
0000
0000
0100
0000
0000
0010
0000
0000
1000
0000
0001
0000
,
0010
0000
0000
1000
0000
0000
0010
0000
0000
0000
0100
0000
0010
0000
0100
0000
,
0012
0000
1000
1003
0000
1000
0010
0001
,
2010
0000
0001
3001
0000
0001
0100
0000
,
0001
0100
0010
1000
0010
1000
0010
0001
,
0020
0000
0000
0000
0030
0000
0100
0000
0000
0100
0000
0000
0100
0000
0000
0000
,
1100
0000
0000
0000
,
1001
0000
0000
0000
;
