#TITLE:Major Tom;
#SUBTITLE:(Coming Home);
#ARTIST:Peter Schilling;
#TITLETRANSLIT:;
#SUBTITLETRANSLIT:;
#ARTISTTRANSLIT:;
#GENRE:Pop-Rock;
#CREDIT:Blood4Fame;
#MUSIC:Major Tom (Coming Home).mp3;
#BANNER:Banner.png;
#BACKGROUND:BG.png;
#CDTITLE:;
#SAMPLESTART:35.543;
#SAMPLELENGTH:23.792;
#SELECTABLE:YES;
#OFFSET:-0.046;
#BPMS:0.000=162.000
,88.000=166.000
,92.000=160.000
,94.000=174.000
,95.000=165.000
,96.000=162.000
,103.000=154.000
,104.000=163.000
,120.000=154.000
,122.000=162.000
,124.000=168.000
,125.000=155.000
,126.000=172.000
,127.000=160.000
,131.000=166.000
,132.000=162.000
,160.000=166.000
,163.000=158.000
,166.000=174.000
,167.000=158.000
,168.000=162.000
,177.000=167.000
,180.000=154.000
,182.000=172.000
,183.000=162.000
;
#STOPS:;
#DISPLAYBPM:162.000;
#BGCHANGES:;
#FGCHANGES:;

//--------------- dance-single - Blood4Fame ----------------
#NOTES:
     dance-single:
     Blood4Fame:
     Beginner:
     2:
     0,0,0,0,0:
1000
0000
0000
0000
,
1000
0000
0000
0000
,
1000
0000
0000
0000
,
0100
0000
0000
0000
,
1000
0000
0100
0000
,
1000
0000
0100
0000
,
1000
0000
0100
0000
,
1000
0000
0100
0000
,
0001
0000
0010
0000
,
0010
0000
0001
0000
,
0000
1000
0000
0010
,
0000
1000
0000
0010
,
0000
1000
0000
0100
,
0000
1000
0000
0010
,
0000
1000
0000
0001
,
0000
0010
0000
0001
,
0000
0100
0000
0010
,
0000
1000
0000
0100
,
0000
0001
0000
0010
,
0000
0100
0000
1000
,
0000
0001
0000
1000
,
0000
0001
0000
0010
,
0000
0100
0000
0001
,
0000
0100
0000
0001
,
0002
0003
0020
0030
,
0200
0300
2000
3000
,
1001
0000
0010
0000
,
0100
0000
0001
0000
,
0101
0000
1000
0000
,
0010
0000
0100
0000
,
1100
0000
0010
0000
,
0100
0000
0010
0000
,
1010
0000
0001
0000
,
0100
0000
0010
0000
,
0022
0000
0000
0000
,
0033
0000
0000
0000
,
1000
0000
0001
0000
,
1000
0000
0010
0000
,
0100
0000
0001
0000
,
0100
0000
0001
0000
,
0000
1000
0000
0010
,
0000
1000
0000
0100
,
0000
0001
0000
0010
,
0000
0100
0000
0001
,
0000
1000
0000
0010
,
0000
0001
0000
0100
,
0000
1000
0000
0001
,
0000
0010
0000
1000
,
0000
0100
0000
0001
,
0000
0010
0000
0100
,
0000
0001
0000
1000
,
0000
0001
0000
0100
,
0000
0001
0000
0010
,
0000
0001
0000
0100
,
0000
1000
0000
0100
,
0000
0010
0000
0001
,
0000
0010
0000
0100
,
0000
1000
0000
0100
,
0000
0010
0000
0100
,
0000
1000
0000
0001
,
0000
1000
0000
0001
,
0000
0010
0000
0100
,
0000
0001
0000
1000
,
0000
0010
0000
0001
,
0000
0100
0000
0010
,
0000
0001
0000
1000
,
2000
3000
0200
0300
,
0020
0030
0002
0003
,
1001
0000
0100
0000
,
0001
0000
0100
0000
,
1100
0000
0010
0000
,
0100
0000
0001
0000
,
0011
0000
0100
0000
,
0010
0000
1000
0000
,
1010
0000
0100
0000
,
0001
0000
0010
0000
,
2002
0000
0000
3003
,
0220
0000
0000
0330
,
2200
0000
0000
0000
,
0000
3300
0000
0000
,
2002
0000
0000
3003
,
2020
0000
0000
3030
,
0202
0000
0000
0000
,
0000
0000
0000
0000
0000
0303
0000
0000
,
2002
0000
0000
3003
,
0220
0000
0000
0330
,
0022
0000
0000
0033
;

//--------------- dance-single - Blood4Fame ----------------
#NOTES:
     dance-single:
     Blood4Fame:
     Easy:
     4:
     0,0,0,0,0:
1000
0000
1000
0000
,
1000
0000
1000
0000
,
1000
1000
0100
0100
,
1000
0100
0100
0100
,
0100
0000
1000
1010
,
0100
0000
0001
0011
,
1000
0000
0100
1001
,
0100
0000
0001
1100
,
0010
0010
0010
0010
,
0010
0010
0010
0010
,
0000
0100
0000
0101
,
0000
0100
0000
1010
,
0000
0100
0000
1100
,
0000
0100
0000
0011
,
0000
0100
0000
1001
,
0000
0100
0000
1001
,
0000
0100
0000
1010
,
0000
0100
0000
0101
,
0000
0100
0000
1010
,
0000
0100
0000
1100
,
0000
0100
0000
0110
,
0000
0100
0000
1001
,
0000
0100
0100
0010
,
0000
0100
0001
0100
,
2000
0000
3020
0000
,
2030
0000
0000
0000
3200
0000
0000
0300
,
2000
0000
0000
3000
0002
0000
0000
0003
,
0110
0010
1000
0010
,
0020
0000
0000
0030
0002
0000
0000
0003
,
2000
0000
0000
3000
0020
0000
0000
0030
,
0200
0300
0020
0030
,
0020
0030
0002
0003
,
2000
3000
0002
0003
,
2000
0000
0000
3000
0020
0000
0000
0030
,
2002
0000
0000
0000
,
3003
0100
0001
0100
,
0000
0100
1000
0100
,
0000
0010
0001
0010
,
0000
0010
1000
0010
,
0000
0100
0001
0100
,
0000
0001
0010
0101
,
0000
0100
0010
0011
,
0000
0001
0100
1010
,
0000
0100
0001
0110
,
0000
1000
0001
0110
,
0000
0010
0100
1100
,
0000
0001
0010
0101
,
0000
0010
1000
1100
,
0000
0100
0010
0110
,
0000
0010
0100
0001
,
0200
0000
0300
1001
,
0000
0010
0100
0101
,
2000
0000
0000
3000
,
0000
0010
0100
1000
,
1000
0010
0001
0101
,
0000
0010
1000
1001
,
0010
0001
0010
0000
,
0000
0010
0100
1000
,
0100
0100
0020
0030
,
0000
0100
0001
0011
,
1000
0010
0100
0000
,
0000
0010
0010
0100
,
0000
1000
0100
0010
,
0000
0100
0010
0001
,
0020
0000
0000
0000
0230
0000
0000
0000
0000
2300
0000
0000
0000
0000
0000
0000
,
3000
0010
0100
0001
,
2000
0000
3020
0000
,
2030
0000
0000
0000
3200
0000
0000
0300
,
2200
0000
0000
3300
0022
0000
0000
0033
,
0110
0010
1000
0010
,
2020
0000
0000
3030
0202
0000
0000
0303
,
2002
0000
0000
3003
0220
0000
0000
0330
,
2200
3300
0022
0033
,
0220
0330
2002
3003
,
2020
3030
0022
0033
,
2002
0000
0000
3003
0220
0000
0000
0330
,
2002
0000
0000
0000
0000
0000
0000
3003
,
0002
0000
0000
0003
0010
0000
0100
0000
,
0202
0000
0000
0000
,
0000
0303
0000
0000
,
2002
0000
0000
0000
0000
0000
0000
3003
,
2000
0000
0000
3000
1000
0000
0010
0000
,
2020
0000
0000
0000
0000
3030
0100
0000
,
2020
0000
0000
3030
0110
0000
0000
0000
,
2002
0000
0000
0000
0000
0000
0000
3003
,
0022
0000
0000
0033
0001
0000
0100
0000
,
0202
0000
0000
0000
,
0000
0303
0000
0000
;

//--------------- dance-single - Blood4Fame ----------------
#NOTES:
     dance-single:
     Blood4Fame:
     Medium:
     6:
     0,0,0,0,0:
0001
0001
0001
0001
,
0001
0001
0001
0001
,
0001
0100
0001
1000
0010
1000
0010
0100
,
0001
0100
0010
1000
0010
0000
0010
0000
,
0010
0010
0001
0101
,
0010
0100
0000
0100
1000
0000
1100
0000
,
0001
1000
0000
0001
0010
0000
1001
0000
,
0010
0100
0000
0010
1000
0000
0011
0000
,
1000
0100
0100
1000
,
0001
0100
0010
0100
,
0000
0010
0000
1010
,
0000
0010
0000
0101
,
0000
0010
0000
0011
,
0000
0010
0000
1100
,
0000
0000
0010
0000
0000
0000
0000
1100
,
0000
0010
0000
1001
,
0000
0010
0000
0101
,
0000
0010
0000
1010
,
0000
0000
0010
0000
0000
0000
0000
0110
,
0000
0010
0000
0011
,
0000
0010
0000
0110
,
0000
0010
0000
1001
,
0000
0010
0010
0100
,
0000
0001
0010
0000
1000
0000
0010
0000
,
0002
0000
0203
0000
,
0302
0000
0000
0000
0023
0000
0000
0030
,
0022
0000
0000
0033
2200
0000
0000
3300
,
0110
0100
0001
0100
,
0202
0000
0000
0303
2020
0000
0000
3030
,
2002
0000
0000
3003
0220
0000
0000
0330
,
0022
0033
2200
3300
,
0220
0330
2001
3001
,
0202
0303
2200
3300
,
2002
0000
0000
3003
0220
0000
0000
0330
,
2002
0000
0000
0000
,
3003
0001
0010
0000
1000
0000
0010
0000
,
0000
1000
0010
0000
0001
0000
0010
0000
,
0000
0001
0100
0000
1000
0000
0100
0000
,
0000
1000
0100
0000
0001
0000
0100
0000
,
0000
0001
0010
0000
1000
0000
0010
0000
,
0000
1000
0100
1010
,
0000
0001
0010
0000
0100
0000
1100
0000
,
0000
1000
0010
0101
,
0000
0100
0010
0000
1000
0000
0110
0000
,
0000
0000
0001
0000
1000
0000
0000
1100
,
0000
0100
0010
0011
,
0000
1000
0100
1010
,
0000
0010
0100
0000
0001
0000
0011
0000
,
0000
0000
0010
0000
0100
0000
0000
1001
,
0000
0100
0010
1000
,
0020
0000
0030
1001
,
0000
0100
0010
1010
,
0002
0000
0000
0003
,
0000
0010
0100
0000
0010
0000
0001
0000
,
0001
0010
0100
0000
1000
0000
0010
0000
,
0000
0010
0100
0000
0001
0000
1001
0000
,
0100
0010
1000
0010
0100
0000
0000
1001
,
0000
0000
0100
0001
0010
0000
0001
0000
,
0010
0100
0010
0001
0200
0000
0300
0000
,
0000
0100
0010
0001
1000
0000
1100
0000
,
0001
0010
0100
0000
0000
0000
0000
0101
,
0000
0000
0000
0000
0000
0000
0020
0000
0000
0000
0230
0000
0000
0000
0000
0302
,
0000
0000
0000
0020
0000
0000
0000
0000
,
0033
0000
0000
0000
0000
2000
0000
0000
,
3200
0000
0000
0000
0320
0000
0000
0000
0000
0032
0000
0000
0000
0000
0000
0000
,
0003
0010
0100
0000
0010
0000
1000
0000
,
0002
0000
0203
0000
,
0302
0000
0000
0000
0023
0000
0000
0030
,
0022
0000
0000
0033
2200
0000
0000
3300
,
0110
0100
0001
0100
,
0202
0000
0000
0303
2020
0000
0000
3030
,
2002
0000
0000
3003
0220
0000
0000
0330
,
0022
0033
2200
3300
,
0220
0330
2002
3003
,
0202
0303
2200
3300
,
2002
0000
0000
3003
0220
0000
0000
0330
,
2002
0000
0000
0000
0000
0000
0000
3003
,
2200
0000
0000
3300
1100
0000
0110
0000
,
2020
0000
0000
0000
,
0000
3030
0000
0000
,
2002
0000
0000
0000
0000
0000
0000
3003
,
0022
0000
0000
0033
0011
0000
0110
0000
,
0202
0000
0000
0000
0000
0303
0011
0000
,
0202
0000
0000
0303
0110
0000
0000
0000
,
2002
0000
0000
0000
0000
0000
0000
3003
,
2200
0000
0000
3300
1100
0000
0110
0000
,
2020
0000
0000
0000
,
0000
3030
0000
0000
;

//--------------- dance-single - Blood4Fame ----------------
#NOTES:
     dance-single:
     Blood4Fame:
     Hard:
     8:
     0,0,0,0,0:
1000
0100
1000
0100
1000
0100
1000
0100
,
1000
0100
1000
0100
1000
0100
1000
0100
,
1000
0010
1000
0001
0100
0001
0100
0010
,
1000
0010
0100
0001
0100
0001
0100
0001
,
0100
0000
0100
0010
1000
0000
1010
0000
,
0100
0010
0000
0010
0001
0000
0011
0000
,
1000
0001
0000
1000
0100
0000
1001
0000
,
0100
0010
0000
0100
0001
0000
1100
0000
,
0001
0010
0010
0000
0010
0000
0001
0000
,
1000
0010
0010
0000
0100
0000
0010
0000
,
0000
0100
0000
0101
,
0000
0100
0000
1010
,
0000
0100
0000
1100
,
0000
0100
0000
0011
,
0000
0000
0100
0000
0000
0000
0010
0011
,
0000
0100
0000
1001
,
0000
0100
0000
1010
,
0000
0100
0000
0101
,
0000
0000
0100
0000
0000
0000
0001
0110
,
0000
0100
0000
1100
,
0000
0100
0000
0110
,
0000
0100
0000
1001
,
0000
0100
0100
0010
,
0000
1000
0100
0000
0001
0000
0100
0000
,
2000
0000
3020
0000
,
0032
0000
0000
0000
0203
0000
0000
0300
,
2200
0000
0000
3300
0022
0000
0000
0033
,
0110
0000
0010
0100
1000
0000
0010
0000
,
2020
0000
0000
3030
0202
0000
0000
0303
,
2002
0000
0000
3003
0220
0000
0000
0330
,
2100
3100
0012
0013
,
0210
0000
0310
0001
1002
0000
1003
0000
,
1020
1030
0021
0031
,
1001
0110
1001
0110
,
2002
0000
0000
0000
,
3003
1000
0100
1000
0001
1000
0100
0010
,
0000
0001
0100
0001
1000
0001
0100
0010
,
0000
1000
0010
1000
0001
1000
0010
0100
,
0000
0001
0010
0001
1000
0001
0010
0100
,
0000
1000
0100
1000
0001
1000
0100
0010
,
0000
0001
0010
0101
,
0000
1000
0100
0000
0010
0000
0011
0000
,
0000
0001
0100
1010
,
0000
0010
0100
0000
0001
0000
0110
0000
,
0000
0000
1000
0000
0001
0000
0010
0011
,
0000
0010
0100
1100
,
0000
0001
0010
0101
,
0000
0100
0010
0000
1000
0000
1100
0000
,
0000
0000
0100
0000
0010
0000
1000
1001
,
0000
1000
0010
0000
0100
0000
0001
0000
,
0200
0010
0301
1001
,
0000
0010
0100
0101
,
2000
0100
0010
3100
,
0000
0100
0010
0000
0100
0000
1000
0000
,
1000
0100
0010
0000
0001
0000
0100
0000
,
0000
0100
0010
1000
0001
0000
1001
0000
,
0010
0100
0001
0100
0010
0000
1000
1001
,
0000
0000
0010
1000
0100
0000
1000
0000
,
0100
0010
0100
1000
0020
0000
1030
0000
,
0000
0010
0100
1000
0001
0000
0011
0000
,
1000
0000
0100
0000
0010
0000
0000
0001
0000
0100
0000
0000
0010
0000
1010
0000
,
0000
0000
0000
0000
1000
0000
0200
0000
0000
0000
0320
0000
0000
0000
0000
2030
,
0000
0000
0000
0200
0000
0000
0000
0000
,
3300
0000
1000
0000
0000
0002
0000
0000
,
0023
0000
0000
0000
0230
0000
0000
0000
0000
2300
0000
0000
0010
0000
0000
0000
,
3000
0100
0010
0000
0100
0000
0001
0000
,
2000
0000
3020
0000
,
0032
0000
0000
0000
0203
0000
0000
0300
,
2200
0000
0000
3300
0022
0000
0000
0033
,
0110
0000
0010
0100
1000
0000
0010
0000
,
2020
0000
0000
3030
0202
0000
0000
0303
,
2002
0000
0000
3003
0220
0000
0000
0330
,
2100
3100
0012
0013
,
0210
0000
0310
0001
1002
0000
1003
0000
,
1020
1030
0021
0031
,
1001
0110
1001
0110
,
2002
0000
0000
0000
0000
0000
0000
3003
,
0022
0000
0000
0033
0011
0000
0110
0000
,
0202
0000
0000
0000
,
0000
0303
0000
0000
,
2002
0000
0000
0000
0000
0000
0000
3003
,
2200
0000
0000
3300
1100
0000
0110
0000
,
2020
0000
0000
0000
0000
3030
1100
0000
,
2020
0000
0000
3030
0110
0000
0000
0000
,
2002
0000
0000
0000
0000
0000
0000
3003
,
0022
0000
0000
0033
0011
0000
0110
0000
,
0202
0000
0000
0000
,
0000
0303
0000
0000
;
