#TITLE:Love Thing;
#SUBTITLE:;
#ARTIST:Spice Girls;
#TITLETRANSLIT:;
#SUBTITLETRANSLIT:;
#ARTISTTRANSLIT:;
#GENRE:Pop;
#CREDIT:Blood4Fame;
#MUSIC:music.mp3;
#BANNER:banner.png;
#BACKGROUND:bg.png;
#CDTITLE:;
#SAMPLESTART:98.592;
#SAMPLELENGTH:26.372;
#SELECTABLE:YES;
#OFFSET:-0.644;
#BPMS:0.000=110.058;
#STOPS:;
#BGCHANGES:;
#FGCHANGES:;

//--------------- dance-single - Blood4Fame ----------------
#NOTES:
     dance-single:
     Blood4Fame:
     Easy:
     2:
     0,0,0,0,0:
0000
0000
0000
0000
,
0000
0000
0000
0000
,
0000
0000
0000
0000
,
0000
0000
0000
0000
,
0000
0000
0000
0000
,
1000
0000
1000
0000
,
0001
0000
0001
0000
,
0010
0000
0001
0000
,
0010
0000
1000
0000
,
0100
0000
0000
0000
,
0010
0000
0000
0000
,
0001
0000
0000
0000
,
0100
0000
0000
0000
,
1000
0000
0000
0000
,
0100
0000
0000
0000
,
0010
0000
0000
0000
,
0100
0000
1000
0000
,
0010
0010
0000
0010
,
0100
0100
0000
0001
,
0100
0100
0000
1000
,
0010
0010
0000
0001
,
0100
0000
0001
0000
,
1000
0000
0100
0000
,
0010
0001
0010
0000
,
0100
0100
0100
0000
,
2002
0000
3003
0000
,
0220
0000
0330
0000
,
1000
0000
0001
0000
,
1000
0001
1000
0001
,
2002
0000
3003
0000
,
0220
0000
0330
0000
,
1000
0000
0001
0000
,
1000
0001
1000
0001
,
1001
0000
0010
0000
,
0110
0000
1000
0000
,
1010
0000
0001
0000
,
0101
0000
0010
0000
,
0011
0000
0100
0000
,
0101
0000
0010
0000
,
1010
0000
0001
0000
,
1001
1001
1001
0000
,
0010
0010
0000
0010
,
0100
0100
0000
0001
,
0100
0100
0000
1000
,
0010
0010
0000
0001
,
0100
0000
0001
0000
,
1000
0000
0100
0000
,
0010
0001
0010
0000
,
0100
0100
0100
0000
,
2002
0000
3003
0000
,
0220
0000
0330
0000
,
1000
0000
0001
0000
,
1000
0001
1000
0001
,
2002
0000
3003
0000
,
0220
0000
0330
0000
,
1000
0000
0001
0000
,
1000
0001
1000
0001
;

//--------------- dance-single - Blood4Fame ----------------
#NOTES:
     dance-single:
     Blood4Fame:
     Medium:
     4:
     0,0,0,0,0:
0000
0000
0000
0000
,
1000
0000
1000
0000
,
0001
0000
0001
0000
,
1000
0000
0000
0000
1000
0000
1000
0100
,
0010
0001
0001
0001
,
1020
0100
1000
0130
,
2100
0001
0010
3001
,
0012
0100
0010
0103
,
2001
0100
0010
3001
,
0100
0000
0010
0000
,
0001
0000
1000
0000
0010
0100
0010
0000
,
1000
0000
0010
0000
,
0001
0000
0100
0000
1000
0100
1000
0000
,
0001
0000
0010
0000
,
0010
0000
0001
0000
0100
0010
0100
0000
,
0001
0000
1000
0000
,
0010
0000
0100
0000
0001
0100
0010
0000
,
1000
1000
1000
2000
,
0001
0001
0001
3002
,
0010
0100
0010
0013
,
0100
1000
0100
0010
,
0001
0001
0002
0000
1003
1000
2000
0000
,
3010
0010
0020
0000
0130
0100
0200
0000
,
0000
0301
0010
0000
1000
0100
0000
0010
,
0001
0001
0100
0010
1000
0000
1000
0000
,
1001
1000
0001
0001
,
1000
0001
1000
1000
,
0010
0100
0010
1000
,
0100
0010
0001
0010
,
1001
0001
1000
1000
,
0001
1000
0001
0001
,
0010
0100
0010
0001
,
0100
0010
1000
0010
,
0110
0000
1010
0000
,
1100
0000
1010
0000
,
0110
0000
0011
0000
,
0101
0000
0011
0000
,
1001
0000
0110
0000
,
1001
0000
1100
0000
,
1001
0000
0101
0000
,
0011
0011
1100
0000
,
0001
0001
0001
0002
,
1000
1000
1000
2003
,
0010
0100
0010
3010
,
0100
0001
0100
0010
,
1000
1000
2000
0000
3001
0001
0002
0000
,
0013
0010
0020
0000
0130
0100
0200
0000
,
0000
1300
0010
0000
0001
0100
0000
0010
,
1000
1000
0100
0010
0001
0000
0001
0000
,
1001
0001
1000
1000
,
0001
1000
0001
0001
,
0010
0100
0010
0001
,
0100
0010
1000
0010
,
1001
1000
0001
0001
,
1000
0001
1000
1000
,
0010
0100
0010
1000
,
0100
0010
0001
0010
,
0200
0000
0000
0000
,
0300
0000
0000
0000
;

//--------------- dance-single - Blood4Fame ----------------
#NOTES:
     dance-single:
     Blood4Fame:
     Hard:
     7:
     0,0,0,0,0:
0000
0000
0000
0000
,
0000
0000
0000
0000
,
0000
0000
0000
0000
,
0000
0000
0000
0000
0000
0000
0000
0000
0000
0000
0010
0000
0100
1000
0000
0200
,
0000
0310
0001
0100
0101
0000
2001
0000
,
3100
0000
0100
0000
0010
0000
0010
0000
0002
0000
0000
1003
0000
0000
0020
0030
,
0000
0200
0300
0000
0001
0000
0001
0000
2000
3000
0000
1000
0000
0000
0010
0100
,
0002
0000
0000
0000
1000
0000
0000
0000
0103
0000
0001
0000
0100
0010
0000
2000
,
0000
3010
1000
0001
1100
0000
1001
0000
,
0000
0000
1000
0000
0100
0000
0000
1000
0010
0000
0100
0000
0001
0000
1000
0000
,
0000
0000
0001
0000
0100
0000
0000
0001
0010
0000
0100
0000
1000
0000
0001
0000
,
0000
0000
0010
0000
0100
0000
0010
0100
0000
0000
0001
0000
0000
0000
1000
0000
,
0001
0000
0010
0000
0100
0000
1000
0000
0000
0010
0100
0000
0010
0000
1000
0000
,
0100
0000
1000
0000
0010
0000
0000
1000
0100
0000
0010
0000
0001
0000
1000
0000
,
0000
0000
0001
0000
0010
0000
0000
0001
0100
0000
0010
0000
1000
0000
0001
0000
,
0000
0000
0100
0000
0010
0000
0100
0010
0000
0000
0001
0000
1000
0000
0001
0000
,
0100
0000
0000
0010
0000
0000
1000
0000
0200
0000
0000
0000
0020
0000
0000
0000
,
0330
0010
0100
1000
0001
1000
0100
0010
,
0001
0100
0001
0100
0001
0010
0100
1000
,
0010
0100
0010
1000
0100
0010
0100
2000
,
0000
3002
0000
2003
3000
0011
0000
1100
,
0100
1000
0100
0000
0110
0000
0000
0000
0010
1000
0010
0000
1010
0000
0000
0000
,
0001
0010
0001
0000
0011
0000
0000
0000
1000
0001
1000
0000
0002
0000
2000
0000
,
3003
0010
0100
0001
0010
0100
1000
0100
,
0010
0001
0100
0010
0010
0000
0110
0000
,
0100
0000
0100
0000
0010
0000
0010
0000
2000
0000
0000
3001
0000
0000
0020
0030
,
0000
0200
0300
0000
1000
0000
1000
0000
0002
0003
0000
0001
0000
0000
0010
0100
,
2000
0000
0000
0000
0001
0000
0000
0000
3100
0000
1000
0000
0100
0010
0000
0002
,
0000
0013
0001
1000
0101
0000
1001
0000
,
0100
0000
0100
0000
0010
0000
0010
0000
0002
0000
0000
1003
0000
0000
0020
0030
,
0000
0200
0300
0000
0001
0000
0001
0000
2000
3000
0000
1000
0000
0000
0010
0100
,
0002
0000
0000
0000
1000
0000
0000
0000
0103
0000
0001
0000
0100
0010
0000
2000
,
0000
3010
1000
0001
1100
0000
1001
0000
,
0110
0000
1100
0000
0001
0010
0100
0000
,
1010
0000
0101
0000
0010
0100
0010
0000
,
1001
0000
0101
0000
1000
0010
0100
0000
,
0011
0000
0110
0000
1000
1000
0010
0000
,
1010
0000
1100
0000
0001
0100
0010
0000
,
0011
0000
0101
0000
1000
0100
0010
0000
,
0001
0010
0100
1000
0001
0100
0010
0010
,
1000
0000
0100
0000
0010
0000
0001
0000
0001
0100
0000
0100
0010
0000
1000
0000
,
0100
0010
0100
1000
0001
1000
0100
0010
,
0001
0100
0001
0100
0001
0010
0100
1000
,
0010
0100
0010
1000
0100
0010
0100
2000
,
0000
3002
0000
2003
3000
0011
0000
1100
,
0100
1000
0100
0000
0110
0000
0000
0000
0010
1000
0010
0000
1010
0000
0000
0000
,
0001
0010
0001
0000
0011
0000
0000
0000
1000
0001
1000
0000
0002
0000
2000
0000
,
3003
0010
0100
0001
0010
0100
1000
0100
,
0010
0001
0100
0010
0010
0000
0110
0000
,
0100
0000
0100
0000
0010
0000
0010
0000
2000
0000
0000
3001
0000
0000
0020
0030
,
0000
0200
0300
0000
1000
0000
1000
0000
0002
0003
0000
0001
0000
0000
0010
0100
,
2000
0000
0000
0000
0001
0000
0000
0000
3100
0000
1000
0000
0100
0010
0000
0002
,
0000
0013
0001
1000
0101
0000
1001
0000
,
0100
0000
0100
0000
0010
0000
0010
0000
0002
0000
0000
1003
0000
0000
0020
0030
,
0000
0200
0300
0000
0001
0000
0001
0000
2000
3000
0000
1000
0000
0000
0010
0100
,
0002
0000
0000
0000
1000
0000
0000
0000
0103
0000
0001
0000
0100
0010
0000
2000
,
0000
3010
1000
0001
1100
0000
1001
0000
,
2002
0000
0000
0000
,
3003
0000
0000
0000
;
