#TITLE:Love Never Felt So Good;
#SUBTITLE:- Full Song;
#ARTIST:Michael Jackson feat. Justin Timberlake;
#TITLETRANSLIT:;
#SUBTITLETRANSLIT:;
#ARTISTTRANSLIT:;
#GENRE:Pop;
#CREDIT:Blood4Fame;
#MUSIC:Love Never Felt So Good.mp3;
#BANNER:Banner.png;
#BACKGROUND:BG.png;
#CDTITLE:;
#SAMPLESTART:50.181;
#SAMPLELENGTH:26.697;
#SELECTABLE:YES;
#OFFSET:-0.067;
#BPMS:0.000=117.383;
#STOPS:;
#BGCHANGES:;
#FGCHANGES:;

//--------------- dance-single - Blood4Fame ----------------
#NOTES:
     dance-single:
     Blood4Fame:
     Easy:
     4:
     0,0,0,0,0:
0000
0000
0000
0000
,
0100
0000
0001
0000
,
0100
0000
0001
0001
,
0100
0000
0001
0000
,
0100
0000
0001
0001
,
0100
0000
0101
0000
,
0100
0000
0101
0101
,
0100
0000
0001
0100
,
2200
0000
3300
0001
,
0100
0010
0100
1000
,
0100
0010
0100
1000
,
1000
0001
0100
0001
,
1000
0100
0100
0010
,
1000
0100
1000
0001
,
0100
1000
0100
0010
,
0100
0010
0001
0010
,
0100
1000
0100
0010
,
0001
0010
0100
1001
,
0200
0310
0002
0103
,
0020
1030
2000
3100
,
0002
1000
0010
1000
,
2003
0001
0010
0001
,
3100
0100
0100
0001
,
2001
0001
0000
0001
,
0000
0001
0000
3001
,
0020
0000
0000
0030
0002
0000
0000
0003
,
2000
0000
0000
3000
0110
0000
1001
0000
,
0110
0000
0001
0100
,
0010
0001
0100
0100
,
0001
0100
0010
0100
,
0001
0100
0010
0100
,
1000
0001
0100
1000
,
0001
0010
1000
0010
,
0100
1000
0010
0010
,
1000
0010
0200
0320
,
1030
0010
0100
0010
,
0002
0100
0200
0000
,
0303
1000
0000
0010
,
2000
0000
3200
0000
0320
0030
0002
0000
,
0013
1000
0010
0001
,
0010
0100
0010
0001
,
0001
1000
0010
0100
,
0001
1000
0010
1000
,
0001
0010
0001
1000
,
0010
0001
0010
0100
,
0010
0100
1000
0100
,
0020
0000
0030
0101
,
1000
0100
0010
1000
,
0020
0130
2000
3010
,
0200
0301
0002
0013
,
2000
0001
0000
0001
,
3002
1000
0000
1000
,
0013
0010
0100
1000
,
1002
1000
0000
1000
,
0000
1000
0000
1003
,
0002
0000
0000
0003
2000
0000
0000
3000
,
0200
0000
0000
0300
0110
0000
1001
0000
,
0110
0000
1000
0010
,
0100
1000
0010
0010
,
1000
0010
0100
0010
,
1000
0010
0100
0010
,
0001
1000
0010
0001
,
1000
0100
0001
0100
,
0010
0001
0100
0100
,
0001
0100
0010
0100
,
0001
0100
0010
0100
,
2000
0010
0020
0000
,
3030
0001
0000
0100
,
0001
0000
0002
0003
1001
0000
1001
0000
,
0100
0000
0010
0000
,
1000
0001
0100
0010
,
0100
0000
0001
0000
,
1000
0010
0001
0010
,
1000
0000
0010
0000
,
1000
0010
0100
0010
,
0010
0000
0000
0100
,
0001
1000
0000
1000
,
0000
0001
0000
0001
,
0000
0010
0000
0010
,
0000
0100
0100
0100
,
0000
0100
0100
0010
,
0000
0010
0010
0010
,
0000
0200
0300
0000
,
1002
1000
0000
1000
,
0000
1000
0000
1003
,
0020
0000
0000
0030
0200
0000
0000
0300
,
0002
0000
0000
0003
0110
0000
1001
0000
,
0110
0000
1000
0100
,
0010
1000
0100
0100
,
1000
0100
0010
0100
,
1000
0100
0010
0100
,
0001
1000
0100
0001
,
1000
0010
0001
0010
,
0100
0001
0010
0010
,
0001
0010
0200
0320
,
0031
0010
0100
0010
,
2000
0000
0000
0000
0000
0000
0000
3000
,
2000
0000
0000
0000
0000
0000
0000
3000
,
0002
0000
0000
0000
0000
0000
0000
0003
,
0110
0000
0001
0100
,
0010
0001
0100
0100
,
0001
0100
0010
0100
,
0001
0100
0010
0100
,
1000
0001
0100
1000
,
0001
0010
1000
0010
,
0100
1000
0010
0010
,
1000
0010
0200
0320
,
1030
0010
0100
0010
,
0002
0000
0100
0000
0200
0000
0000
0300
,
0000
1000
0000
1000
,
0000
0200
0000
0300
,
0000
1000
0000
1000
,
0000
0200
0000
0300
,
0000
1000
0000
1000
,
0000
0000
0200
0000
0000
0000
0000
0300
,
0000
1000
0000
1000
,
0000
0200
0000
0000
,
0000
0000
0000
0000
,
0000
0000
0000
0000
,
0000
0000
0303
0000
;

//--------------- dance-single - Blood4Fame ----------------
#NOTES:
     dance-single:
     Blood4Fame:
     Medium:
     7:
     0,0,0,0,0:
0000
0000
0000
0000
,
0100
0000
0001
0000
,
0100
0000
0001
0001
,
0100
0000
0001
0000
,
0100
0000
0001
0001
,
0100
0000
0101
0000
,
0100
0000
0101
0101
,
0100
0000
0000
0000
0000
0000
0000
0000
0001
0000
0000
0010
0100
0000
0000
0000
,
2200
0000
0000
0000
0000
0000
0000
0000
3300
0000
0000
1000
0001
0000
0000
0000
,
0100
0011
0100
1100
,
0100
0000
0000
0000
0011
0000
0000
0010
0100
0000
0000
0000
1100
0000
0000
0000
,
1000
0101
0100
0011
,
1000
0000
0000
0000
0101
0000
0000
0010
0100
0000
0000
0000
0011
0000
0000
0000
,
1000
0000
0000
0000
0100
0000
0000
0100
1000
0000
0000
0000
0011
0000
0000
0000
,
0100
1000
0100
0011
,
0100
0000
0000
0000
0010
0000
0000
1000
0001
0000
0000
1000
0010
0000
0000
0000
,
0100
1000
0100
1010
,
0001
0000
0000
0000
0010
0000
0000
0010
0100
0000
0000
0000
1001
0000
0000
0000
,
0200
0310
0002
0103
,
0020
0000
0000
0000
1030
0000
0000
0001
2000
0000
0000
0000
3100
0000
0000
0100
,
0002
1000
0010
1000
,
2003
0001
0010
0001
,
3100
0000
0000
0000
0100
0000
0000
1000
0100
0000
0010
0000
0001
1000
0000
0000
,
2001
0001
0000
0001
,
0000
0001
0000
3001
,
2020
0000
0000
3030
0202
0000
0000
0303
,
2020
0000
0000
3030
0110
0000
1001
0000
,
0110
0000
0000
0000
0100
0000
0000
0000
0001
0000
0000
1000
0100
0000
0000
0000
,
0010
0000
0000
0000
0001
0000
0000
1000
0100
0000
0000
1000
0100
0000
0000
0000
,
0001
0000
0000
0000
0100
0000
0000
0000
0010
0000
0000
1000
0100
0000
0000
0000
,
0001
0000
0000
0000
0100
0000
0000
0100
0010
0000
0000
0010
0100
0000
1000
0000
,
1000
0000
0000
0000
0001
0000
0000
0000
0100
0000
0000
0010
1000
0000
0000
0000
,
0001
0000
0000
0000
0010
0000
0000
0001
1000
0000
0000
0001
0010
0000
0000
0000
,
0100
0000
0000
0000
1000
0000
0000
0000
0010
0000
0000
0001
0010
0000
0000
0000
,
1000
0010
0200
0320
,
1030
0000
0000
0000
0010
0000
0000
1000
0100
0000
0000
0100
0010
0000
0001
0000
,
0002
0100
0200
0000
,
0303
1000
0000
0010
,
2000
0000
0000
0000
3200
0000
0000
0000
0320
0000
0030
1000
0002
0000
0000
0000
,
0013
1100
0010
0011
,
0010
0000
0000
0000
1100
0000
0000
0100
0010
0000
0000
0000
0011
0000
0000
0000
,
0001
1010
0010
1100
,
0001
0000
0000
0000
1010
0000
0000
0100
0010
0000
0000
0000
1100
0000
0000
0000
,
0001
0000
0000
0000
0010
0000
0000
1000
0001
0000
0000
0000
1100
0000
0000
0000
,
0010
0001
0010
1100
,
0010
0000
0000
0000
0100
0000
0000
0010
1000
0000
0100
0001
0100
0000
0000
0000
,
0020
0000
0030
0101
,
1000
0000
0000
0000
0100
0000
0000
0100
0010
0000
0000
0000
1001
0000
0000
0000
,
0020
0130
2000
3010
,
0200
0000
0000
0000
0301
0000
0000
1000
0002
0000
0000
0000
0013
0000
0000
0000
,
2000
0001
0000
0001
,
3002
1000
0000
1000
,
0013
0000
0000
0000
0010
0000
0000
1000
0100
0000
0100
0000
1000
0001
0000
0000
,
1002
1000
0000
1000
,
0000
1000
0000
1003
,
0102
1000
0200
0303
2010
0001
0200
3300
,
0201
0010
0002
0303
0110
0000
1001
0000
,
0110
0000
0000
0000
0010
0000
0000
0000
1000
0000
0000
0001
0010
0000
0000
0000
,
0100
0000
0000
0000
1000
0000
0000
0100
0010
0000
0000
0001
0010
0000
0000
0000
,
1000
0000
0000
0000
0010
0000
0000
0000
0100
0000
0000
0001
0010
0000
0000
0000
,
1000
0000
0000
0000
0010
0000
0000
0000
0100
0000
0000
0100
0010
0000
0001
0000
,
0001
0000
0000
0000
1000
0000
0000
0000
0010
0000
0000
0100
0001
0000
0000
0000
,
1000
0000
0000
0000
0100
0000
0000
0000
0001
0000
0000
1000
0100
0000
0000
0000
,
0010
0000
0000
0000
0001
0000
0000
0000
0100
0000
0000
1000
0100
0000
0000
0000
,
0001
0000
0000
0000
0100
0000
0000
0000
0010
0000
0000
1000
0100
0010
0000
0000
,
0001
0000
0000
0000
0100
0000
0000
0000
0010
0000
0000
0010
0100
0000
1000
0000
,
2000
0010
0020
0000
,
3030
0001
0000
0100
,
0001
0000
0002
0003
1001
0000
1001
0000
,
0100
0000
0000
0000
0100
0000
0000
0000
0010
0000
0000
1000
0010
0000
0000
0000
,
1000
0000
0000
0000
0001
0000
0000
0000
0100
0000
0000
0100
0010
0000
0000
0000
,
0100
0000
0000
0000
1000
0000
0000
0000
0001
0000
0000
0010
0100
0000
0000
0000
,
1000
0000
0000
0000
0010
0000
0000
0000
0001
0000
0000
0100
0010
0000
0000
0000
,
1000
0000
0000
0010
0100
0000
0000
0001
0010
0000
0000
1000
0001
0000
0000
0010
,
1000
0000
0000
0100
0010
0000
0000
0001
0100
0000
0000
1000
0010
0000
0000
0100
,
0010
0000
0000
0100
0001
0000
0000
0000
0000
0000
0000
1000
0100
0000
0010
0000
,
0001
0000
0000
0000
1000
0000
0000
0000
0000
0000
0000
0010
1000
0000
0000
0000
,
0100
0000
0000
0000
0001
0000
0000
1000
0100
0000
0000
0000
0001
0000
0000
0000
,
1000
0000
0000
0000
0010
0000
0000
0000
0000
0000
0000
1000
0010
0000
0000
0000
,
1000
0000
0000
0000
0100
0000
0000
1000
0100
0000
0000
0000
0100
0000
0000
0000
,
0010
0000
0000
0000
0100
0000
0000
1000
0100
0000
0000
0000
0010
0000
0000
0000
,
0001
0000
0000
0000
0010
0000
0000
0000
0010
0000
0000
0100
0010
0000
0000
0000
,
1000
0000
0200
0000
0300
0010
0002
0003
,
1002
1000
0000
1000
,
0000
1000
0000
1003
,
0022
0000
0000
0033
2200
0000
0000
3300
,
0022
0000
0000
0033
0110
0000
1001
0000
,
0110
0000
0000
0000
0100
0000
0000
0001
1000
0000
0000
0001
0100
0000
0000
0000
,
0010
0000
0000
0000
1000
0000
0000
0001
0100
0000
0000
0001
0100
0000
0000
0000
,
1000
0000
0000
0000
0100
0000
0000
0100
0010
0000
0000
0001
0100
0000
0000
0000
,
1000
0000
0000
0000
0100
0000
0000
0100
0010
0000
0000
0010
0100
0000
0001
0000
,
0001
0000
0000
0000
1000
0000
0000
0010
0100
0000
0000
0010
0001
0000
0000
0000
,
1000
0000
0000
0000
0010
0000
0000
1000
0001
0000
0000
1000
0010
0000
0000
0000
,
0100
0000
0000
0000
0001
0000
0000
1000
0010
0000
0000
1000
0010
0000
0000
0000
,
0001
0010
0200
0320
,
0031
0000
0000
0000
0010
0000
0000
0001
0100
0000
0000
0100
0010
0000
1000
0000
,
2000
0000
0100
0000
0200
0000
0000
3300
,
2100
0000
0010
0000
0001
0000
0010
3000
,
0102
0000
1000
0000
0100
0000
0010
0003
,
0110
0000
0000
0010
0100
0000
0000
1000
0001
0000
0000
1000
0100
0000
0000
0000
,
0010
0000
0000
1000
0001
0000
0000
1000
0100
0000
0000
1000
0100
0000
0000
0000
,
0001
0000
0000
0001
0100
0000
0000
1000
0010
0000
0000
1000
0100
0000
0000
0000
,
0001
0000
0000
0010
0100
0000
0000
0100
0010
0000
0000
0010
0100
0000
1000
0000
,
1000
0000
0000
1000
0001
0000
0000
0010
0100
0000
0000
0010
1000
0000
0000
0000
,
0001
0000
0000
1000
0010
0000
0000
0001
1000
0000
0000
0001
0010
0000
0000
0000
,
0100
0000
0000
0001
1000
0000
0000
0100
0010
0000
0000
0001
0010
0000
0000
0000
,
1000
0000
0000
0100
0010
0000
0000
0001
0200
0000
0000
0000
0320
0000
0000
0000
,
1030
0000
0000
1000
0010
0000
0000
1000
0100
0000
0100
0000
0010
0000
0001
0000
,
0002
0000
0100
0000
0200
0000
0000
0300
,
0100
1000
0000
1000
,
0100
0200
0000
0300
,
0100
1000
0000
1000
,
0100
0200
0000
0300
,
0100
1000
0000
1000
,
0100
0000
0200
0000
0000
0000
0000
0300
,
0100
1000
0000
1000
,
0100
0200
0000
0000
,
0000
0000
0000
0000
,
0000
0000
0000
0000
,
0000
0000
0303
0000
;

//--------------- dance-single - Blood4Fame ----------------
#NOTES:
     dance-single:
     Blood4Fame:
     Hard:
     8:
     0,0,0,0,0:
0000
0000
0000
0000
,
0100
0000
0000
0100
0010
0000
0000
0000
0001
0000
0000
0100
0010
0000
0000
0000
,
0100
0000
0000
0010
0100
0000
0000
0000
0001
0000
0010
0000
1001
0000
0000
0000
,
0100
0000
0000
0010
1000
0000
0000
0000
0001
0000
0000
0010
0100
0000
0000
0000
,
0100
0000
0000
0010
0001
0000
0000
0000
0001
0000
0000
0000
0101
0000
0200
0000
,
0300
0000
0000
0000
0100
0000
0000
1000
0001
0000
0000
0000
0100
0000
0000
0000
,
0100
0000
0101
0101
,
0100
0000
0000
1000
0010
0000
0000
0000
0001
0000
0000
0010
0100
0000
0000
0000
,
2010
0000
0000
0000
0001
0000
0000
0000
3200
0000
0000
1300
0001
0000
0000
0000
,
0100
0000
0020
0000
0000
0030
0000
0000
0100
0000
0000
0000
1100
0000
0000
0000
,
0100
0000
0000
0000
0011
0000
0000
0010
0100
0000
0000
0000
1100
0000
0002
0000
,
1000
0003
0101
0000
0100
0000
0011
2000
,
0001
0000
3000
0000
0101
0000
0000
0010
0100
0000
0000
0000
0011
0000
0000
0000
,
1000
0000
0000
0000
1100
0000
0000
0100
1000
0000
0000
0000
0011
0000
0000
0000
,
0100
1001
0100
0011
,
0100
0000
0000
0000
0010
0000
0000
1000
0001
0000
0010
0001
1000
0100
0000
0000
,
0100
0000
0000
0000
1010
0000
0000
0000
0100
0000
0000
0100
0010
0000
0000
0000
,
0001
0000
0000
0000
0110
0000
0000
0010
0100
0000
0000
0000
1001
0000
0000
0000
,
0200
0000
0000
0000
0310
0000
0000
0000
0002
0000
0003
0010
0100
0000
0000
0000
,
0020
0000
0000
0000
0031
0000
0000
0001
2000
0000
0000
0000
3100
0000
0000
1000
,
0002
0000
0000
0000
1000
0000
0000
0000
0010
0000
0000
0100
0000
1000
0000
0000
,
2003
0000
0001
0000
0010
0000
0001
3000
,
1100
0000
0000
0000
1100
0000
0000
1000
0100
0000
0010
0000
0001
1000
0000
0000
,
2001
0001
0100
0001
,
0100
0001
0100
3001
,
1020
1000
0200
0330
0201
0001
0002
0303
,
1020
1000
0200
0330
0110
0000
1001
0000
,
0110
0000
0000
0001
0100
0000
0000
0000
0001
0000
0000
1000
0100
0000
0000
0000
,
0010
0000
0000
1000
0001
0000
0000
1000
0100
0000
0000
1000
0100
0000
0000
0000
,
0001
0000
0000
0010
0100
0000
0000
0000
0010
0000
0000
1000
0100
0000
0000
0000
,
0001
0000
0000
0010
0100
0000
0000
0100
0010
0000
0000
0010
0100
0000
1000
0000
,
1000
0000
0000
1000
0001
0000
0000
0000
0100
0000
0000
0010
1000
0000
0000
0000
,
0001
0000
0000
1000
0010
0000
0000
0001
1000
0000
0000
0001
0010
0000
0000
0000
,
0100
0000
0000
0001
1000
0000
0000
0000
0010
0000
0000
0001
0010
0000
0000
0000
,
1000
0000
0000
0100
0010
0000
0000
0000
0200
0000
0000
0000
0320
0000
0100
0000
,
1030
0000
0000
0000
0010
0000
0000
1000
0100
0000
0000
0100
0010
0000
0001
0000
,
0012
0000
0100
0000
0200
0000
0000
0300
,
0103
0000
0000
0000
1000
0000
0000
0010
0100
0000
0000
0000
0010
0000
0000
0000
,
2000
0000
0000
0000
3200
0000
0000
0000
0320
0000
0030
1000
0002
0000
1000
0000
,
0013
0000
1100
0000
0010
0100
1010
0000
,
0010
0000
0000
0000
1100
0000
0000
0100
0010
0000
0001
0000
0011
0000
0000
0000
,
0001
0000
1010
0000
0010
0100
1001
0000
,
0001
0000
0000
0000
1010
0000
0000
1000
0010
0000
0100
0000
0110
0000
0000
0000
,
0001
0000
0000
0000
0010
0000
0000
0001
1000
0000
0010
0000
1100
0000
0000
0000
,
0010
0001
0010
1100
,
0010
0000
0000
0000
0100
0000
0000
0010
1000
0000
1000
0001
0100
0000
0000
0000
,
0020
0000
0030
0101
,
1000
0000
0000
0000
0100
0000
0000
0100
0010
0000
0100
0000
1001
0000
0000
0000
,
0020
0000
0130
0000
2000
0010
3010
0000
,
0200
0000
0000
0000
0301
0000
0000
1000
0002
0000
0010
0000
0013
0000
0000
0000
,
2000
0000
0001
0000
0100
0001
0001
0000
,
3002
0000
1000
0000
0100
1000
1000
0000
,
0013
0000
0000
0000
0010
0000
0000
1000
0100
0000
0100
0000
1000
0001
0000
0000
,
1002
1000
0010
1000
,
0010
1000
0010
1003
,
0102
1000
0200
0303
2010
0001
0200
3300
,
0201
0010
0002
0303
0110
0000
1001
0000
,
0110
0000
0000
0000
0010
0000
0000
0000
1000
0000
0000
0001
0010
0000
0100
0000
,
0100
0000
0000
0000
1000
0000
0000
0100
0010
0000
0000
0001
0010
0000
0100
0000
,
1000
0000
0000
0000
0010
0000
1000
0000
0100
0000
0000
0001
0010
0000
0000
0000
,
1000
0000
0010
0000
0010
0000
0000
0000
0100
0000
0000
0100
0010
0000
0001
0000
,
0001
0000
0100
0000
0001
0000
0000
0000
0010
0000
0000
0100
0001
0000
0100
0000
,
0001
0000
0000
0000
0100
0000
0000
0000
0001
0000
0000
1000
0100
0000
0010
0000
,
0010
0000
0000
0000
0001
0000
0000
0000
0100
0000
0000
1000
0100
0000
1000
0000
,
0001
0000
0000
0000
0100
0000
0000
0000
0010
0000
0000
1000
0100
0010
0000
0000
,
0001
0000
0010
0000
0100
0000
0000
0000
0010
0000
0000
0010
0100
0000
1000
0000
,
2000
0000
0010
0000
0020
0000
0000
0030
,
3100
0000
0000
0000
0001
0000
0000
1000
0100
0000
0000
0000
0100
0000
0000
0000
,
1001
0000
2002
3003
0110
0000
1001
0000
,
0100
0000
0000
0000
0100
0000
0000
0000
0011
0000
0000
1000
0010
0000
0000
0000
,
1000
0000
0000
0000
0001
0000
0000
0000
0110
0000
0000
0100
0010
0000
0000
0000
,
0100
0000
0000
0000
1000
0000
0000
0000
0011
0000
0000
0010
0100
0000
0000
0000
,
1000
0000
0000
0000
0010
0000
0000
0000
1001
0000
0000
0100
0010
0000
0000
0000
,
1000
0000
0000
0010
0100
0000
0000
0001
0010
0000
0000
1000
0001
0000
0000
0010
,
1000
0000
0000
0100
0010
0000
0000
0001
0100
0000
0000
1000
0010
0000
0000
0100
,
0010
0000
0000
0100
0001
0000
0000
0000
0000
0000
0000
1000
0100
0000
0010
0000
,
0001
0000
0100
0000
0010
0000
1000
0000
0001
0000
0000
0010
1000
0000
0000
0000
,
0100
0000
0100
0000
1000
0000
0010
1000
0100
0000
0000
0000
0100
0000
0010
0000
,
0001
0000
0100
0000
0010
0000
1000
0000
0010
0000
0000
1000
0010
0000
0000
0000
,
1000
0000
0001
0000
0100
0000
0000
0001
0100
0000
0010
0000
0100
0000
0001
0000
,
0010
0000
0001
0000
0100
0000
0000
1000
0100
0000
0010
0000
0010
0000
0100
0000
,
0001
0000
1000
0000
0010
0000
0010
0000
0010
0000
0000
0100
0010
0000
1000
0000
,
1000
0000
0200
0300
0100
0010
0002
0003
,
1002
1000
0010
1000
,
0010
1000
0010
1003
,
0022
0000
0000
0033
2200
0000
0000
3300
,
0022
0000
0000
0033
0110
0000
1001
0000
,
0110
0000
0000
0000
0100
0000
0000
0001
1000
0000
0000
0001
0100
0000
0000
0000
,
0110
0000
0000
0000
1000
0000
0000
0001
0100
0000
0000
0001
0100
0000
0000
0000
,
1010
0000
0000
0000
0100
0000
0000
0100
0010
0000
0000
0001
0100
0000
0000
0000
,
1100
0000
0000
0000
0100
0000
0000
0100
0010
0000
0000
0010
0100
0000
0001
0000
,
1001
0000
0000
0000
1000
0000
0000
0010
0100
0000
0000
0010
1000
0000
0000
0000
,
1001
0000
0000
0000
0010
0000
0000
1000
0001
0000
0000
1000
0010
0000
0000
0000
,
0101
0000
0000
0000
0001
0000
0000
1000
0010
0000
0000
1000
0010
0000
0000
0000
,
0101
0110
0200
0320
,
1030
0000
0000
0000
1010
0000
0000
0001
0100
0000
0000
0100
0010
0000
1000
0000
,
2000
0000
0000
0000
0100
0000
0000
0000
0100
3000
0001
0000
1000
0001
0000
0000
,
2100
0000
0010
0000
0001
0000
0010
3000
,
0001
0010
0001
0100
0001
1000
0100
0010
0100
1000
0001
1000
0100
0000
0010
0000
,
0110
0000
0000
0010
0100
0000
0000
1000
0001
0000
0000
1000
0100
0000
0000
0000
,
0110
0000
0000
1000
0001
0000
0000
1000
0100
0000
0000
1000
0100
0000
0000
0000
,
0101
0000
0000
0001
0100
0000
0000
1000
0010
0000
0000
1000
0100
0000
0000
0000
,
0011
0000
0000
0010
0100
0000
0000
0100
0010
0000
0000
0010
0100
0000
1000
0000
,
1001
0000
0000
1000
0001
0000
0000
0010
0100
0000
0000
0010
1000
0000
0000
0000
,
0101
0000
0000
1000
0010
0000
0000
0001
1000
0000
0000
0001
0010
0000
0000
0000
,
0101
0000
0000
0001
1000
0000
0000
0100
0010
0000
0000
0001
0010
0000
0000
0000
,
1010
0000
0000
0100
0010
0000
0000
0001
0100
0000
0100
0000
0010
1000
0000
0000
,
1000
0000
0000
1000
0010
0000
0000
1000
0100
0000
0100
0000
0010
0000
0001
0000
,
0002
0000
0100
0000
0200
0000
0000
0300
,
0100
0000
0003
0000
1001
0000
0000
1000
0100
0000
0000
0000
1010
0000
0000
0000
,
1001
0022
0000
0033
,
0100
0000
0000
0000
0001
0000
0000
0010
0100
0000
0000
0000
0001
0000
0000
0000
,
0101
0202
0000
0303
,
0100
1000
0100
1000
,
1100
0000
2200
0000
0000
0000
0000
3300
,
0100
0000
0000
0000
1000
0000
0000
0010
0100
0000
0000
0000
1000
0000
0000
0000
,
0100
0020
0000
0000
,
0000
0000
0000
0000
,
0000
0000
0000
0000
,
0000
0000
0030
0000
;
