#TITLE:La DueƱa del Swing;
#SUBTITLE:;
#ARTIST:Los Hermanos Rosario;
#TITLETRANSLIT:The Mistress of Swing;
#SUBTITLETRANSLIT:;
#ARTISTTRANSLIT:The Rosario Brothers;
#GENRE:Latin;
#CREDIT:Blood4Fame;
#MUSIC:music.mp3;
#BANNER:banner.png;
#BACKGROUND:bg.png;
#CDTITLE:;
#SAMPLESTART:0.000;
#SAMPLELENGTH:0.000;
#SELECTABLE:YES;
#OFFSET:-0.464;
#BPMS:0.000=155.063
,17.521=155.000
,288.000=158.000
,296.000=155.000
;
#STOPS:;
#BGCHANGES:;
#FGCHANGES:;

//--------------- dance-single - Blood4Fame ----------------
#NOTES:
     dance-single:
     Blood4Fame:
     Easy:
     4:
     0,0,0,0,0:
0000
0000
0000
0000
,
0000
0000
0000
0000
,
0000
0000
0000
0000
,
0000
0000
0000
0000
,
1000
0100
1000
0000
,
0001
0010
0001
0000
,
1000
0010
1000
0000
,
0001
0100
0001
1000
,
0001
0000
0000
0001
1000
0000
1000
0000
,
0001
0000
0000
0001
1000
0000
1000
0000
,
0001
0000
0000
0001
1000
0000
1000
0000
,
0001
0000
0000
0000
,
0100
0100
0010
0000
,
1000
1000
0100
0000
,
1000
1000
0010
0000
,
0001
0001
0100
0000
,
0010
0010
1000
0000
,
0100
0100
0010
0100
,
1000
0000
0001
0010
,
0100
0000
1000
0010
,
0100
0000
0001
0010
,
0100
0000
1000
0100
,
0010
0000
0010
0100
,
0001
0000
0001
0100
,
0010
0000
1000
0010
,
0100
0000
0000
0000
,
1000
1000
1000
0000
,
0001
0001
0001
0000
,
0100
0100
0100
0000
,
0001
0001
0001
0000
,
0010
0010
0010
0000
,
1000
1000
1000
0000
,
0100
0100
0100
0000
,
0010
0010
0010
0000
,
0001
0001
1000
0000
,
0001
0100
0010
0000
,
1000
0100
1000
0000
,
0001
0010
0100
0000
,
0001
0100
0001
0000
,
1000
0100
1000
0000
,
0010
0100
0001
1000
,
0100
0000
0000
0000
,
0001
0000
1000
0001
,
0100
0000
0010
1000
,
0100
0000
0001
0100
,
0010
0000
0010
0001
,
1000
0000
0010
0100
,
1000
0000
0100
0001
,
0010
0000
0100
0001
,
1000
0000
0100
0100
,
0010
0000
1000
1000
,
0100
0000
0001
0001
,
0100
0000
0010
0010
,
1000
0000
0001
0001
,
0010
0000
1000
1000
,
0100
0000
0010
0010
,
1000
0000
0001
0001
,
0100
0000
0010
1000
,
0100
0100
0100
0000
,
0001
0000
1000
0100
,
0010
0000
0001
0100
,
0010
0000
1000
0100
,
0001
0001
0001
0000
,
0010
1000
0100
0000
,
0001
0100
0010
1000
,
0100
0000
0000
0000
,
0001
0000
0000
0000
,
1100
0000
0000
0000
,
0010
0000
0000
0000
,
0101
0000
0000
0000
,
1000
0000
0000
0000
,
0110
0000
0000
0000
,
0010
0000
0000
0000
,
1001
1001
1001
0000
,
0100
0000
0100
0000
,
0010
0000
0010
0000
,
1000
0000
1000
0000
,
0001
0000
0001
0000
,
0010
0000
0100
0000
,
0001
0000
1000
0000
,
0010
0000
0100
0000
,
0001
0000
0000
0000
,
1000
0000
0001
0010
,
0100
0000
0001
1000
,
0100
0000
0010
0100
,
1000
0000
0001
0100
,
0010
0000
1000
0010
,
0100
0000
0001
0100
,
0010
0000
1000
0100
,
0100
0100
0100
0000
,
1000
0100
1000
0000
,
0001
0010
0001
0000
,
1000
0010
1000
0000
,
0001
0100
0001
1000
,
0001
0000
0000
0001
1000
0000
1000
0000
,
0001
0000
0000
0001
1000
0000
1000
0000
,
0001
0000
0000
0001
1000
0000
1000
0000
,
0001
0001
0001
0000
;

//--------------- dance-single - Blood4Fame ----------------
#NOTES:
     dance-single:
     Blood4Fame:
     Medium:
     7:
     0,0,0,0,0:
0000
0000
0000
0000
,
0000
0000
0000
0000
,
0000
0000
0000
0000
,
0000
0000
0000
0000
,
1000
0000
0100
0000
1000
0100
0000
0000
,
0001
0000
0100
0000
0001
0100
0000
0000
,
1000
0000
0100
0000
1000
0100
0000
0000
,
0001
0000
0100
0000
0001
0100
0000
0100
,
0001
0000
0000
0100
1000
0000
0000
0100
,
0001
0000
0000
0100
1000
0000
0000
0100
,
0001
0000
0000
0100
1000
0000
0000
0100
,
0002
0003
0000
0000
0000
0000
0000
0000
,
1000
0100
0000
0000
0001
0000
0000
0000
0010
0000
0001
0000
0010
0000
0000
0000
,
0001
0100
0000
0000
1000
0000
0000
0000
0010
0000
1000
0000
0010
0000
0000
0000
,
1000
0100
0000
0000
0001
0000
0000
0000
0010
0000
0001
0000
0010
0000
0000
0000
,
0001
0100
0000
0000
1000
0000
0000
0000
0010
0000
1000
0000
0010
0000
0000
0000
,
1000
0100
0000
0000
0001
0000
0000
0000
0010
0000
0001
0000
0010
0000
0000
0000
,
0001
0100
0000
0000
1000
0000
0000
0000
0001
0000
0000
0000
0000
0000
0000
0000
,
1000
0000
0010
0100
0010
0000
1000
0010
,
0100
0000
0010
0100
0010
0000
1000
0010
,
1000
0000
0010
0100
0010
0000
1000
0010
,
1000
0000
0010
0100
0010
0000
1000
0010
,
1000
0000
0010
0100
0010
0000
1000
0010
,
1000
0000
0010
0100
0010
0000
1000
0010
,
1000
0000
0010
0100
0010
0000
1000
0001
,
0100
0000
0000
0000
,
0001
1000
0100
0000
1000
0000
0100
0000
,
0010
0001
0100
0000
0010
0000
0100
0000
,
0001
0100
0010
0000
0010
0000
1000
0000
,
0100
0010
0100
0000
1000
0000
0100
0000
,
1000
0001
0100
0000
0001
0000
0100
0000
,
0010
1000
0100
0000
0010
0000
0100
0000
,
1000
0100
0010
0000
0010
0000
0001
0000
,
0100
0010
0100
0000
0001
0000
0100
0000
,
0011
0000
0000
0001
0010
0000
0000
0000
0100
0000
0010
0000
0001
0000
0000
0000
,
0010
0100
0100
0000
0100
0010
0001
0000
,
0010
0000
0100
0000
0010
0001
0100
0000
,
0001
0010
0010
0000
0010
0001
0100
0000
,
1010
0000
0000
1000
0010
0000
0000
0000
0100
0000
0010
0000
1000
0000
0000
0000
,
0010
0100
0100
0000
0100
0010
1000
0000
,
0010
0000
0000
0010
0100
0000
0000
0000
0010
0000
1000
0000
0100
0000
0000
0000
,
1000
0010
0010
0000
0010
0000
0100
0010
,
1000
0000
0000
1000
0010
0000
0000
0000
0010
0000
1000
0000
0001
0000
0000
0000
,
0001
0000
0000
1000
0010
0000
0000
0000
0010
0000
1000
0000
0001
0000
0000
0000
,
0001
0000
0000
1000
0010
0000
0000
0000
0010
0000
1000
0000
0001
0000
0000
0000
,
0001
0000
0000
0001
0010
0000
0000
0000
0010
0000
0001
0000
1000
0000
0000
0000
,
1000
0000
0000
0001
0010
0000
0000
0000
0010
0000
0001
0000
1000
0000
0000
0000
,
1000
0000
0000
0001
0010
0000
0000
0000
0010
0000
0001
0000
1000
0000
0000
0000
,
1000
0000
0000
0001
0010
0000
0000
0000
0010
0000
0001
0000
1000
0000
0000
0000
,
0100
0000
0000
0000
,
1000
0001
0100
0000
0001
0000
0010
0000
,
0100
1000
0100
0000
0100
0000
0010
0000
,
0001
0010
0100
0000
0100
0000
1000
0000
,
0010
0100
0001
0000
1000
0000
0010
0000
,
1000
0001
0100
0000
0001
0000
0010
0000
,
0100
1000
0001
0000
0100
0000
0010
0000
,
1000
0010
0100
0000
0100
0000
0001
0000
,
0010
0100
1000
0000
1000
0000
0010
0000
,
0101
0000
0000
0001
0100
0000
0000
0000
0010
0000
0100
0000
0001
0000
0000
0000
,
0100
0010
0010
0000
0010
0100
0001
0000
,
0100
0000
0000
0100
0010
0000
0000
0000
0100
0000
0001
0000
0010
0000
0000
0000
,
0001
0100
0100
0000
0100
0001
0010
0000
,
1100
0000
0000
1000
0100
0000
0000
0000
0010
0000
0100
0000
1000
0000
0000
0000
,
0100
0010
0010
0000
0010
0100
1000
0000
,
0100
0000
0000
0100
0010
0000
0000
0000
0100
0000
1000
0000
0010
0000
0000
0000
,
1000
0000
0110
0011
,
0101
0000
0110
1010
,
1100
0000
0110
1100
,
1010
0000
0110
0101
,
0011
0000
0110
0011
,
0101
0000
0110
1010
,
1100
0000
0110
1100
,
1010
0000
0110
0101
,
0011
0011
0011
0000
,
1000
0000
0100
0010
0000
0010
0100
1000
,
0000
0010
0100
0001
0000
0100
0100
0010
,
0000
0100
0010
1000
0000
0010
0010
0100
,
0000
0100
0010
1000
0000
1000
1000
0100
,
0000
0010
0100
1000
0000
0000
1000
0000
,
0110
0010
0101
0001
,
1100
0000
0000
0001
0100
0010
0000
0100
,
0010
0000
0000
0000
1000
0100
0010
0000
,
0101
0000
0110
1010
,
1100
0000
0110
1100
,
1010
0000
0110
0101
,
0011
0000
0110
0011
,
0101
0000
0110
1010
,
1100
0000
0110
1100
,
1010
0000
0110
0101
,
0011
0011
0011
0000
,
1000
0000
0100
0000
0001
0100
0000
0000
,
0001
0000
0100
0000
1000
0100
0000
0000
,
1000
0000
0100
0000
0001
0100
0000
0000
,
0001
0000
0100
0000
1000
0100
0000
0100
,
0001
0000
0000
0100
1000
0000
0000
0100
,
0001
0000
0000
0100
1000
0000
0000
0100
,
0001
0000
0000
0100
1000
0000
0000
0100
,
0002
0003
0101
0000
0001
0000
0000
0000
;

//--------------- dance-single - Blood4Fame ----------------
#NOTES:
     dance-single:
     Blood4Fame:
     Hard:
     8:
     0,0,0,0,0:
0000
0000
0000
0000
,
0000
0000
0000
0000
,
0000
0000
0000
0000
,
0000
0000
0000
0000
,
1000
0000
0000
1000
0100
0000
0000
0000
1000
0000
0100
0000
0000
0000
0000
0000
,
0001
0000
0000
0001
0100
0000
0000
0000
0001
0000
0100
0000
0000
0000
0000
0000
,
1000
0000
0000
1000
0100
0000
0000
0000
1000
0000
0100
0000
0000
0000
0000
0000
,
0001
0000
0000
0001
0100
0000
0000
0000
0001
0000
0100
0000
0000
0000
0100
0000
,
0001
0000
0000
0000
0000
0000
0100
0010
1000
0000
0000
0000
0000
0000
0100
0010
,
0001
0000
0000
0000
0000
0000
0100
0010
1000
0000
0000
0000
0000
0000
0100
0010
,
0001
0000
0000
0000
0000
0000
0100
0010
1000
0000
0000
0000
0000
0000
0100
0010
,
0002
0003
0000
0000
0000
0000
0000
0000
,
1000
0100
0000
0010
0001
0000
0000
0000
0010
0000
0001
0000
0010
0000
0000
0000
,
0001
0100
0000
0010
1000
0000
0000
0000
0010
0000
1000
0000
0010
0000
0000
0000
,
1000
0100
0000
0010
0001
0000
0000
0000
0010
0000
0001
0000
0010
0000
0000
0000
,
0001
0100
0000
0010
1000
0000
0000
0000
0010
0000
1000
0000
0010
0000
0000
0000
,
1000
0100
0000
0010
0001
0000
0000
0000
0010
0000
0001
0000
0010
0000
0000
0000
,
0001
0100
0000
0010
1000
0000
0000
0000
0100
0000
0000
0000
0000
0000
0000
0000
,
1000
0000
0010
0100
0010
1000
0001
0010
,
0100
0000
0010
0100
0010
0001
1000
0010
,
1000
0000
0010
0100
0010
1000
0001
0010
,
0001
0000
0010
0100
0010
0001
1000
0010
,
1000
0000
0010
0100
0010
1000
0001
0010
,
0001
0000
0010
0100
0010
0001
1000
0010
,
1000
0000
0010
0100
0010
1000
0001
0010
,
0100
0000
0000
0000
,
0001
0000
1000
0100
1000
0000
0000
0000
0001
0000
0000
0000
0100
0000
0000
0000
,
0010
0000
1000
0010
1000
0000
0000
0000
0010
0000
0000
0000
0100
0000
0000
0000
,
0001
0000
0100
0001
0100
0000
0000
0000
0010
0000
0000
0000
1000
0000
0000
0000
,
0100
0000
0010
0001
0010
0000
0000
0000
0001
0000
0000
0000
0100
0000
0000
0000
,
0001
0000
1000
0100
1000
0000
0000
0000
0001
0000
0000
0000
0100
0000
0000
0000
,
0010
0000
1000
0010
1000
0000
0000
0000
0010
0000
0000
0000
0100
0000
0000
0000
,
0001
0000
0100
0001
0100
0000
0000
0000
0010
0000
0000
0000
1000
0000
0000
0000
,
0100
0000
0010
0001
0010
0000
0000
0000
1000
0000
0000
0000
0100
0000
0000
0000
,
0011
0000
0000
0001
0010
0000
0000
0000
0100
0000
0010
0000
0001
0000
0100
0000
,
0010
0100
0100
0010
0100
0010
1000
0100
,
0010
0000
0100
1000
0010
1000
0100
0010
,
0001
0010
0010
0100
0010
0001
0100
0000
,
1010
0000
0000
1000
0010
0000
0000
0000
0100
0000
0010
0000
1000
0000
0100
0000
,
0010
0100
0100
0010
0100
0010
0001
0100
,
0010
0000
0000
0010
0100
0000
0001
0000
0010
0000
0001
0000
0100
0000
0010
0000
,
1000
0010
0010
0100
0010
1000
0100
0010
,
0001
0000
0000
1000
0010
0000
0000
0000
0010
0000
1000
0000
0001
0000
0010
0000
,
0001
0000
0000
1000
0010
0000
0000
0000
0010
0000
1000
0000
0001
0000
0010
0000
,
0001
0000
0000
1000
0010
0000
0000
0000
0010
0000
1000
0000
0001
0000
0010
0000
,
0001
0000
0000
0001
0010
0000
0000
0000
0010
0000
0001
0000
1000
0000
0010
0000
,
1000
0000
0000
0001
0010
0000
0000
0000
0010
0000
0001
0000
1000
0000
0010
0000
,
1000
0000
0000
0001
0010
0000
0000
0000
0010
0000
0001
0000
1000
0000
0010
0000
,
1000
0000
0000
0001
0010
0000
0000
0000
0010
0000
0001
0000
1000
0000
0010
0000
,
0100
0000
0000
0000
,
1000
0000
0001
0010
0001
0000
0000
0000
1000
0000
0000
0000
0010
0000
0000
0000
,
0100
0000
0001
0100
0001
0000
0000
0000
0100
0000
0000
0000
0010
0000
0000
0000
,
1000
0000
0010
1000
0010
0000
0000
0000
0100
0000
0000
0000
0001
0000
0000
0000
,
0010
0000
0100
1000
0100
0000
0000
0000
1000
0000
0000
0000
0010
0000
0000
0000
,
1000
0000
0001
0010
0001
0000
0000
0000
1000
0000
0000
0000
0010
0000
0000
0000
,
0100
0000
0001
0100
0001
0000
0000
0000
0100
0000
0000
0000
0010
0000
0000
0000
,
1000
0000
0010
1000
0010
0000
0000
0000
0100
0000
0000
0000
0001
0000
0000
0000
,
0010
0000
0100
1000
0100
0000
0000
0000
1000
0000
0000
0000
0010
0000
0000
0000
,
0101
0000
0000
0001
0100
0000
0000
0000
0010
0000
0100
0000
0001
0000
0010
0000
,
0100
0010
0010
0100
0010
0100
1000
0010
,
0100
0000
0000
0100
0010
0000
1000
0000
0100
0000
1000
0000
0010
0000
0100
0000
,
0001
0100
0100
0010
0100
0001
0010
0000
,
1100
0000
0000
1000
0100
0000
0000
0000
0010
0000
0100
0000
1000
0000
0010
0000
,
0100
0010
0010
0100
0010
0100
0001
0010
,
0100
0000
0000
0100
0010
0000
0001
0000
0100
0000
0001
0000
0010
0000
0100
0000
,
1000
0000
0110
0011
,
0101
0000
0110
1010
,
1100
0000
0110
1100
,
1010
0000
0110
0101
,
0011
0000
0110
0011
,
0101
0000
0110
1010
,
1100
0000
0110
1100
,
1010
0000
0110
0101
,
0011
0011
0011
0000
,
1000
0001
0100
0010
0000
0010
0100
0001
,
0000
0010
0100
1000
0010
0100
0100
0010
,
0000
0100
0010
1000
0100
0010
0010
0001
,
0000
0100
0010
1000
0100
1000
1000
0100
,
0000
0010
0100
1000
0011
0000
1000
0010
,
0110
0000
0010
1000
0101
0000
0001
0010
,
1100
0000
0010
0001
0100
0010
1000
0100
,
0010
0000
0000
0000
,
0101
0000
0110
1010
,
1100
0000
0110
1100
,
1010
0000
0110
0101
,
0011
0000
0110
0011
,
0101
0000
0110
1010
,
1100
0000
0110
1100
,
1010
0000
0110
0101
,
0011
0011
0011
0000
,
1000
0000
0000
1000
0100
0000
0000
0000
0001
0000
0100
0000
0000
0000
0000
0000
,
0001
0000
0000
0001
0100
0000
0000
0000
1000
0000
0100
0000
0000
0000
0000
0000
,
1000
0000
0000
1000
0100
0000
0000
0000
0001
0000
0100
0000
0000
0000
0000
0000
,
0001
0000
0000
0001
0100
0000
0000
0000
1000
0000
0100
0000
0000
0000
0100
0010
,
0001
0000
0000
0000
0000
0000
0100
0010
1000
0000
0000
0000
0000
0000
0100
0010
,
0001
0000
0000
0000
0000
0000
0100
0010
1000
0000
0000
0000
0000
0000
0100
0010
,
0001
0000
0000
0000
0000
0000
0100
0010
1000
0000
0000
0000
0000
0000
0100
0010
,
0002
0003
0101
0000
0001
0000
0000
0000
;

//--------------- dance-single - Blood4Fame ----------------
#NOTES:
     dance-single:
     Blood4Fame:
     Challenge:
     9:
     0,0,0,0,0:
0000
0000
0000
0000
,
0000
0000
0000
0000
,
0000
0000
0000
0000
,
0000
0000
0000
0000
,
1000
0000
0000
1000
0100
0000
0010
0000
0001
0000
0100
0000
0000
0000
0000
0000
,
0001
0000
0000
0001
0100
0000
0010
0000
1000
0000
0100
0000
0000
0000
0000
0000
,
1000
0000
0000
1000
0100
0000
0010
0000
0001
0000
0100
0000
0000
0000
0000
0000
,
0001
0000
0000
0001
0100
0000
0010
0000
1000
0000
0100
0000
0000
0000
0100
0010
,
0001
0000
0000
0000
0000
0001
0100
0010
1000
0000
0000
0000
0000
0000
0100
0010
,
0001
0000
0000
0000
0000
0001
0100
0010
1000
0000
0000
0000
0000
0000
0100
0010
,
0001
0000
0000
0000
0000
0001
0100
0010
1000
0000
0000
0000
0000
0000
0100
0010
,
0002
0003
0000
0000
0000
0000
0000
0000
,
1000
0100
0000
0010
0001
0000
0100
0000
0010
0000
1000
0000
0010
0000
0100
0000
,
0001
0100
0000
0010
1000
0000
0100
0000
0010
0000
0001
0000
0010
0000
0100
0000
,
1000
0100
0000
0010
0001
0000
0100
0000
0010
0000
1000
0000
0010
0000
0100
0000
,
0001
0100
0000
0010
1000
0000
0100
0000
0010
0000
0001
0000
0010
0000
0100
0000
,
1000
0100
0000
0010
0001
0000
0100
0000
0010
0000
1000
0000
0010
0000
0100
0000
,
0001
0100
0000
0010
1000
0000
0100
0000
0010
0000
0000
0000
0000
0000
0000
0000
,
0001
0000
0000
1000
0010
0000
0100
0000
0010
0000
1000
0000
0001
0000
0010
0000
,
0001
0000
0000
1000
0010
0000
0100
0000
0010
0000
1000
0000
0001
0000
0010
0000
,
0001
0000
0000
1000
0010
0000
0100
0000
0010
0000
1000
0000
0001
0000
0010
0000
,
0001
0000
0000
1000
0010
0000
0100
0000
0010
0000
1000
0000
0001
0000
0010
0000
,
0001
0000
0000
1000
0010
0000
0100
0000
0010
0000
1000
0000
0001
0000
0010
0000
,
0001
0000
0000
1000
0010
0000
0100
0000
0010
0000
1000
0000
0001
0000
0010
0000
,
0001
0000
0000
1000
0010
0000
0100
0000
0010
0000
1000
0000
0001
0000
0010
0000
,
0100
0000
0000
0000
,
0001
0000
1000
0100
1000
0000
0000
0000
0001
0000
0000
0000
0100
0000
0000
0000
,
0010
0000
1000
0010
1000
0000
0000
0000
0010
0000
0000
0000
0100
0000
0000
0000
,
0001
0000
0100
0001
0100
0000
0000
0000
0010
0000
0000
0000
1000
0000
0000
0000
,
0100
0000
0010
0001
0010
0000
0000
0000
1000
0000
0000
0000
0100
0000
0000
0000
,
0001
0000
1000
0100
1000
0000
0000
0000
0001
0000
0000
0000
0100
0000
0000
0000
,
0010
0000
1000
0010
1000
0000
0000
0000
0010
0000
0000
0000
0100
0000
0000
0000
,
0001
0000
0100
0001
0100
0000
0000
0000
0010
0000
0000
0000
1000
0000
0000
0000
,
0100
0000
0010
0001
0010
0000
0000
0000
1000
0000
0000
0000
0100
0000
0000
0000
,
0011
0000
0000
0001
0010
0000
0001
0000
0100
0000
0010
0000
1000
0000
0100
0000
,
0010
0000
0100
1000
0100
0000
0010
0000
0100
0000
0010
0000
0001
0000
0100
0000
,
0010
0000
0000
1000
0100
0000
1000
0000
0010
0000
1000
0000
0100
0000
0010
0000
,
0001
0000
0010
0001
0010
0000
0100
0000
0010
0000
0001
0000
0100
0000
0000
0000
,
1010
0000
0000
1000
0010
0000
1000
0000
0100
0000
0010
0000
0001
0000
0100
0000
,
0010
0000
0100
0001
0100
0000
0010
0000
0100
0000
0010
0000
1000
0000
0100
0000
,
0010
0000
0000
0001
0100
0000
0001
0000
0010
0000
0001
0000
0100
0000
0010
0000
,
1000
0000
0010
1000
0010
0000
0100
0000
0010
0000
1000
0000
0100
0000
0010
0000
,
0001
0000
0000
1000
0010
0000
0100
0000
0010
0000
1000
0000
0001
0000
0010
0000
,
0001
0000
0000
1000
0010
0000
0100
0000
0010
0000
1000
0000
0001
0000
0010
0000
,
0001
0000
0000
1000
0010
0000
0100
0000
0010
0000
1000
0000
0001
0000
0010
0000
,
0001
0000
0000
0001
0010
0000
0100
0000
0010
0000
0001
0000
1000
0000
0010
0000
,
1000
0000
0000
0001
0010
0000
0100
0000
0010
0000
0001
0000
1000
0000
0010
0000
,
1000
0000
0000
0001
0010
0000
0100
0000
0010
0000
0001
0000
1000
0000
0010
0000
,
1000
0000
0000
0001
0010
0000
0100
0000
0010
0000
0001
0000
1000
0000
0010
0000
,
0100
0000
0000
0000
,
1000
0000
0001
0010
0001
0000
0000
0000
1000
0000
0000
0000
0010
0000
0000
0000
,
0100
0000
0001
0100
0001
0000
0000
0000
0100
0000
0000
0000
0010
0000
0000
0000
,
1000
0000
0010
1000
0010
0000
0000
0000
0100
0000
0000
0000
0001
0000
0000
0000
,
0010
0000
0100
1000
0100
0000
0000
0000
0001
0000
0000
0000
0010
0000
0000
0000
,
1000
0000
0001
0010
0001
0000
0000
0000
1000
0000
0000
0000
0010
0000
0000
0000
,
0100
0000
0001
0100
0001
0000
0000
0000
0100
0000
0000
0000
0010
0000
0000
0000
,
1000
0000
0010
1000
0010
0000
0000
0000
0100
0000
0000
0000
0001
0000
0000
0000
,
0010
0000
0100
1000
0100
0000
0000
0000
1000
0000
0000
0000
0010
0000
0000
0000
,
0101
0000
0000
0001
0100
0000
0001
0000
0010
0000
0100
0000
1000
0000
0010
0000
,
0100
0000
0010
1000
0010
0000
0100
0000
0010
0000
0100
0000
0001
0000
0010
0000
,
0100
0000
0000
1000
0010
0000
1000
0000
0100
0000
1000
0000
0010
0000
0100
0000
,
0001
0000
0100
0001
0100
0000
0010
0000
0100
0000
0001
0000
0010
0000
0000
0000
,
1100
0000
0000
1000
0100
0000
1000
0000
0010
0000
0100
0000
0001
0000
0010
0000
,
0100
0000
0010
0001
0010
0000
0100
0000
0010
0000
0100
0000
1000
0000
0010
0000
,
0100
0000
0000
0001
0010
0000
0001
0000
0100
0000
0001
0000
0010
0000
0100
0000
,
1000
0000
0000
1000
0110
0000
0011
0000
,
0101
0000
0000
0001
0110
0000
1010
0000
,
1100
0000
0000
0001
0110
0000
1100
0000
,
1010
0000
0000
1000
0110
0000
0101
0000
,
0011
0000
0000
1000
0110
0000
0011
0000
,
0101
0000
0000
0001
0110
0000
1010
0000
,
1100
0000
0000
0001
0110
0000
1100
0000
,
1010
0000
0000
1000
0110
0000
0101
0000
,
0011
0011
0011
0000
,
1000
0000
0001
0000
0100
0000
0010
1000
0000
0000
0100
0010
0100
0000
1000
0001
,
0000
0000
0010
0000
0100
0000
1000
0000
0010
0000
0100
0001
0100
0000
0010
1000
,
0000
0000
0100
0000
0010
0000
0001
0000
0100
0000
0010
0100
0010
0000
1000
0001
,
0000
0000
0100
0000
0010
0000
1000
0000
0100
0000
1000
0010
1000
0000
0100
1000
,
0000
0010
0100
0001
0011
0000
1000
0010
,
0110
0000
0010
1000
0101
0000
0001
0010
,
1100
0000
0000
0100
0010
0000
0001
0000
0100
0000
0010
0000
1000
0000
0100
0000
,
0010
0000
0000
0000
,
0101
0000
0000
0001
0110
0000
1010
0000
,
1100
0000
0000
0001
0110
0000
1100
0000
,
1010
0000
0000
1000
0110
0000
0101
0000
,
0011
0000
0000
1000
0110
0000
0011
0000
,
0101
0000
0000
0001
0110
0000
1010
0000
,
1100
0000
0000
0001
0110
0000
1100
0000
,
1010
0000
0000
1000
0110
0000
0101
0000
,
0011
0011
0011
0000
,
1000
0000
0000
1000
0100
0000
0010
0000
0001
0000
0100
0000
0000
0000
0000
0000
,
0001
0000
0000
0001
0100
0000
0010
0000
1000
0000
0100
0000
0000
0000
0000
0000
,
1000
0000
0000
1000
0100
0000
0010
0000
0001
0000
0100
0000
0000
0000
0000
0000
,
0001
0000
0000
0001
0100
0000
0010
0000
1000
0000
0100
0000
0000
0000
0100
0010
,
0001
0000
0000
0000
0000
0001
0100
0010
1000
0000
0000
0000
0000
0000
0100
0010
,
0001
0000
0000
0000
0000
0001
0100
0010
1000
0000
0000
0000
0000
0000
0100
0010
,
0001
0000
0000
0000
0000
0001
0100
0010
1000
0000
0000
0000
0000
0000
0100
0010
,
0002
0003
0101
0000
0001
0000
0000
0000
;
