#TITLE:Kiss Me More;
#SUBTITLE:(80's MIX);
#ARTIST:Doja Cat ft. SZA;
#TITLETRANSLIT:;
#SUBTITLETRANSLIT:;
#ARTISTTRANSLIT:;
#GENRE:R&B;
#CREDIT:Blood4Fame;
#MUSIC:Kiss Me More.mp3;
#BANNER:Banner.png;
#BACKGROUND:BG.png;
#CDTITLE:;
#SAMPLESTART:103.333;
#SAMPLELENGTH:26.486;
#SELECTABLE:YES;
#OFFSET:-0.090;
#BPMS:0.000=111.000;
#STOPS:;
#FGCHANGES:;

//--------------- dance-single - Blood4Fame ----------------
#NOTES:
     dance-single:
     Blood4Fame:
     Beginner:
     3:
     0,0,0,0,0:
2000
0000
0000
3000
,
0200
0000
0000
0300
,
0020
0000
0000
0030
,
0002
0000
0000
0003
,
0002
0000
0000
0003
,
0020
0000
0000
0030
,
0200
0000
0000
0300
,
2000
0000
0000
3000
,
1001
0000
0010
0000
,
1001
0000
0100
0000
,
1001
0000
1000
0000
,
1001
0000
0001
0001
,
1001
0000
0010
0000
,
1001
0000
0100
0000
,
1001
0000
1000
0000
,
1001
0000
0001
0001
,
0010
0000
0100
0000
,
0001
0000
1000
0000
,
0010
0000
0100
0000
,
0001
0001
1000
1000
,
0001
0000
0010
0000
,
1000
0000
0100
0000
,
1000
0000
0010
0000
,
0001
0001
0100
0100
,
0010
0000
0010
0000
,
1000
0000
1000
0000
,
0001
0001
0000
1000
,
0000
0010
0010
0000
,
0001
0000
1000
0000
,
0010
0000
1000
0000
,
0100
0100
0010
0000
,
0001
1000
0001
0000
,
0100
0001
0100
0000
,
1000
0100
1000
0000
,
0001
0010
0001
0000
,
1000
0010
1000
0000
,
0001
0000
0010
0000
,
0100
0000
1000
0000
,
1000
0000
0100
0000
,
0010
0000
0001
0000
,
1001
0000
0000
0000
,
0110
0000
0000
0000
,
1010
0000
0000
0000
,
0011
0000
0000
0000
,
1001
0000
0000
0000
,
0110
0000
0000
0000
,
1100
0000
0000
0000
,
0101
0000
0000
0000
,
0001
1000
0001
0010
,
0001
0100
1000
0001
,
0010
0100
0001
1000
,
0100
0010
0001
0001
,
0001
0000
1000
0000
,
0010
0000
0001
0000
,
1000
0100
0001
0000
,
0010
0000
0100
0100
,
0100
0000
0010
0000
,
0001
0000
1000
0000
,
0001
0000
0010
0000
,
0100
0100
0100
1001
,
0100
0000
0100
0000
,
0010
0000
0001
0000
,
0010
0000
1000
0000
,
0100
0100
1001
0100
,
1000
0000
0000
0000
,
0010
0000
0000
0000
,
1000
0000
0000
0000
,
0001
0000
0000
0000
;

//--------------- dance-single - Blood4Fame ----------------
#NOTES:
     dance-single:
     Blood4Fame:
     Easy:
     4:
     0,0,0,0,0:
0002
0000
0000
0000
0000
0000
0003
2000
,
0000
0000
0000
0000
0000
0000
0000
3000
,
0020
0000
0000
0000
0000
0000
0030
2002
,
0000
0000
0000
3003
0010
0000
0100
0000
,
2002
0000
0000
0000
0000
0000
3003
0200
,
0000
0000
0000
0000
0000
0000
0000
0300
,
2000
0000
0000
0000
0000
0000
3000
2002
,
0000
0000
0000
3003
0002
0000
2003
0000
,
3100
0001
0100
0010
,
0100
0001
0100
0010
,
0100
0000
1000
0000
0000
0001
0000
0002
,
0000
0003
0100
0100
,
1000
0002
0003
0010
,
0100
0010
0100
1000
,
0100
0000
1000
0000
0000
0010
0000
0020
,
0000
0030
0000
0000
0100
0000
0001
0000
,
0100
0002
0103
0010
,
0200
0000
0300
0000
0002
0000
0000
0003
0100
0000
0000
0000
2000
0000
3000
0000
,
0100
0020
0130
0000
,
0200
0000
0000
0300
0000
0000
0000
0000
0100
0000
0000
0000
0101
0000
0000
0000
,
0100
0002
0103
0010
,
0200
0300
0010
0000
0100
0000
0002
0000
,
0103
1000
0100
0001
,
0100
0000
0100
0110
,
1100
0000
0100
1000
,
0000
0000
0100
0001
,
0100
0000
0100
1000
,
0000
0010
0000
0100
0000
1000
0000
0010
,
0000
1000
0000
0100
0000
0010
0000
1000
,
0000
0010
0000
0100
0000
0010
0000
1000
,
0000
1000
0000
0100
0000
0010
0000
1000
,
0000
0000
0000
0100
0000
1000
0000
0010
,
0000
0010
0100
0000
,
0100
1000
0100
0000
,
0100
0001
0100
0000
,
0100
0001
0010
0100
,
0010
0000
1000
0000
0000
0000
0000
0001
,
0000
0010
0000
0100
0000
0000
0000
1000
,
0000
0010
0000
0100
0000
0000
0000
0001
,
0000
0010
0000
0000
1001
0000
1010
0000
,
0202
0000
0300
0000
,
0103
0001
0001
0001
,
0200
0000
0000
0000
0000
0000
0000
0300
0000
0000
1010
0000
0000
0000
0010
0000
,
0000
0000
0002
0023
,
0130
2000
0000
0000
,
3100
1000
0001
1000
,
0200
0000
0000
0301
0000
1001
0000
2100
,
0000
0000
0000
0000
0000
0000
3000
0000
2000
0000
0000
0000
3020
0000
0000
0030
,
1000
2000
3100
0010
,
0100
0010
0100
1000
,
0200
0000
0300
0100
0000
0011
0000
2001
,
0000
0000
3100
0100
,
0100
0000
0002
0000
0003
0000
0000
0002
,
0000
0023
0000
0030
1000
0000
0010
0000
,
0200
0000
0300
0100
0000
1001
0000
2000
,
0000
0000
3100
0100
,
0200
0000
0000
0300
0002
0000
0000
0000
0103
0000
0000
0000
0020
0000
0000
0030
,
0200
0000
0000
0300
0001
0000
0000
0000
0200
0000
0000
0300
1000
0000
0000
0000
,
0200
0000
0000
0300
0020
0000
0000
0000
0130
0000
0000
0000
0001
0000
0000
0000
,
0100
0000
0100
0100
,
0200
0000
0000
0300
0001
0000
0000
0000
0100
0000
0000
0000
0020
0000
0000
0030
,
0200
0000
0000
0300
0001
0000
0000
0000
0200
0000
0000
0300
1000
0000
0000
0000
,
0100
0000
0020
0030
0120
0030
1020
0030
,
0110
0000
0010
1000
,
0000
1000
0000
0010
0000
0010
0000
0100
,
0000
0001
0000
0010
0000
1000
0000
0001
,
0000
0100
0000
0100
0000
0010
0000
0110
,
0000
0001
0000
0100
0000
0001
0000
0002
,
0003
0000
0000
0000
;

//--------------- dance-single - Blood4Fame ----------------
#NOTES:
     dance-single:
     Blood4Fame:
     Medium:
     6:
     0,0,0,0,0:
2002
0000
0000
0000
0000
0000
3003
2020
,
0000
0000
0000
0000
0000
0000
0000
3030
,
0022
0000
0000
0000
0000
0000
0033
2002
,
0000
0000
0000
3003
0010
0000
0100
0000
,
2002
0000
0000
0000
0000
0000
3003
0202
,
0000
0000
0000
0000
0000
0000
0000
0303
,
2200
0000
0000
0000
0000
0000
3300
2002
,
0000
0000
0000
3003
0002
0000
2003
0000
,
3100
0000
0001
0100
0100
0000
0010
0000
,
0100
0000
0001
0100
0100
0000
0010
0000
,
0100
0000
1000
0100
0000
0001
0000
0002
,
0000
0000
0003
0100
0100
0000
0100
0010
,
1000
0000
0002
0000
0003
0000
0010
0001
,
0100
0000
0010
0000
0100
0010
1000
0000
,
0100
0000
0010
0001
1000
0000
0100
0000
0000
0000
0010
0000
0000
0000
0020
0000
,
0100
0000
0030
0000
0000
0000
1000
0000
0100
0000
0000
1000
0100
0000
0000
0000
,
0100
0000
0000
1000
0002
0000
0000
0000
0103
0000
0000
0000
0010
0000
0000
1000
,
0200
0000
0300
0000
0002
0000
0000
0003
0100
0000
0000
0010
2000
0000
3000
1000
,
0100
0000
0020
0000
0130
1000
0000
1000
,
0200
0000
0000
0320
0000
0000
0030
0000
0100
0000
0000
0000
0101
0000
0000
0000
,
0100
0000
0000
1000
0002
0000
0000
0000
0103
0000
0000
0000
0010
0000
0000
1000
,
0200
0000
0300
0100
0010
0000
0000
0000
0100
0000
0000
0010
0002
0000
0000
0000
,
0103
0000
1000
0000
0100
0000
0001
0001
,
0100
0000
0010
1000
0000
0000
0100
0000
0100
0000
0000
0000
0110
0000
0000
0000
,
1100
0000
0000
1000
0000
0001
0000
0000
0100
0000
0010
0000
1000
0000
0001
0000
,
0000
0000
0000
0010
0000
1000
0000
0000
0100
0000
0010
0000
0001
0000
1000
0000
,
0100
0000
0000
0001
0000
0000
0100
0000
0100
0000
0000
0000
1000
0000
1000
0000
,
0000
0000
0010
0001
0000
1000
0100
0000
0000
0000
1000
0000
0100
0000
0010
0000
,
0000
0000
1000
0001
0000
0010
0100
0000
0000
0000
0010
0000
0001
0000
1000
0000
,
0000
0000
0010
0001
0000
0001
0100
0000
0000
0000
0010
0000
1000
0000
1000
0000
,
0000
0000
1000
0010
0000
0010
0100
0000
0000
0000
0010
0000
1000
0000
1000
0000
,
0000
0000
0000
0100
0000
0010
0100
0000
0000
0000
1000
0000
0100
0000
0010
0000
,
0000
0000
0001
0000
0010
0000
0100
0000
0100
0000
0000
0001
0000
0000
1000
0000
,
0100
0000
0010
0000
1000
0000
0000
0000
0100
0000
0000
0001
0000
0000
1000
0000
,
0100
0000
1000
0000
0001
0000
0100
0010
0100
0000
0000
0001
0000
0000
0001
0000
,
0100
0001
0001
0100
0010
0000
0101
0000
,
0110
0000
0000
0000
1000
0000
0100
0000
0000
1000
0000
0010
0000
0000
0001
0000
,
0100
0000
0010
0000
1000
0000
0100
0000
0000
0010
0000
0001
0000
0000
1000
0000
,
0100
0000
0010
0000
0001
0000
0100
0000
0000
0010
0000
1000
0000
0000
0001
0000
,
0100
0010
1000
0100
1001
0000
1010
0000
,
0202
0000
0000
0000
0300
0000
0000
0100
,
0103
0000
0001
0010
0001
1000
0001
0010
,
0200
0000
0000
0000
0000
0000
0000
0300
0000
0000
1010
0000
0000
0000
0010
0000
,
0200
0300
0002
0023
,
0130
1000
2000
0000
0000
0000
0000
0100
,
3100
0000
1000
0010
0001
0010
1000
0001
,
0200
0000
0000
0301
0000
1001
0000
2100
,
0100
0000
0000
0000
0000
0000
3000
0000
2000
0000
0000
0000
3020
0000
0000
0030
,
1000
1000
2000
0000
3100
0000
0010
0001
,
0100
0000
0010
0100
0100
0001
1000
0010
,
0200
0000
0300
0100
0000
0011
0000
2001
,
0000
0000
0000
0000
0000
0000
0100
0000
3100
0000
0000
1000
0100
0000
0000
0000
,
0100
0010
0002
0000
0003
0010
0020
0032
,
0000
0023
0000
0130
1000
0001
0010
0001
,
0200
0000
0310
0100
0000
1001
0000
2000
,
0000
0000
0000
0000
0000
0000
0100
0000
3100
0000
0000
1000
0100
0000
0000
0000
,
0200
0000
0000
1300
0002
0000
0000
0000
0103
0000
0000
0000
0020
0000
0000
1030
,
0200
0000
0000
0310
0001
0000
0000
0000
0200
0000
0000
0310
1000
0000
0000
1000
,
0200
0000
0000
0300
0020
0000
0000
0000
0130
0000
0000
0000
0001
0000
0000
0000
,
0100
0000
0010
1000
0000
0000
0100
0000
0100
0000
0010
0000
0100
0000
1000
0000
,
0200
0000
0000
0310
0001
0000
0000
0000
0100
0000
0000
0000
0020
0000
0000
1030
,
0200
0000
0000
1300
0001
0000
0000
0000
0200
0000
0000
0310
1000
0000
0000
0001
,
0100
0000
0020
0030
0120
0030
1020
0030
,
0110
0000
0000
2000
0000
0000
3100
0000
0010
0000
0001
0000
1000
0000
1000
0000
,
0000
1000
0100
0010
0001
0010
0000
0100
,
0010
0001
0100
0010
0001
1000
0000
0001
,
0100
0000
1000
0100
1000
0010
0000
0110
,
0000
0001
0010
0100
1000
0001
0100
0002
,
0003
0000
0000
0000
;

//--------------- dance-single - Blood4Fame ----------------
#NOTES:
     dance-single:
     Blood4Fame:
     Hard:
     8:
     0,0,0,0,0:
2002
0000
0000
0000
0000
0000
3003
2020
,
0000
0000
0000
0000
0000
0000
0000
3030
,
0022
0000
0000
0000
0000
0000
0033
2002
,
0000
0000
0000
3003
0010
0000
0100
0000
,
2000
0000
0000
0001
0000
0001
3000
0102
,
0000
0000
0000
0100
0000
0100
0000
0103
,
2010
0000
0000
0010
0000
0010
3000
0220
,
0000
0330
0002
2003
,
3100
0000
0001
0100
0100
0000
0010
1000
,
0100
0000
0001
0100
0100
0000
0010
0000
,
0100
0000
1010
0100
0100
0001
0000
0002
,
0100
0000
0000
0000
0013
0000
0100
0000
0100
0000
0000
0001
0100
0000
0010
0000
,
1100
1000
0001
0100
0100
0000
0010
1000
,
0100
0000
0000
0100
0100
1000
0010
1000
,
0100
0000
0010
0001
1000
0000
0100
0000
0100
0000
0010
0000
0000
0000
0020
0000
,
0100
0000
0030
0000
0000
0000
1100
0000
0100
0000
0000
1000
0100
0000
0010
0000
,
0100
0000
0000
1000
0002
0000
0100
0000
0103
0000
0000
0000
0010
0000
0000
1000
,
0200
0000
0310
0000
0002
0000
0100
0003
0100
0000
0000
0010
2000
0000
3000
1000
,
0100
0000
0000
0000
0020
0000
0100
0000
0130
0000
1000
0000
1000
0000
1000
0001
,
0200
0000
0000
0320
0000
0000
0130
0000
0100
0000
0000
0000
0101
0000
0010
0000
,
0100
0000
0000
1000
0002
0000
0100
0000
0103
0000
0000
0000
0010
0000
0000
1000
,
0200
0000
0300
0100
0010
0000
0100
0000
0100
0000
0000
0010
0002
0000
0000
0000
,
0103
0000
1000
0100
0100
1000
0001
0001
,
0100
0000
0010
1000
0000
0010
0100
0000
0100
0000
0001
0000
0100
0000
0010
0000
,
1100
0000
0000
1001
0000
0001
0100
0000
0100
0000
0010
0000
1000
0000
0001
0000
,
0100
0000
0000
0010
0000
1000
0100
0000
0100
0000
0010
0000
0001
0000
1000
0000
,
0100
0000
0010
0001
0000
0000
0101
0000
0100
0000
0010
0000
1000
0000
1000
0000
,
0100
0000
0010
0001
0000
1000
0100
0000
0100
0000
1000
0000
0100
0000
0010
0000
,
0100
0000
1000
0001
0000
0010
0100
0000
0100
0000
0010
0000
0001
0000
1000
0000
,
0100
0000
0010
0001
0000
0001
0100
0000
0100
0000
0010
0000
1000
0000
1000
0000
,
0100
0000
1000
0010
0000
0010
0100
0000
0100
0000
0010
0000
1000
0000
1000
0000
,
0100
0000
0000
0100
0000
0010
0100
0000
0100
0000
1000
0001
0100
0000
0010
1000
,
0100
0000
1000
0001
0010
0001
0100
1000
0100
0010
0000
0001
0000
0000
1000
0000
,
0100
0000
0010
0001
1000
0000
0100
0000
0100
0010
0000
0001
0000
0000
1000
0001
,
0100
0010
1000
0001
1000
0000
0100
0010
0100
0001
0000
0001
0000
0000
0001
0000
,
0100
0000
0001
1000
0001
0000
0100
0000
0110
0000
0000
0000
0101
0000
0000
0000
,
0110
0000
0010
0000
1000
0000
0100
0000
0100
1000
0000
0010
0000
1000
0001
0000
,
0100
0000
0010
0000
1000
0000
0100
0000
0100
0010
0000
0001
0000
0001
1000
0000
,
0100
0000
0010
0000
0001
0000
0100
0000
0100
0010
0000
1000
0000
1000
0001
0000
,
0100
0010
1000
0100
1001
0000
1010
0000
,
0202
0000
0000
0000
0300
0000
0000
0100
,
0103
0000
0001
0010
0001
1000
0001
0010
,
0100
0000
1000
0010
1000
0000
0010
0000
0000
0000
1010
0000
0000
0000
0110
0000
,
0100
0000
0001
0010
0001
0000
0000
0000
0002
0000
0000
0000
0023
0000
0000
0000
,
0130
1000
2000
0000
0000
0000
0000
0100
,
3100
0000
1000
0010
0001
0010
1000
0001
,
0100
0000
0010
1000
0010
0000
1000
0000
0000
0000
1001
0000
0000
0000
2100
0000
,
0100
0000
0000
0000
0000
0000
3000
0000
2000
0000
0000
0000
3020
0000
0000
0030
,
0101
1010
2001
0100
3100
0000
0010
0001
,
0100
0000
0010
0100
0100
0001
1000
0010
,
0100
0000
0010
1000
0010
0000
0100
0000
0100
0000
0011
0000
0000
0000
2001
0000
,
0100
0000
0000
0000
0000
0000
0100
0000
3100
0000
0000
1000
0100
0000
0010
0000
,
0100
0010
0002
0100
0103
0010
0020
1030
,
0100
0020
0000
0130
0100
1000
0010
1000
,
0100
0000
0010
0001
0010
0000
0100
0000
0100
0000
1001
0000
0000
0000
2000
0000
,
0100
0000
0000
0000
0000
0000
0100
0000
3100
0000
0000
1000
0100
0000
0000
0010
,
0200
0000
0000
1300
0002
0000
0100
0000
0103
0000
0000
0000
0020
0000
0000
1030
,
0200
0000
0000
0310
0001
0000
0100
0000
0200
0000
0000
0310
1000
0000
0000
1000
,
0200
0000
0000
0300
0020
0000
0100
0000
0100
0000
0000
0000
0031
0000
0001
0000
,
0100
0000
0010
1000
0000
1000
0100
0000
0100
0000
0010
0000
0100
0000
1000
0000
,
0200
0000
0000
0310
0001
0000
0100
0000
0100
0000
0000
0000
0020
0000
0000
1030
,
0200
0000
0000
1300
0001
0000
0100
0000
0200
0000
0000
0310
1000
0000
0000
0001
,
0100
0000
0000
0000
0020
0000
0130
0000
0120
0000
1030
0000
1020
0000
0030
0020
,
0100
0000
0030
2000
0000
0000
3100
0000
0110
0000
0010
0000
1100
0000
1000
0000
,
0100
1000
0100
0010
0001
0001
1000
0100
,
0010
0001
0100
0010
0001
1000
0100
0001
,
0100
0010
1000
0100
1000
0010
1000
0110
,
1000
0001
0010
0100
1000
0001
0100
0002
,
0003
0000
0000
0000
;
