#TITLE:Infamous;
#SUBTITLE:;
#ARTIST:Abandon All Ships (feat. A-GAME);
#TITLETRANSLIT:;
#SUBTITLETRANSLIT:;
#ARTISTTRANSLIT:;
#GENRE:Metal;
#CREDIT:Blood4Fame;
#MUSIC:Infamous.mp3;
#BANNER:Banner.png;
#BACKGROUND:BG.png;
#CDTITLE:;
#SAMPLESTART:87.202;
#SAMPLELENGTH:21.880;
#SELECTABLE:YES;
#OFFSET:-0.040;
#BPMS:0.000=132.025
,68.000=66.013
,69.333=264.050
,72.000=132.025
,75.000=264.050
,76.000=132.025
,79.000=264.050
,80.000=132.025
,84.000=264.050
,88.000=132.025
,90.000=264.050
,92.000=132.025
,100.000=264.050
,101.000=132.025
,102.500=264.050
,103.500=132.025
,147.667=264.050
,150.000=132.025
,151.000=264.050
,151.833=132.025
,163.500=264.050
,168.000=132.025
,174.000=264.050
,176.000=132.025
,180.000=264.050
,184.000=132.025
,186.000=264.050
,188.500=132.025
,199.000=264.050
,200.000=132.025
,246.000=66.012
,246.750=305.048
,248.000=132.025
,294.000=66.012
,294.750=258.096
,296.000=132.025
,331.000=66.012
,333.000=264.050
;
#STOPS:75.000=0.057
,75.250=0.057
,75.500=0.057
,75.750=0.057
,79.000=0.057
,79.250=0.057
,79.500=0.057
,79.750=0.057
,84.000=0.076
,84.333=0.076
,84.667=0.076
,85.000=0.076
,85.333=0.076
,85.667=0.076
,86.000=0.076
,86.333=0.076
,86.667=0.076
,87.000=0.114
,87.500=0.114
,90.000=0.028
,90.125=0.028
,90.250=0.028
,90.375=0.028
,90.500=0.028
,90.625=0.028
,90.750=0.028
,90.875=0.028
,91.000=0.028
,91.125=0.028
,91.250=0.028
,91.375=0.028
,91.500=0.028
,91.625=0.028
,91.750=0.057
,100.000=0.057
,100.250=0.057
,100.500=0.057
,100.750=0.057
,102.500=0.057
,102.750=0.057
,103.000=0.057
,103.250=0.057
,147.667=0.076
,148.000=0.076
,148.333=0.076
,148.667=0.076
,149.000=0.076
,149.333=0.076
,149.667=0.076
,151.000=0.189
,163.500=0.038
,163.667=0.038
,163.833=0.038
,164.000=0.038
,164.167=0.038
,164.333=0.038
,164.500=0.038
,164.667=0.038
,164.833=0.038
,165.000=0.038
,165.167=0.038
,165.333=0.038
,165.500=0.038
,165.667=0.038
,165.833=0.038
,166.000=0.057
,166.250=0.057
,166.500=0.057
,166.750=0.057
,167.000=0.057
,167.250=0.057
,167.500=0.057
,167.750=0.057
,174.000=0.076
,174.333=0.076
,174.667=0.076
,175.000=0.038
,175.167=0.038
,175.333=0.038
,175.500=0.038
,175.667=0.038
,175.833=0.038
,180.000=0.151
,180.667=0.151
,181.333=0.151
,182.000=0.227
,186.000=0.057
,186.250=0.057
,186.500=0.057
,186.750=0.057
,187.000=0.076
,187.333=0.076
,187.667=0.076
,188.000=0.114
,199.000=0.426
;
#DISPLAYBPM:132.000;
#BGCHANGES:;
#FGCHANGES:;

//--------------- dance-single - Blood4Fame ----------------
#NOTES:
     dance-single:
     Blood4Fame:
     Beginner:
     2:
     0,0,0,0,0:
0010
0000
0000
0100
,
0100
0000
0000
1000
,
1000
0000
0000
0001
,
0001
0000
1000
0000
,
0010
0000
0000
0100
,
0100
0000
0000
1000
,
1000
0000
0000
0001
,
0001
0000
1000
0000
,
0020
0000
0030
0000
,
0010
0000
0000
0100
,
0100
0000
0000
1000
,
1000
0000
0000
0001
,
0001
0000
1000
0000
,
0010
0000
0000
0100
,
0100
0000
0000
1000
,
1000
0000
0000
0001
,
0001
0000
0001
0000
,
0100
0000
0000
0000
,
0100
0000
0000
0000
,
0100
0000
0000
0000
,
0100
0000
0000
0000
,
0010
0010
0010
0000
,
0100
0000
0000
0000
,
0100
0000
0000
0000
,
0001
0000
0000
0000
,
1000
0000
0000
0000
,
0010
0000
0000
0100
,
0100
0000
0000
1000
,
1000
0000
0000
0001
,
0001
0000
1000
0000
,
0010
0000
0000
0100
,
0100
0000
0000
0001
,
0001
0000
0000
1000
,
1000
0000
0001
0000
,
0100
0000
0100
0000
,
0100
0100
0100
0000
,
0010
0000
0001
0000
,
0100
0000
0010
0000
,
0100
0000
0100
0000
,
0010
0010
0010
0000
,
0001
0000
1000
0000
,
0002
0000
0000
0000
,
0003
0000
0100
0000
,
1000
1000
0000
0000
,
0001
0001
0001
0000
,
0100
0000
0200
0000
,
0000
0300
0000
0000
,
1001
0000
0000
0000
,
0000
1100
0000
0000
,
0011
0000
0000
0000
,
0010
0000
0000
0100
,
0100
0000
0000
1000
,
1000
0000
0000
0001
,
0001
0000
1000
0000
,
0010
0000
0000
0100
,
0100
0000
0000
1000
,
1000
0000
0000
0001
,
0001
0000
1000
0000
,
0100
0000
0100
0000
,
0100
0000
0100
0000
,
0100
0000
0100
0000
,
0100
0000
0000
0000
0200
0000
0000
0300
,
0100
0000
0100
0000
,
0100
0000
0100
0000
,
0100
0000
0100
0000
,
0100
0000
0100
0000
,
0010
0000
0010
0000
,
0100
0000
0100
0000
,
0001
0000
0001
0000
,
1000
0000
1000
0000
,
0100
0100
0100
0000
,
0001
0001
0001
0000
,
0010
0010
0010
0000
,
1000
1000
2000
3000
,
0010
0000
0000
0100
,
0100
0000
0000
1000
,
1000
0000
0000
0001
,
0001
0000
1000
0000
,
0010
0000
0000
0100
,
0100
0000
0000
1000
,
1000
0000
0000
0001
,
0001
0000
1000
0000
;

//--------------- dance-single - Blood4Fame ----------------
#NOTES:
     dance-single:
     Blood4Fame:
     Easy:
     4:
     0,0,0,0,0:
0010
0000
0000
0010
0000
0000
0010
0000
,
0001
0000
0000
0001
0000
0000
0001
0000
,
1000
0000
0000
1000
0000
0000
1000
0000
,
0010
0000
0000
0010
0000
0000
0100
0000
,
0010
0000
0000
0010
0000
0000
0010
0000
,
1000
0000
0000
1000
0000
0000
1000
0000
,
0001
0000
0000
0001
0000
0000
0001
0000
,
0010
0000
0000
0010
0000
0000
0200
0000
,
0000
0000
0000
0000
0000
0000
0000
0300
,
0010
0000
0000
0100
0010
0000
0000
1000
,
0100
0000
0000
0010
0100
0000
1000
0000
,
0100
0000
0000
0010
0100
0000
0001
0000
,
0100
0000
0000
0010
0100
0000
0001
0000
,
0010
0000
0000
0100
0010
0000
0001
0000
,
1100
0000
0000
0010
0100
0000
1000
0000
,
0101
0000
0100
0001
,
0200
0000
0000
0000
0000
0300
0000
0000
,
2002
0000
0000
0000
0000
0000
0000
3003
,
1000
0000
0010
0000
0001
0000
0200
0300
,
0010
0000
0000
0001
0000
0000
0001
0000
0000
0200
0000
0300
,
0000
0010
1000
0020
,
1030
0001
0001
1000
,
0000
0001
0020
0000
,
0030
0001
1000
0002
,
0003
0000
0001
0100
,
0002
0003
0000
0000
,
0020
0000
0000
0000
0000
0000
0000
0000
0000
0000
0000
0030
0001
0000
0000
0000
,
0200
0000
0300
1000
,
0200
0000
0000
0000
0000
0300
0001
0000
,
0002
0003
1000
0000
0100
0000
0100
0000
,
0020
0000
0000
0000
0030
0000
0010
0002
,
0000
0000
0003
0010
0000
0000
0001
0200
,
0000
0000
0000
0000
0000
0300
1000
0200
,
0000
0000
0000
0000
0000
0300
0010
0000
,
0100
0010
0010
0000
,
0100
0000
0000
0020
0000
0030
0001
0000
,
0100
0010
1000
0100
,
0001
0001
0100
0200
,
0320
0000
0031
0000
0100
0002
0000
2003
,
3200
0300
0000
0020
0000
0030
0010
0000
,
0100
0000
1000
0000
0100
0000
0000
0020
,
0000
0000
0000
0000
,
0030
0000
0010
0000
0020
0000
0000
0030
,
0000
1000
0200
0000
,
0300
0010
0010
0001
,
0100
0000
1001
0000
,
0000
0001
0020
0000
,
0000
0000
0030
0000
0000
0000
2000
0000
0000
0000
0000
0000
0000
0000
0000
3000
0000
0000
0000
0000
0000
0000
0000
0000
,
0000
0000
0020
0000
0000
0030
0000
0000
,
2000
0000
0000
0000
3000
0000
0000
0000
0010
0000
0000
0000
2000
0000
0000
3000
,
0020
0000
0000
0000
0000
0000
0000
0000
0000
0000
0000
0030
0001
0000
0000
0000
,
0200
0000
0300
1000
,
0200
0000
0000
0000
0000
0300
0001
0000
,
0002
0003
1000
0000
0100
0000
0100
0000
,
0020
0000
0000
0000
0030
0000
0010
0002
,
0000
0000
0003
0010
0000
0000
0001
0200
,
0000
0000
0000
0000
0000
0300
1000
0200
,
0000
0000
0000
0000
0000
0300
0010
0000
,
0100
0000
0100
0000
,
0100
0000
0100
1000
,
0100
0000
0100
0000
,
0100
0000
0000
0010
0000
0000
0000
0000
0200
0000
0300
0000
0000
0000
0000
0000
,
0100
0000
0000
1000
0000
0000
0000
0000
0100
0000
0000
0000
0000
0000
0000
0000
,
0100
0000
0000
0001
0000
0000
0000
0000
0100
0000
0000
0010
0000
0000
0000
0000
,
0100
0000
0000
1000
0000
0000
0000
0000
0100
0000
0000
0010
0000
0000
0000
0000
,
0100
0000
0000
0000
1000
0000
0000
0000
0100
0000
0000
0010
0000
0000
0000
0000
,
0100
0000
0000
0000
0010
0000
0000
0000
0100
0000
0000
0001
0000
0000
0000
0000
,
0100
0000
0000
0000
0001
0000
0000
0000
0100
0000
0000
0010
0000
0000
0000
0000
,
0100
0000
0000
0010
0000
0000
0000
0000
0100
0000
0000
1000
0000
0000
0000
0000
,
0100
0000
0000
0000
0001
0000
0000
0000
0100
0000
0000
0010
0000
0000
0000
0000
,
0100
0000
0000
0001
0000
0000
0000
0000
0100
0000
0000
1000
0000
0000
0000
0000
,
0100
0000
0100
0000
,
0100
0000
0000
0001
0000
0000
0000
0000
0100
0000
0000
0001
0000
0000
0000
0000
,
0010
0000
0000
1000
0000
0001
0000
0000
0020
0000
0000
0000
0030
0000
0000
0000
,
0020
0000
0000
0000
0000
0000
0000
0000
0000
0000
0000
0030
0001
0000
0000
0000
,
0200
0000
0300
1000
,
0200
0000
0000
0000
0000
0300
0001
0000
,
0002
0003
1000
0000
0100
0000
0100
0000
,
0020
0000
0000
0000
0030
0000
0010
0002
,
0000
0000
0003
0010
0000
0000
0001
0200
,
0000
0000
0000
0000
0000
0300
1000
0200
,
0000
0000
0000
0000
0000
0300
0010
0200
,
0000
0000
0000
0000
,
0300
0000
0000
0000
;

//--------------- dance-single - Blood4Fame ----------------
#NOTES:
     dance-single:
     Blood4Fame:
     Medium:
     7:
     0,0,0,0,0:
0010
0000
0000
0010
0000
0000
0010
0000
0000
0010
0000
0000
0010
0000
1000
0000
,
0001
0000
0000
0001
0000
0000
0001
0000
0000
0001
0000
0000
0001
0000
0010
0000
,
1000
0000
0000
1000
0000
0000
1000
0000
0000
1000
0000
0000
1000
0000
0001
0000
,
0010
0000
0000
0010
0000
0000
0010
0000
0000
0100
0000
0000
0100
0000
0100
0000
,
0010
0000
0000
0010
0000
0000
0010
0000
0000
0010
0000
0000
0010
0000
0001
0000
,
1000
0000
0000
1000
0000
0000
1000
0000
0000
1000
0000
0000
1000
0000
0010
0000
,
0001
0000
0000
0001
0000
0000
0001
0000
0000
0001
0000
0000
0001
0000
1000
0000
,
0010
0000
0000
0010
0000
0000
0010
0000
0000
0100
0000
0000
0100
0000
0200
0000
,
0000
0000
0000
0000
0000
0000
0000
0300
,
0010
0000
0000
0010
0000
0000
0100
0000
0010
0000
0000
0010
0000
0000
1000
0000
,
1100
0000
0000
0100
0000
0000
0010
0000
0100
0000
0000
0000
1000
0000
0001
0000
,
0100
0000
0000
0100
0000
0000
0010
0000
0100
0000
0000
0000
0001
0000
1000
0000
,
0100
0000
0000
0100
0000
0000
0010
0000
0100
0000
1000
0000
0001
0000
1000
0000
,
0011
0000
0000
0010
0000
0000
0100
0000
0010
0000
0000
0000
0001
0000
1000
0000
,
1100
0000
0000
0100
0000
0000
0010
0000
0100
0000
0000
0000
1000
0000
0001
0000
,
0101
0000
0000
0100
0000
0000
0000
0000
0100
0000
0000
0000
0001
0000
1000
0000
,
0200
0000
0000
0000
0000
0300
0000
0000
,
2002
0000
0000
0000
0000
0000
0000
3003
,
1000
0100
0010
0010
0001
0010
0200
0300
,
0010
0000
0000
0001
0000
0000
0001
0000
0000
0010
0000
0000
0001
0000
0000
0010
0000
0000
0200
0000
0000
0000
0300
0000
,
0000
0100
0010
0001
1000
0010
0020
0200
,
1330
0100
0001
0010
0001
0100
1000
0020
,
0030
1000
0001
0100
0020
0000
0000
0000
,
0030
0010
0001
0010
1000
0010
0002
0000
,
0003
0000
1000
0000
0000
0100
0000
0000
0001
0000
0010
0000
0100
0000
0010
0000
,
0002
0000
0003
0100
0010
0002
0000
0003
,
0020
0000
0000
0001
0000
0000
0001
0000
0000
0001
0000
0030
0001
0000
1000
0000
,
0200
0000
0000
1300
0000
0000
1000
0000
0000
1000
0000
0000
1000
0000
0001
0000
,
0100
0000
0000
0100
0000
0000
0010
0000
0100
0000
0000
0000
0001
0000
1000
0000
,
0002
0000
0000
0100
0000
0000
0100
0000
0100
0000
0000
0100
0003
0000
1000
0000
,
0010
0000
0000
0010
0000
0000
0100
0000
0010
0000
0000
0000
0001
0000
1000
0000
,
0100
0000
0000
0100
0000
0000
0010
0000
0100
0000
0000
0000
1000
0000
0001
0000
,
0200
0000
0000
0001
0000
0000
0001
0000
0000
0001
0000
0300
0001
0000
1000
0000
,
0200
0000
0000
1000
0000
0000
1300
0000
0000
0000
0100
0000
0010
0000
0100
0000
,
0000
0000
0000
1000
0000
0000
0010
0000
0000
0100
0000
0000
0010
0000
0000
0000
0010
0000
0000
0000
0000
1000
0000
0000
,
0100
0010
0000
0020
0000
0030
0001
0000
,
0100
0000
0010
0000
1000
0000
0100
0020
,
0001
0000
0001
0000
0100
0030
0200
0000
,
0320
0000
0031
0010
0100
0002
0000
2003
,
3200
0320
0030
0020
0000
0030
1010
0000
,
1100
0000
1001
0000
0100
0001
0000
0020
,
0000
0000
0000
0000
,
0030
0100
0010
0001
0020
0000
0000
0030
,
0000
0001
1000
0010
0200
0000
0000
0000
,
0300
0020
0000
0130
0010
0100
0001
1000
,
0100
0000
0100
0000
0100
0000
1001
0000
0000
0000
0000
0000
,
0000
0100
0001
1000
0020
0000
0000
0000
,
0000
0000
0000
0000
0000
0000
0000
0000
0030
0000
0000
0000
0000
0000
0000
0000
0000
0000
0000
0000
0000
0000
0000
0000
1000
0000
0000
0000
0000
0000
0000
0000
0000
0100
0000
0000
0000
0000
0000
0000
0000
0000
0000
0000
0000
0010
0000
0000
0000
0000
0000
0000
0000
0000
0000
0000
0000
1000
0000
0000
0000
0000
0000
0000
0000
0000
0000
0000
0000
0001
0000
0000
0000
0000
0000
0000
0000
0000
0000
0000
0000
0000
0000
0000
0010
0000
0000
0000
0000
0000
0000
0000
0000
0000
0000
0000
,
0000
0000
0000
0000
0000
0000
0000
0000
0010
0000
0000
0000
0000
1000
0000
0000
0000
0000
0000
0000
0100
0000
0000
0010
0000
0000
0000
0000
0010
0000
0000
0000
,
1000
0000
0001
0000
0000
0000
0000
0000
0010
0000
0100
0000
2000
0000
0000
3000
,
0020
0000
0000
0001
0000
0000
0001
0000
0000
0001
0000
0030
0001
0000
1000
0000
,
0200
0000
0000
1300
0000
0000
1000
0000
0000
1000
0000
0000
1000
0000
0001
0000
,
0100
0000
0000
0100
0000
0000
0010
0000
0100
0000
0000
0000
0001
0000
1000
0000
,
0002
0000
0000
0100
0000
0000
0100
0000
0100
0000
0000
0100
0003
0000
1000
0000
,
0010
0000
0000
0010
0000
0000
0100
0000
0010
0000
0000
0000
0001
0000
1000
0000
,
0100
0000
0000
0100
0000
0000
0010
0000
0100
0000
0000
0000
1000
0000
0001
0000
,
0200
0000
0000
0001
0000
0000
0001
0000
0000
0001
0000
0300
0001
0000
1000
0000
,
0200
0000
0000
1000
0000
0000
1300
0000
0000
0000
0100
0000
0010
0000
0100
0000
,
0100
0000
0000
0100
0100
0000
0000
0100
,
0100
0010
0000
0100
0100
0001
1000
0100
,
0100
0000
0000
0100
0100
0000
0000
0100
,
0100
0000
0000
0010
0000
0000
0100
0000
0200
0000
0300
0100
0000
0000
0000
0000
,
0100
0000
0000
1000
0000
0000
0100
0000
0100
0000
0000
0000
0000
0000
0100
0000
,
0100
0000
0000
0001
0000
0000
0100
0000
0100
0000
0000
0010
0000
0000
0100
0000
,
0100
0000
0000
1000
0000
0000
0100
0000
0100
0000
0000
0010
0000
0000
0100
0000
,
0100
0000
1000
0000
1000
0000
0100
0000
0100
0000
0000
0010
0000
0000
0100
0000
,
0100
0000
1000
0000
0010
0000
0100
0000
0100
0000
0000
0001
0000
0000
0100
0000
,
0100
0000
0010
0000
0001
0000
0100
0000
0100
0000
0000
0010
0000
0000
0100
0000
,
0100
0000
0000
0010
0000
0000
0100
0000
0100
0000
0000
1000
0000
0000
0100
0000
,
0100
0000
0010
0000
0001
0000
0100
0000
0100
0000
0000
0010
0000
0000
0100
0000
,
0100
0000
0000
0001
0000
0000
0100
0000
0100
0000
0000
1000
0000
0000
0100
0000
,
0100
0010
0000
0100
0100
0000
0000
0100
,
0100
0000
0011
0001
0000
0000
0100
0000
0100
0000
0000
0001
0000
0000
0100
0000
,
0010
0000
0001
1000
0000
0001
0100
0000
0020
0000
0000
0000
0030
0000
0000
0000
,
0020
0000
0000
0001
0000
0000
0001
0000
0000
0001
0000
0030
0001
0000
1000
0000
,
0200
0000
0000
1300
0000
0000
1000
0000
0000
1000
0000
0000
1000
0000
0001
0000
,
0100
0000
0000
0100
0000
0000
0010
0000
0100
0000
0000
0000
0001
0000
1000
0000
,
0002
0000
0000
0100
0000
0000
0100
0000
0100
0000
0000
0100
0003
0000
1000
0000
,
0010
0000
0000
0010
0000
0000
0100
0000
0010
0000
0000
0000
0001
0000
1000
0000
,
0100
0000
0000
0100
0000
0000
0010
0000
0100
0000
0000
0000
1000
0000
0001
0000
,
0200
0000
0000
0001
0000
0000
0001
0000
0000
0001
0000
0300
0001
0000
1000
0000
,
0200
0000
0000
1000
0000
0000
1300
0000
0000
0000
0100
0000
0010
0000
0200
0000
,
0000
0000
0000
0000
,
0300
0000
0000
0000
;

//--------------- dance-single - Blood4Fame ----------------
#NOTES:
     dance-single:
     Blood4Fame:
     Hard:
     8:
     0,0,0,0,0:
0010
0000
0000
0010
0000
0000
0010
0000
0000
0010
0000
0000
0010
0000
1000
0000
,
0001
0000
0000
0001
0000
0000
0001
0000
0000
0001
0000
0000
0001
0000
0010
0000
,
0100
0000
0000
0100
0000
0000
0100
0000
0000
0100
0000
0000
0100
0000
1000
0000
,
0010
0000
0000
0010
0000
0000
0010
0000
0000
0100
0000
0000
0100
0000
0100
0000
,
0010
0000
0000
0010
0000
0000
0010
0000
0000
0010
0000
0000
0010
0000
1000
0000
,
0001
0000
0000
0001
0000
0000
0001
0000
0000
0001
0000
0000
0001
0000
0010
0000
,
0001
0000
0000
1000
0000
0000
1000
0000
0000
1000
0000
0000
1000
0000
0100
0000
,
0010
0000
0000
0010
0000
0000
0010
0000
0000
0100
0000
0000
0100
0000
0200
0000
,
0000
0000
0000
0000
0000
0000
0000
0300
,
0011
0000
0000
0010
0000
0000
0100
0000
0010
0001
0000
0010
0001
0000
1000
0000
,
1100
0000
0000
0100
0000
0000
0010
0000
0100
1000
0000
0100
1000
0000
0001
0000
,
0101
0000
0000
0100
0000
0000
0010
0000
0100
0001
0000
0100
0001
0000
1000
0000
,
0101
0000
0000
0100
0000
0000
0010
0000
0100
0001
1000
0100
1000
0010
1000
0000
,
0110
0000
0000
0010
0000
0000
0100
0000
0010
1000
0000
0010
1000
0000
1000
0000
,
1100
0000
0000
0100
0000
0000
0010
0000
0100
0010
0000
0100
1000
0000
0001
0000
,
0101
0000
0000
0100
0000
0000
0000
0000
0100
0000
0000
0000
0001
0000
1000
0000
,
0200
0000
0000
0000
0000
0300
0000
0000
,
2002
0000
0000
0000
0000
0000
0000
3003
,
1100
0100
0110
0010
0011
0010
0200
0300
,
0010
0000
0000
0001
0000
0000
0001
0000
0000
0010
0000
0000
0001
0000
0000
0010
0000
0000
0200
0000
0000
0000
0300
0000
,
0000
0100
0010
0001
1000
0010
0020
0200
,
1330
0000
0100
0000
0010
0000
1000
0000
0100
0000
0010
0000
0001
0000
0010
0000
0100
0000
1000
0000
0000
0020
0000
0000
,
0030
1000
0001
0100
2020
0000
0000
0000
,
3030
0010
1000
0001
1000
0100
0022
0000
,
0033
0000
1000
0000
0000
0100
0000
0000
1000
0000
0010
0000
0100
0000
0010
0000
,
2020
0000
3030
0100
0010
2002
0000
3003
,
0020
0000
0000
0001
0000
0000
0001
0000
0000
0001
0000
0030
0001
0000
1000
0000
,
0200
0000
0000
1300
0000
0000
1000
0000
0000
1000
0000
0000
1000
0000
0001
0000
,
0101
0000
0000
0100
0000
0000
0010
0000
0100
0001
0000
0100
0001
0000
1000
0000
,
0002
0000
0000
0100
0000
0000
0100
0000
0100
0000
0000
0100
0003
0000
1000
0000
,
0011
0000
0000
0010
0000
0000
0100
0000
0010
0001
0000
0000
0001
0000
1000
0000
,
1100
0000
0000
0100
0000
0000
0010
0000
0100
1000
0000
0100
1000
0000
0001
0000
,
0200
0000
0000
0001
0000
0000
0001
0000
0000
0001
0000
0300
0001
0000
1000
0000
,
0200
0000
0000
1000
0000
0000
1300
0000
0000
0000
0100
0000
0010
0000
0100
0000
,
0000
0000
0000
1000
0000
0000
0010
0000
0000
0100
0000
0000
0010
0000
0000
0000
0010
0000
0000
0000
0000
1000
0000
0000
,
0100
0010
0000
0022
0000
0033
0001
0000
,
0100
0000
0010
0000
1000
0000
0100
0020
,
0001
0000
0001
0000
0100
0030
0200
0000
,
0320
0000
0031
0010
0100
2000
0000
3002
,
0203
0320
0030
0020
0000
0030
1010
0000
,
1100
0000
1001
0000
0101
0001
0000
0020
,
0000
0000
0000
0000
,
0030
0100
0010
0001
0020
0000
0000
0030
,
0000
0001
1000
0010
0200
0000
0000
0000
,
0300
0020
0000
0130
0010
0100
0001
1000
,
0100
0000
0100
0000
0100
0000
1001
0000
0000
0000
0000
0000
,
0000
0100
0001
1000
0020
0000
0000
0000
,
0000
0000
0000
0000
0000
0000
0000
0000
0030
0000
0000
0000
0000
0000
0000
0000
0000
0000
0000
0000
0000
0000
0000
0000
1000
0000
0000
0000
0000
0000
0000
0000
0000
0100
0000
0000
0000
0000
0000
0000
0000
0000
0000
0000
0000
0010
0000
0000
0000
0000
0000
0000
0000
0000
0000
0000
0000
0001
0000
0000
0000
0000
0000
0000
0000
0000
0000
0000
0000
1000
0000
0000
0000
0000
0000
0000
0000
0000
0000
0000
0000
0000
0000
0000
0010
0000
0000
0000
0000
0000
0000
0000
0000
0000
0000
0000
,
0000
0000
0000
0000
0000
0000
0000
0000
0010
0000
0000
0000
0000
1000
0000
0000
0000
0000
0000
0000
0100
0000
0000
0010
0000
0000
0000
0000
0010
0000
0000
0000
,
0001
0000
0020
0000
0000
0030
0000
0000
0010
0000
0100
0000
2000
0000
0000
3000
,
0020
0000
0000
0001
0000
0000
0001
0000
0000
0001
0000
0030
0001
0000
1000
0000
,
0200
0000
0000
1300
0000
0000
1000
0000
0000
1000
0000
0000
1000
0000
0001
0000
,
0101
0000
0000
0100
0000
0000
0010
0000
0100
0001
0000
0100
0001
0000
1000
0000
,
0002
0000
0000
0100
0000
0000
0100
0000
0100
0000
0000
0100
0003
0000
1000
0000
,
0011
0000
0000
0010
0000
0000
0100
0000
0010
0001
0000
0000
0001
0000
1000
0000
,
1100
0000
0000
0100
0000
0000
0010
0000
0100
1000
0000
0100
1000
0000
0001
0000
,
0200
0000
0000
0001
0000
0000
0001
0000
0000
0001
0000
0300
0001
0000
1000
0000
,
0200
0000
0000
1000
0000
0000
1300
0000
0000
0000
0100
0000
0010
0000
0100
0000
,
0100
0000
0000
0100
0100
0000
0000
0100
,
0100
0000
0010
0001
0000
0000
0100
0000
0100
0000
0001
0000
1000
0000
0100
0000
,
0100
0000
0000
0100
0100
0000
0000
0100
,
0100
0000
0000
0010
0000
0000
0100
0000
0200
0000
0300
0100
0000
0000
0000
0000
,
0100
0000
0000
1000
0000
0000
0100
0000
0100
0000
0000
0000
0000
0000
0100
0000
,
0100
0000
0000
0001
0000
0000
0100
0000
0100
0000
0000
0010
0000
0000
0100
0000
,
0100
0000
0000
1000
0000
0000
0100
0000
0100
0000
0000
0010
0000
0000
0100
0000
,
0100
0000
1000
0001
1000
0001
0100
0000
0100
0000
0000
0010
0000
0000
0100
0000
,
0100
0000
1000
0100
0010
0000
0100
0000
0100
0000
0000
0001
0000
0000
0100
0000
,
0100
0000
0010
1000
0001
0010
0100
0000
0100
0000
0000
0010
0000
0000
0100
0000
,
0100
0000
0000
0010
0000
0000
0100
0000
0100
0000
0000
1000
0000
0000
0100
0000
,
0100
0000
0010
0000
0001
0000
0100
0000
0100
0000
0000
0010
0000
0000
0100
0000
,
0100
0000
0000
0001
0000
0000
0100
0000
0100
0000
0000
1000
0000
0000
0100
0000
,
0100
0000
0010
0001
0000
0000
0100
0000
0100
0000
0000
0000
0000
0000
0100
0000
,
0100
0000
0010
1000
0000
1000
0100
0000
0100
0000
0000
0001
0000
0000
0100
0000
,
0010
0000
0001
1000
0000
0001
0100
0000
0020
0000
0000
0000
0030
0000
0000
0000
,
0020
0000
0000
1000
0000
0000
1000
0000
0000
1000
0000
0030
1000
0000
1000
0000
,
0200
0000
0000
1300
0000
0000
1000
0000
0000
1000
0000
0000
1000
0000
0001
0000
,
0101
0000
0000
0100
0000
0000
0010
0000
0100
0001
0000
0100
0001
0000
1000
0000
,
0002
0000
0000
0100
0000
0000
0100
0000
0100
0000
0000
0100
0003
0000
1000
0000
,
0011
0000
0000
0010
0000
0000
0100
0000
0010
0001
0000
0000
0001
0000
1000
0000
,
1100
0000
0000
0100
0000
0000
0010
0000
0100
1000
0000
0100
1000
0000
0001
0000
,
0200
0000
0000
0001
0000
0000
0001
0000
0000
0001
0000
0300
0001
0000
1000
0000
,
0200
0000
0000
1000
0000
0000
1300
0000
0000
0000
0100
0000
0010
0000
0200
0000
,
0000
0000
0000
0000
0000
0000
0000
0300
;
