#TITLE:In the Balance;
#SUBTITLE:[Return to Ashes Mix];
#ARTIST:メタモエ;
#TITLETRANSLIT:;
#SUBTITLETRANSLIT:;
#ARTISTTRANSLIT:Metamoe Project;
#GENRE:Classical Remix;
#CREDIT:Blood4Fame;
#MUSIC:music.mp3;
#BANNER:banner.png;
#BACKGROUND:bg.png;
#CDTITLE:;
#SAMPLESTART:0.000;
#SAMPLELENGTH:0.000;
#SELECTABLE:YES;
#OFFSET:-0.073;
#BPMS:0.000=105.000
,8.000=210.000
,10.000=105.000
,12.000=210.000
,14.000=105.000
,16.000=210.000
,18.000=105.000
,20.000=210.000
,32.000=105.000
,35.000=210.000
,41.000=105.000
,44.000=210.000
,50.000=105.000
,53.000=210.000
,59.000=105.000
,62.000=210.000
,68.000=105.000
,71.000=210.000
,77.000=105.000
,80.000=210.000
,86.000=105.000
,89.000=210.000
,95.000=105.000
,98.000=210.000
,104.000=105.000
,107.000=210.000
,113.000=105.000
,116.000=210.000
,122.000=105.000
,125.000=210.000
,131.000=105.000
,134.000=52.500
,145.500=105.000
,146.000=105.000
,255.000=210.000
,267.000=420.000
,268.000=210.000
,279.000=105.000
;
#STOPS:145.500=0.095
,145.667=0.095
,145.833=0.095
,174.000=1.143
,267.000=0.143
;
#BGCHANGES:;
#FGCHANGES:;

//--------------- dance-single - Blood4Fame ----------------
#NOTES:
     dance-single:
     Blood4Fame:
     Easy:
     3:
     0,0,0,0,0:
0000
0000
0000
0000
,
0000
0000
0000
0000
,
1001
0000
0000
0000
,
1001
0000
0000
0000
,
1100
0000
0000
0000
,
1001
0000
0000
0000
,
0000
0000
0101
0000
,
0000
0000
0000
0000
,
1000
0001
0001
0100
,
0000
0000
0000
0000
,
0000
1000
0100
1000
,
0001
0000
0000
0000
,
0000
0000
0010
0100
,
0010
0010
0000
0000
,
0000
0000
0000
1000
,
0100
0010
0001
0000
,
0000
0000
0000
0000
,
0001
0010
0100
1000
,
0000
0000
0000
0000
,
0000
0001
0100
0010
,
0001
0000
0000
0000
,
0000
0000
1000
0010
,
0100
0010
0000
0000
,
0000
0000
0000
1000
,
0100
1000
0001
0000
,
0000
0000
0000
0000
,
1000
0001
0001
1000
,
0000
0000
0000
0000
,
0000
0010
0100
0010
,
1000
0000
0000
0000
,
0000
0000
1000
0001
,
0001
1000
0000
0000
,
0000
0000
0000
1000
,
0001
0000
0010
0000
0001
0000
0001
0100
,
0000
0000
0100
0000
0100
0010
0000
0000
,
1000
0000
1000
0100
0000
0000
0001
0000
,
0001
0010
0000
0000
0100
0000
0000
0000
,
0100
0010
0000
0010
,
1000
0000
1000
0100
,
0000
0001
0010
0000
,
0001
0100
0000
0000
,
1000
0000
0001
0100
,
0000
0100
0010
0000
,
0010
1000
0000
1000
,
0000
1000
0000
0000
1000
0000
0001
0000
,
0000
0001
0000
0000
0001
0000
0100
0000
,
0000
0100
0000
0000
0100
0000
0010
0000
,
0000
0010
0000
0000
0010
0000
1000
0000
,
0000
0001
1000
0100
,
0000
1000
0001
0100
,
0000
0001
0100
0010
,
0000
1000
0100
0010
,
0000
0010
0010
0100
,
0000
0100
0100
0010
,
0000
0010
1000
1000
,
0000
0001
0001
0001
,
0000
0010
0001
0001
,
0000
0100
0010
0100
,
0000
0001
0100
0001
,
0000
1000
0100
1000
,
0000
0001
0100
0001
,
0001
0001
0001
0001
,
0000
1000
0000
0001
,
0000
0100
0000
0010
,
0000
0000
0000
0010
,
0000
0000
0000
1000
,
0000
0000
0000
0000
,
1001
0000
0000
0000
,
0000
0000
0000
0000
,
0000
0000
0000
1001
;

//--------------- dance-single - Blood4Fame ----------------
#NOTES:
     dance-single:
     Blood4Fame:
     Medium:
     7:
     0,0,0,0,0:
0000
0000
0000
0000
,
0000
0000
0000
0000
,
1001
0000
0000
0000
0000
0000
0100
0010
,
1010
0000
0000
0000
0000
0000
0100
0010
,
0101
0000
0000
0000
0000
0000
0010
0001
,
1001
0000
0000
0000
,
0010
0000
0001
0000
1001
0000
0000
1000
,
0000
0100
0010
0001
,
0100
0001
0010
0001
0100
0010
1000
0000
,
0000
0100
0000
0000
1000
0000
0010
0000
,
0100
0000
0001
0100
0010
1000
0100
0010
,
0001
0000
0000
0100
0000
0000
0010
0000
,
0001
0000
0010
0000
1000
0100
0010
0001
,
0100
0010
1000
0000
0000
0100
0000
0000
,
1000
0000
0001
0000
0100
0000
0010
1000
,
0100
0010
0001
1000
0010
0000
0000
0100
,
0000
0001
1000
0001
,
1000
0100
1000
0100
0010
0100
0010
0000
,
0000
0001
0000
0000
0010
0000
0100
0000
,
0010
0000
0010
0001
0100
0010
1000
0100
,
0010
0000
0000
0100
0000
0000
0010
0000
,
0001
0000
1000
0000
0001
0010
1000
0010
,
0100
1000
0100
0000
0000
1000
0000
0000
,
0001
0000
0100
0000
0010
0000
0010
1000
,
0001
0100
0010
0100
0101
0000
0000
0011
,
0000
0100
0001
1000
,
0100
1000
0100
0010
0100
1000
1010
0000
,
0000
1100
0000
0000
0001
0000
0100
0000
,
0010
0000
0100
0001
1000
0100
1000
0001
,
0101
0000
0000
1001
0000
0000
0100
0000
,
0001
0000
0010
0000
0001
1000
0100
1000
,
0001
0100
0110
0000
0000
1010
0000
0000
,
1000
0000
0001
0000
1000
0000
0010
0100
,
0010
1000
0100
0010
0100
0100
1000
0002
,
0000
0003
0100
0010
1000
0200
0000
0300
,
1000
0001
0010
0020
0000
0030
0100
0010
,
0001
0100
0010
0000
1000
0000
2000
0000
,
3001
1000
0002
0000
0000
0000
0013
0000
,
0100
0000
0010
0000
0001
0100
0002
0000
,
0000
0013
0200
0000
1300
0000
0001
0000
,
0100
0010
2000
0000
3000
2000
0100
0000
,
3002
0000
0003
0002
0100
0000
2003
0000
,
0000
3010
2200
0000
,
0000
0000
0000
0000
0000
3300
1000
0000
,
1001
1000
0001
0100
,
0101
0100
0010
1000
,
1100
1000
0001
0010
,
0011
0010
0001
1100
,
0000
0010
0000
0000
0110
0000
1001
0000
,
0000
0001
0000
0000
0110
0000
1100
0000
,
0000
0010
0000
0000
0101
0000
0110
0000
,
0000
0000
1010
0000
1100
0000
1001
1000
,
0001
1000
0100
0010
0200
0010
1300
0001
,
0200
0010
0301
0100
0010
1000
0110
0100
,
1000
0100
0010
0001
0100
0010
1000
0100
,
0010
0001
0010
0100
0010
0001
0100
0010
,
1000
0001
0100
0010
1000
0001
0100
0001
,
0100
0010
0100
0001
1000
0100
0010
0100
,
1000
0001
0100
0010
1000
0010
0100
0001
,
1000
0100
0001
0100
0010
0100
1000
1000
,
0001
0100
0001
0100
0010
0010
1000
0100
,
0010
0000
0010
0000
0001
0000
0100
0000
0010
0000
0010
0000
1010
0000
0000
1100
,
0000
0000
2002
0000
0000
0000
0000
0000
3003
0000
0000
0000
0011
0000
0000
0101
,
0000
2002
0000
0000
3003
0000
0010
0000
,
1000
0100
0010
0001
,
0100
0010
1000
0100
,
0010
0001
0100
0000
,
2020
0000
0000
0000
,
0000
0000
0000
0000
,
0000
0000
0000
0000
0000
3030
2002
0000
,
0000
3003
0000
0000
0000
0000
0000
0000
0000
0000
0000
0000
0000
0000
0000
0000
;

//--------------- dance-single - Blood4Fame ----------------
#NOTES:
     dance-single:
     Blood4Fame:
     Hard:
     10:
     0,0,0,0,0:
0000
0000
0000
0000
,
0000
0000
0000
0000
,
0001
0000
1000
0000
0001
0000
0100
0000
0000
0010
0100
0000
0001
0010
0100
1000
,
0001
0000
1000
0000
0001
0000
1000
0000
0000
0100
0010
0000
0001
0100
0010
1000
,
0001
0000
1000
0000
0001
0000
0010
0000
0000
0100
1000
0000
0001
0100
0010
1000
,
0001
1000
0001
1000
0000
0010
1000
0000
,
0001
0010
0100
0010
0001
0000
0100
0001
,
0000
0100
0001
0000
0010
0100
0010
0000
,
1000
0000
0001
0100
0000
0001
0010
0000
0100
1000
0100
0000
0010
0000
0000
0000
,
0001
0100
0000
0001
0010
0000
0001
0100
,
0010
0000
1000
0000
0100
0000
1000
0010
0000
0100
0010
0000
1000
0001
0100
0000
,
0010
0000
1000
0010
0000
0100
0010
0000
,
1000
0000
0001
0000
0100
0000
0000
0000
1000
0000
0000
0100
0000
0000
0010
0000
,
1000
0010
0100
0000
0001
0000
0000
0000
0010
0000
0001
0000
0000
0000
0001
0000
,
1000
0000
0000
0000
0100
0000
0010
0000
0001
0000
0000
0000
1000
0100
0000
1000
,
0000
0010
0100
0000
0001
0010
0100
0000
1000
0000
0100
0000
0000
0000
0010
0000
,
0000
0001
0100
0000
0001
0000
0010
0000
,
0100
1000
0000
0010
0000
0000
1000
0100
0010
0000
0001
0000
0100
0000
0010
0000
,
0000
1000
0000
0000
0001
0000
0010
0001
,
0010
0000
0000
0000
0100
0000
1000
0100
0000
0010
0001
0100
0010
0100
0001
1000
,
0100
0000
0010
0001
0000
0001
0100
0000
,
0010
0000
1000
0000
0010
0000
0000
0000
0100
0000
0000
0100
0000
0000
0010
0000
,
0010
1000
0001
0000
0100
0000
0000
0000
0100
0000
0001
0000
0000
0000
0001
0000
,
1000
0000
0000
0000
0100
0000
1000
0000
0100
0000
0000
0000
0010
0001
0010
0100
,
0000
0010
0001
0000
1000
0100
0010
0000
0002
0000
0000
0000
0000
0000
1000
0000
,
0000
0000
0103
0000
0010
1000
0010
0000
,
0200
0000
0000
0010
0000
0000
0301
0000
1000
0010
1000
0000
2000
0000
0000
0000
,
0100
0000
3010
0000
0100
0010
0100
0000
,
0001
0000
0000
0000
2000
0000
0000
3010
0000
0000
0200
0000
0010
0000
0301
0000
,
0100
0000
0000
0101
0000
0000
1010
0000
,
0001
0000
0000
0000
0010
0000
0000
0000
0100
1000
0000
0010
1000
0000
0100
0000
,
0010
0001
0011
0000
0000
0101
0000
0000
,
1000
0000
0000
0000
0010
0000
0000
0000
0100
0000
0000
0000
0010
0000
1000
0100
,
0000
1000
0001
0000
0001
0000
0010
0000
0100
0100
1000
0010
0100
0010
1000
0100
,
0001
0100
0010
0001
0001
0100
0010
1000
0010
0010
0100
0010
1000
0100
0010
0000
,
0001
1000
0010
0100
1000
0100
0010
1000
0100
0010
0001
0100
0100
0001
1000
0100
,
0010
0000
0000
0001
0000
0000
0001
0000
0000
0100
0000
0000
0010
0000
0000
1000
0000
0000
0001
0000
0100
0000
0001
0000
1000
0000
0000
0000
0000
0000
0000
0000
0000
1000
0000
0000
0001
0000
0000
0000
0000
0000
0100
0000
0000
0000
0000
0000
,
0010
0000
1000
0000
0100
0000
0000
0100
0010
0000
0001
0000
0100
0000
0010
0000
,
1000
0000
0000
0100
0010
0000
0001
0000
0100
0000
0010
0000
0100
0000
1000
0000
,
0100
0000
0010
0000
1000
0000
0000
0000
0001
0000
0000
0001
0010
0000
0100
0000
,
0010
0000
0001
0000
1000
0000
0000
0100
0010
0000
0001
0000
0100
0000
0001
0000
,
0010
0000
0000
0010
0100
0000
1000
0000
0100
0000
0010
0001
0100
0000
0000
0001
,
0000
0000
1000
0000
0010
1000
0000
0000
0100
0000
0000
0010
0000
0000
0001
0000
,
0100
0010
0000
0000
2000
0000
0000
0000
3000
0000
0000
0000
1100
0000
0000
0000
,
1000
0001
0100
0000
0010
1000
1100
0000
,
0010
0001
0100
0000
0010
1000
0101
0000
,
0100
0010
0100
0001
0100
1000
0200
0000
,
0310
0000
2000
0000
0000
0000
3100
0000
0010
0001
0010
0000
0100
0000
0000
0001
,
0000
0000
0100
0000
1000
0000
0000
0000
0010
0000
0100
0000
1000
0000
0000
0100
,
0010
0000
1000
0000
0000
0100
0010
0000
0001
0000
0100
0000
0002
0000
0000
0000
,
0023
0000
0100
0000
0000
0000
0031
0000
0200
0000
0000
0000
0301
1000
0000
0000
,
1001
0000
1000
0200
0010
0000
1300
0100
0020
0000
0031
0010
0001
0000
0001
0000
,
1000
0000
0100
0000
0000
0000
0001
0000
0001
0000
0100
0000
0010
0000
0000
1000
,
0000
0000
1000
0000
0000
1000
0001
0000
0010
0000
0001
0000
1000
0000
1000
0000
,
0100
0000
0010
0000
0000
0010
0000
0000
0001
0000
0100
0000
0010
0000
0000
0100
,
0000
0000
0001
0000
0001
0100
0010
0100
0000
0001
0100
0000
0002
0000
0000
0000
,
1000
0000
2003
0000
0000
0100
0000
0000
3100
0000
0010
0000
0002
0000
0000
0010
,
0000
0000
0013
0000
0002
0100
0000
0000
1003
0200
0000
0000
1300
0000
1000
0000
,
0100
0100
1000
1000
0001
0001
0100
0100
,
0010
0010
0100
0100
0001
0001
1000
1000
,
0100
0100
1000
1000
0001
0001
0010
0010
,
0001
0000
0001
0000
0100
0000
0100
0000
0001
0000
0001
0000
1000
0000
0000
2100
,
0000
0000
0002
0000
0000
3003
0001
0100
0010
0000
1000
0000
1000
0000
0000
2100
,
0000
0000
0002
0000
3003
0000
1000
0010
0100
0000
0001
0000
0010
0000
0100
0000
,
0010
0001
1000
0100
0010
0001
1000
0010
,
0100
0001
1000
0001
0100
0001
1000
0100
,
1000
0001
0100
0010
2000
0000
3000
0000
,
2020
0000
0000
0000
,
3030
0000
0100
1000
0100
0010
0001
0010
,
0100
1000
0010
0100
0001
0100
0020
0000
,
0000
0030
0000
0000
0000
0000
0000
0000
0000
0000
0000
0000
0000
0000
0000
0000
;
