#TITLE:I Get Lonely;
#SUBTITLE:[feat. Blackstreet];
#ARTIST:Janet Jackson;
#TITLETRANSLIT:;
#SUBTITLETRANSLIT:;
#ARTISTTRANSLIT:;
#GENRE:R&B;
#CREDIT:Blood4Fame;
#MUSIC:I Get Lonely.mp3;
#BANNER:Banner.png;
#BACKGROUND:BG.png;
#CDTITLE:;
#SAMPLESTART:13.789;
#SAMPLELENGTH:18.248;
#SELECTABLE:YES;
#OFFSET:-0.420;
#BPMS:0.000=125.011;
#STOPS:;
#BGCHANGES:-0.720=I Get Lonely.avi=1.000=1=0=1===CrossFade==,
99999.000=-nosongbg-=1.000=0=0=0=StretchNoLoop====
;
#FGCHANGES:;

//--------------- dance-single - Blood4Fame ----------------
#NOTES:
     dance-single:
     Blood4Fame:
     Beginner:
     2:
     0,0,0,0,0:
0000
0000
0000
0000
,
0000
0000
0000
0000
,
0000
0000
0000
0000
,
0000
0000
0000
0000
,
0000
0000
0000
0000
,
0000
0000
0000
0000
,
0000
0000
0000
0000
,
1000
1000
0000
0001
,
0002
0003
1000
0000
,
0000
0000
0010
0000
,
0000
0000
0100
0000
,
0000
0000
0010
0000
,
0000
0000
1000
0000
,
0000
0000
0100
0000
,
0000
0000
0001
0000
,
0100
0100
0100
0100
,
0200
0300
0001
0000
,
1000
0000
0010
0000
,
1000
0000
0100
0000
,
1000
0000
0010
0000
,
1000
0000
0001
0000
,
0001
0000
0100
0000
,
0001
0000
0010
0000
,
0100
0100
0100
0100
,
0100
0000
0001
0000
,
1000
0000
0100
0000
,
1000
0000
0010
0000
,
1000
0000
0100
0000
,
1000
0000
0001
0000
,
1000
0000
0010
0000
,
0001
0000
0100
0000
,
0010
0010
0010
0010
,
0020
0030
0100
0000
,
0001
0000
0100
0000
,
1000
0000
0100
0000
,
0001
0000
0010
0000
,
1000
0000
0100
0000
,
0010
0000
0001
0000
,
0100
0000
0001
0000
,
1000
0100
0010
0001
,
0100
0000
1000
0000
,
0001
0000
1000
0000
,
0010
0000
0100
0000
,
0001
0000
1000
0000
,
0010
0000
0100
0000
,
0010
0000
1000
0000
,
0001
0000
0100
0000
,
0100
0100
0100
0100
,
0100
0000
0001
0000
,
0000
0000
1000
0000
,
0000
0000
0001
0000
,
0000
0000
0010
0000
,
0000
0000
1000
0000
,
0000
0000
0001
0000
,
0000
0000
0100
0000
,
0010
0010
0010
0010
,
0010
0000
0001
0000
,
0000
0000
1000
0000
,
0000
0000
0100
0000
,
0000
0000
0001
0000
,
0000
0000
0010
0000
,
0000
0000
0100
0000
,
0000
0000
0001
0000
,
0100
0100
0100
0100
,
0100
0000
0001
0000
,
1000
0000
0010
0000
,
1000
0000
0100
0000
,
1000
0000
0010
0000
,
0001
0000
0100
0000
,
1000
0000
0010
0000
,
1000
0000
0100
0000
,
0001
0001
0001
0001
,
0001
0000
0100
0000
,
0010
0000
1000
0000
,
0010
0000
0100
0000
,
0001
0000
0100
0000
,
0010
0000
0001
0000
,
1000
0000
0100
0000
,
0001
0000
0010
0000
,
0100
0100
0100
0000
,
0220
0000
0330
0000
;

//--------------- dance-single - Blood4Fame ----------------
#NOTES:
     dance-single:
     Blood4Fame:
     Easy:
     3:
     0,0,0,0,0:
0100
0000
0000
0000
,
0000
0001
0000
0000
0000
0000
0000
0100
0000
0000
0000
0000
0000
0010
0000
0000
,
0000
0000
0000
0000
,
0010
0000
0000
0000
0000
0000
0000
0100
0000
0000
0000
0000
0000
0010
0000
0000
,
0000
0000
0000
0000
,
0000
1000
0000
0000
0000
0000
0000
0010
0000
0000
0000
0000
0020
0000
0000
0000
,
0000
0000
0000
0030
,
1000
0001
0100
0001
,
2002
0000
3003
0000
,
0200
0000
0020
0000
0000
0300
0030
0000
,
0000
0000
0200
0000
0320
0000
0000
0030
,
0100
0000
0000
0010
0000
0000
0010
0000
,
0000
0000
1000
0000
,
0010
0000
0000
1000
0000
0000
0100
0000
,
0000
0000
0010
0000
,
0001
0001
0001
1000
,
0020
0000
0130
0000
,
1000
0001
0000
0001
,
0000
0000
1001
0000
,
0001
1000
0000
0010
,
0100
0000
1100
0000
,
0001
0100
0000
0010
,
0000
1000
1100
0000
,
1000
0100
0010
0001
,
0200
0000
0000
0300
0001
0000
0000
0000
,
1000
0000
0000
1000
,
0000
0000
0100
0000
,
0100
0000
0000
0001
,
0000
0000
0011
0000
,
0100
0000
0000
1000
,
0000
0000
0011
0000
,
1001
0100
0100
0010
,
2020
0000
0000
3000
0030
0000
0000
0000
,
1000
0000
0000
0010
,
0000
0100
0001
0000
,
0101
0000
0000
0010
,
0000
0000
1010
0000
,
0100
0000
0000
0011
,
0000
0000
1010
0000
,
2000
0000
0000
3000
0200
0000
0000
0300
,
2000
0000
3001
0000
,
1100
0000
0000
0101
,
0000
0000
0010
0000
,
0101
0000
0000
0100
,
0000
0000
1100
0000
,
0010
0000
0000
1100
,
0000
0100
1001
0000
,
1000
1000
1000
1000
,
0001
0100
1000
0000
,
0200
0000
0020
0000
0000
0300
0130
0000
,
0000
0200
0320
0030
,
0100
0000
0000
0010
,
0000
0100
0000
0001
,
0000
0010
0000
1000
,
0002
0000
0000
0003
0010
0000
0000
0000
,
0001
0001
0001
1000
,
0220
0000
0330
0100
,
0020
0000
0200
0330
0000
0000
0010
0000
,
1000
0000
0020
0000
0230
0000
0302
0003
,
0010
0000
0000
0001
,
0000
0010
0000
1000
,
0000
0100
0000
0001
,
0000
0000
0100
0000
,
1000
0001
1000
0001
,
0020
0000
1030
0100
,
0200
0300
0020
0030
1000
0000
0200
0000
,
0310
0200
0320
0031
,
0100
0000
0000
1000
,
0000
0100
1000
0001
,
0000
0010
0001
1000
,
0000
0000
0010
0000
,
0001
1000
0001
1000
,
0220
0000
0330
0001
,
0200
0000
0020
0330
0001
0000
0100
0000
,
1000
0200
0320
1030
,
0100
0100
0010
0001
,
0000
0100
0000
1000
,
0000
0010
0000
0001
,
0000
0000
0010
0000
,
1001
1001
1001
1001
,
0220
0000
0330
0000
;

//--------------- dance-single - Blood4Fame ----------------
#NOTES:
     dance-single:
     Blood4Fame:
     Medium:
     5:
     0,0,0,0,0:
0000
0000
0000
0000
0000
0000
0000
0000
0000
0000
0001
0000
0000
0002
0000
0000
,
0000
0000
0000
0000
0000
0000
0000
0000
0000
0203
0000
0000
0000
0000
0000
0301
,
0010
0002
0000
0000
0000
0000
0000
0000
0000
0000
0000
0000
0000
0000
0103
0000
,
0020
0000
0000
0000
0000
0000
0000
0000
0000
0200
0030
0000
0000
0301
0000
0200
,
0000
0000
0000
0000
0000
1300
0000
0200
0000
0000
0000
0000
0000
0301
0000
0200
,
0000
0000
0000
0000
0000
1300
0000
0200
0000
0000
0000
0000
0320
0000
0000
0000
,
0000
0000
0000
0030
,
1001
0000
0001
0000
0101
1000
0001
0000
,
1002
0000
0100
0000
1003
0000
0000
0010
,
0200
0000
0020
0000
0000
0300
0130
0000
,
0000
0000
0200
0000
0320
0000
0000
1030
,
0100
0000
0000
0101
0000
0000
0010
0200
,
0000
0300
0100
0001
0000
0000
0001
0020
,
0000
0030
0010
1000
0000
0000
1000
0200
,
0000
0000
0310
0000
,
1001
1001
1001
1001
,
2020
0000
0000
3000
0130
0000
0000
0000
,
2000
0000
0000
0100
0000
0000
3001
0000
,
0000
0000
1001
0000
,
0002
0000
0000
0100
0000
0000
0013
0000
,
0100
0000
0000
0001
0000
0000
0001
0000
1100
0000
0000
0000
0000
0000
0000
0000
,
0001
0000
0100
0100
0000
0000
0010
2000
,
3000
1000
1100
0000
,
1000
0000
0100
0000
0010
0000
0001
0100
,
0200
0000
0000
0300
0001
0000
0000
0000
,
1000
0000
0000
0010
0000
0000
1000
0000
,
0000
0000
0100
0000
,
0100
0000
0000
1000
0000
0000
0001
0000
,
0000
0000
0011
0000
,
0100
0000
0000
0010
0000
0000
1000
0000
,
0000
0000
0011
0000
,
1001
0000
0100
0001
0100
0000
0110
0000
,
2020
0000
0000
3000
0130
0000
0000
0000
,
1000
0000
0000
0010
0000
0000
0010
0000
,
0000
0100
1001
0000
,
0101
0000
0000
1010
0000
0000
0110
0000
,
0000
0000
1010
0000
,
0110
0000
0000
0101
0000
0000
0011
0000
,
0000
0000
1010
0000
,
1000
0000
0000
0001
0000
0000
0100
0000
0100
0000
0000
0010
0000
0000
1000
0000
,
2000
0000
3001
0000
,
1100
0000
0000
0110
0000
0000
0101
0000
,
0000
0000
1010
0000
,
0101
0000
0000
0110
0000
0000
1100
0000
,
0000
0000
1100
0000
,
0011
0000
0000
0110
0000
0000
1100
0000
,
0000
0100
1001
0000
,
1001
1001
1001
1001
,
1001
0000
0100
0000
1000
0000
0000
0010
,
0200
0000
0020
0000
0000
0300
0130
0000
,
0000
0001
0200
0000
0320
0000
0030
1000
,
0100
0000
0000
0101
0000
0000
0010
0200
,
0000
0300
0100
0001
0000
0000
0001
0020
,
0000
0030
0010
1000
0000
0000
1000
0100
,
0002
0000
0000
0003
0010
0000
0000
0000
,
1001
1001
1001
1001
,
0220
0330
0010
0000
0001
0000
0100
0000
,
0020
0000
0200
0330
1001
0000
0010
0000
,
1000
0000
0020
0000
0230
0000
0302
0003
,
0010
0000
0000
1010
0000
0000
0001
0020
,
0000
0030
0010
1000
0000
0000
1000
0200
,
0000
0300
0100
0001
0000
0000
0001
0020
,
0000
0000
0130
0000
,
1001
1001
1001
1001
,
0020
0000
0000
0000
1030
0001
0100
0010
,
0200
0300
0020
0030
1001
0000
0200
0000
,
0310
0000
0200
0000
0320
0000
0031
1000
,
0100
0000
0000
0101
0000
0000
1000
0200
,
0000
0300
0100
0001
1000
0000
0001
0020
,
0000
0030
0010
1000
0001
0000
1000
0200
,
0000
0000
0000
0000
0000
0010
0000
0000
0310
0000
0000
0020
0000
0000
0030
0000
,
1001
1001
1001
1001
,
0220
0300
0130
0000
0001
1000
0001
0010
,
0200
0000
0020
0330
0001
0010
0100
0001
,
1000
0000
0200
0000
0320
0000
1030
0001
,
0100
0000
0100
0000
0010
0000
0001
0200
,
0000
0300
0100
1000
0000
0000
1000
0020
,
0000
0030
0010
0001
0000
0000
0001
0200
,
0000
0000
0310
0000
,
1001
1001
1001
1001
,
0220
0000
0330
0000
;

//--------------- dance-single - Blood4Fame ----------------
#NOTES:
     dance-single:
     Blood4Fame:
     Hard:
     6:
     0,0,0,0,0:
0000
0110
0000
0000
0000
0000
0000
0000
0000
0000
0000
0000
0000
0000
0000
0000
,
0000
1100
0000
0000
0000
0000
0000
0011
0000
0000
0000
0000
0000
1001
0000
0000
,
0000
0000
0000
0000
,
0000
1010
0000
0000
0000
0000
0000
0110
0000
0000
0000
0000
0101
0000
0000
0000
,
0000
0000
0000
0000
,
0000
0101
0000
0000
0000
0000
1001
0000
0000
0000
0000
0000
1100
0000
0000
0000
,
0000
0000
0000
0000
,
1001
0000
0000
0100
0001
0000
0100
0000
0101
0000
0001
0000
1000
0100
0000
0000
,
1002
0000
0100
0000
1003
0000
0000
0010
,
0200
0000
0020
0330
1001
0000
0100
0000
,
0000
0000
0200
0000
0320
0000
0000
1030
,
0100
0000
0000
0101
0000
0000
1010
0200
,
0000
0300
0100
0001
1001
0000
0001
0020
,
0000
0030
0010
1000
1001
0000
1000
0200
,
0000
0000
0310
0000
,
1001
1001
1001
1001
,
2020
0000
0000
3000
0130
0000
0000
0000
,
2000
0000
0000
0100
0000
0000
3001
0000
,
0110
0000
0000
0000
0000
0000
1000
0100
1000
0000
0000
0000
0000
0000
0000
0000
,
0002
0000
0000
0100
0000
0000
0013
0000
,
1001
0000
0000
0001
0000
0000
0001
0000
1100
0000
0000
0000
0100
0000
0002
0000
,
0000
0000
0100
0103
0000
0000
0010
2000
,
3000
1000
1100
0000
,
1000
0000
0000
1000
0100
0000
0000
0100
0010
0000
0000
0010
0001
0000
0100
0000
,
0200
0000
0001
0000
,
1000
0000
0000
0010
0000
0000
1000
0000
,
0000
0000
0000
0300
0100
0000
0000
0000
,
0200
0000
0000
1000
0000
0000
0301
0000
,
0000
0000
0011
0000
,
0200
0000
0000
0010
0000
0000
1300
0000
,
0000
0000
0011
0000
,
1000
0000
0000
1000
0100
0000
1000
0000
0010
0000
0000
1000
0100
0000
0010
0000
,
0022
0000
0000
0003
0130
0000
0000
0000
,
1000
0000
0000
0000
0000
0000
0010
0000
0000
0000
0001
0000
0010
0100
2000
0000
,
0000
0000
3100
0000
1001
0000
0000
1000
,
0101
0000
0000
1010
0000
0000
0110
0000
,
0000
0000
0000
0001
1010
0000
0000
0000
,
0110
0000
0000
0101
0000
0000
0011
0000
,
0000
0000
0000
0100
1010
0000
0000
0000
,
2000
0000
0000
0001
0000
0000
0100
0000
3200
0000
0000
0010
0000
0000
1000
0000
,
2300
0000
3001
0000
,
1100
0000
0000
0110
0000
0000
0101
0200
,
0000
0000
0300
0000
1010
0000
0000
1000
,
0101
0000
0000
0110
0000
0000
1100
0000
,
0000
0000
1100
0000
,
0011
0000
1000
0110
0000
0000
1100
0000
,
1000
0100
1001
0000
,
1001
0000
0000
0000
1001
0000
0000
0000
1001
0000
0000
0000
1001
0000
0000
0001
,
1000
0000
0100
0000
1000
0000
0000
0010
,
0200
0000
0020
0330
1001
0000
0100
0000
,
0000
0000
0000
0001
0200
0000
0000
0000
0320
0000
0000
0000
0030
0000
1000
0000
,
0100
0000
0000
0101
0000
0000
1010
0200
,
0000
0300
0100
0001
0000
0000
0001
0020
,
0000
0030
0010
0001
0000
0000
1000
0200
,
0002
0000
0000
0003
1300
0000
0000
0000
,
1001
1001
1001
1001
,
0220
0330
0010
0000
1000
0000
0000
0100
,
0020
0000
0200
0330
1001
0000
0010
0000
,
1000
0000
0020
0000
0230
0000
0302
0003
,
0010
0000
0000
1010
0000
0000
0101
0020
,
0000
0000
0030
0000
0010
0000
1000
0000
0000
0000
0000
0001
1000
0000
0200
0000
,
0000
0000
0300
0000
0100
0000
1000
0000
0000
0000
0000
1000
0001
0000
0020
0000
,
0000
0000
0130
0000
,
1001
1001
1001
1001
,
0020
0000
0000
0000
1030
0001
0100
0010
,
0200
0000
0020
0330
1001
0000
0200
0000
,
0310
0000
0200
0000
0320
0000
1030
0001
,
0100
0000
0000
0101
0000
0000
1010
0200
,
0000
0300
0100
0101
1000
0000
0001
0020
,
0000
0030
0010
1001
0001
0000
1000
0200
,
0000
0000
0000
0000
0000
0010
0000
0000
0310
0000
0000
0020
0000
0000
0030
0000
,
1001
1001
1001
1001
,
0220
0300
0130
0000
0001
1000
0001
0010
,
0200
0000
0020
0330
1001
0010
0100
0001
,
1000
0000
0200
0000
0320
0000
0031
0001
,
0100
0000
0000
0100
0000
0000
1010
0000
0110
0000
0000
0000
1010
0000
0200
0000
,
0000
0000
0300
0000
0001
0000
1000
0000
0000
1000
0000
0000
1000
0000
0020
0000
,
0000
0000
0030
0000
0010
0000
0001
0000
0000
0001
0000
0000
0001
0000
0200
0000
,
0000
0000
0310
0000
,
1001
1001
1001
1001
,
0220
0000
0330
0000
;
