#TITLE:Huapangos Perros;
#SUBTITLE:;
#ARTIST:La Zenda NorteƱa;
#TITLETRANSLIT:Bitchin' Huapangos;
#SUBTITLETRANSLIT:;
#ARTISTTRANSLIT:The Northern Zenda;
#GENRE:Latin;
#CREDIT:Blood4Fame;
#MUSIC:music.mp3;
#BANNER:banner.png;
#BACKGROUND:bg.png;
#CDTITLE:;
#SAMPLESTART:0.000;
#SAMPLELENGTH:0.000;
#SELECTABLE:YES;
#OFFSET:-0.835;
#BPMS:0.000=132.000
,12.000=135.000
,24.000=131.000
,28.000=137.000
,32.000=131.000
,34.000=133.000
,36.000=136.000
,40.000=134.000
,48.000=132.000
,54.000=138.000
,58.000=132.000
,62.000=135.000
,66.000=132.000
,72.000=134.000
,80.000=136.000
,82.000=132.000
,86.000=136.000
,98.000=130.000
,102.000=135.000
,106.000=129.000
,110.000=139.000
,114.000=131.000
,122.000=134.000
,142.000=135.000
,146.000=133.000
,150.000=135.000
,154.000=133.000
,158.000=136.000
,166.000=132.000
,170.000=134.000
,177.000=135.000
,194.000=132.000
,206.000=135.000
,220.000=133.000
,232.000=136.000
,240.000=135.000
,244.000=134.000
,249.000=109.000
,250.000=86.000
,252.000=82.000
;
#STOPS:;
#BGCHANGES:;
#FGCHANGES:;

//--------------- dance-single - Blood4Fame ----------------
#NOTES:
     dance-single:
     Blood4Fame:
     Beginner:
     2:
     0,0,0,0,0:
0000
0000
0000
0000
,
0000
0000
0000
0000
,
0000
0000
0000
0000
,
0000
0000
0000
0000
,
0000
0000
1000
0100
,
1000
0000
0001
0100
,
0001
0000
1000
0100
,
1000
0000
0001
0100
,
0001
0000
0020
0030
,
0020
0030
0020
0030
,
0010
0000
0200
0300
,
0200
0300
0200
0300
,
0100
0000
2000
3000
,
2000
3000
2000
3000
,
1000
0000
0002
0003
,
0002
0003
0002
0003
,
0001
0000
0021
0030
,
2100
3000
1020
0030
,
0102
0003
0021
0030
,
2100
3000
1020
0030
,
0102
0003
0021
0030
,
2100
3000
1020
0030
,
0102
0003
0021
0030
,
2100
3000
1020
0030
,
0101
0000
1000
0000
,
1000
0000
1000
0000
,
1000
0000
1000
0000
,
1000
0000
1000
0000
,
0001
0001
1000
0000
,
0100
0000
1000
0000
,
0100
0000
1000
0000
,
0100
0000
1000
0000
,
0001
0001
0010
0100
,
0010
0000
0001
0001
,
0001
0000
0010
0100
,
0010
0000
1000
1000
,
1000
0000
0002
0000
,
0013
0100
0010
0000
,
1000
0100
2000
0000
,
3001
0100
0001
0000
,
0010
0100
0010
0000
,
0010
0010
1000
0000
,
1000
1000
0001
0000
,
0001
0001
0100
0000
,
0100
0100
1000
0000
,
0100
0000
0010
0000
,
0100
0000
1000
0000
,
0001
0000
0010
0000
,
0001
0001
1000
0000
,
0200
0300
0010
0001
,
0100
0000
0010
0010
,
0010
0000
1000
0100
,
0010
0001
0010
0000
,
1000
0100
0002
0003
,
0001
0100
1000
0000
,
1000
0010
0001
0000
,
1000
0100
0010
0001
,
0001
0000
0020
0032
,
0203
0300
0001
0000
,
1000
0000
0001
0000
,
1000
0000
0100
0000
,
0010
0000
0100
0100
,
0010
1001
1001
1100
,
0022
0000
0000
0000
,
0000
0000
0033
0000
;

//--------------- dance-single - Blood4Fame ----------------
#NOTES:
     dance-single:
     Blood4Fame:
     Easy:
     4:
     0,0,0,0,0:
0000
0000
0000
0000
,
0000
0000
0000
0000
,
0000
0000
0000
0000
,
0000
0000
0000
0000
,
0000
0000
0000
0000
0000
0000
0100
0000
0000
2000
0000
3000
,
1000
0000
0000
0000
0000
0000
0100
0000
0000
0002
0000
0003
,
0100
0000
0010
0100
,
0100
0000
0000
0000
0000
0000
1000
0000
0000
2000
0000
3000
,
0010
0000
1000
0000
,
0001
0000
1000
0000
,
0100
0000
1000
0000
,
0001
0000
1000
0000
,
0100
0001
0001
0000
,
1000
0000
0001
0000
,
0110
1000
0001
0000
,
1000
0000
0001
0000
,
0100
0000
0000
0000
0000
0000
0200
0300
0000
0020
0000
0030
,
0002
0003
0000
0200
0300
0000
2000
3000
0000
0200
0300
0000
,
0010
0000
0000
0000
0000
0000
0020
0030
0000
0200
0000
0300
,
0002
0003
0000
0020
0030
0000
2000
3000
0000
0020
0000
0030
,
0100
0000
0000
0000
0000
0000
0200
0300
0000
0020
0000
0030
,
2000
3000
0000
0200
0300
0000
0002
0003
0000
0200
0000
0300
,
0010
0000
0000
0000
0000
0000
0020
0030
0000
0200
0000
0300
,
0002
0003
0000
0020
0030
0000
2000
3000
0000
0020
0000
0030
,
0100
0000
1000
0010
,
0000
0010
1000
0010
,
0000
0010
1000
0010
,
0000
0010
1000
0010
,
1000
1001
1000
0010
,
0001
0010
0001
0010
,
1000
0100
1000
0100
,
1000
0010
1000
1000
,
1000
1010
0101
1000
,
1010
0001
1100
0100
,
0110
0010
0011
0010
,
0110
0100
1100
0100
,
0001
1001
0020
0130
,
0100
0000
0000
0000
0000
0000
0200
0000
0000
0302
0000
0003
,
0100
0000
0000
0000
0000
0000
0020
0000
0000
0230
0000
0300
,
0001
0000
0000
0000
0000
0000
0200
0000
0000
0302
0000
0003
,
0100
0000
0001
0010
,
0001
0100
1000
0010
,
1000
0100
0001
0010
,
0001
0100
1000
0010
,
1000
0000
0000
0002
0003
0000
0001
0000
0000
0001
0000
0000
,
0001
0001
1000
1000
,
1000
1000
0001
0001
,
0001
0001
1000
1000
,
1000
0000
0000
1000
0000
0000
0010
0000
0000
0200
0000
0300
,
0200
0000
0300
0000
0000
0000
0010
0000
0000
0020
0000
0030
,
0020
0000
0030
0000
0000
0000
0100
0000
0000
0010
0000
0000
,
0002
0000
0003
0000
0000
0000
1000
0000
0000
1000
0000
0000
,
1000
0000
0000
1000
0000
0000
0200
0000
0300
0000
0000
0000
,
0100
0000
0000
0020
0000
0030
0020
0000
0030
0000
0000
0000
,
0100
0000
0000
0200
0000
0300
0200
0300
0000
0000
0000
0000
,
0010
0000
0000
0100
0000
0000
2000
0000
3000
0000
0000
0000
,
0100
1000
1000
1000
,
0020
0000
0030
0000
0000
0000
0200
0000
0300
0020
0000
0030
,
0002
0003
0000
1000
0000
0000
0100
0000
0000
2000
0000
3000
,
0020
0000
0030
0200
0300
0000
1000
0000
0000
0020
0030
0000
,
0100
0000
0000
2000
0000
3000
0100
0000
0000
2000
0000
3000
,
0020
0000
0030
0000
0000
0000
0010
0000
0000
0010
0000
0000
,
0100
0000
0000
0220
0330
0000
2002
0000
3003
0020
0000
0030
,
2000
0000
0000
0000
,
0000
0000
3000
0000
;

//--------------- dance-single - Blood4Fame ----------------
#NOTES:
     dance-single:
     Blood4Fame:
     Medium:
     8:
     0,0,0,0,0:
0000
0000
0000
0000
,
0000
0000
0000
0000
,
0000
0000
0000
0000
,
0000
0000
0000
0000
,
0000
0000
0000
0000
0001
0000
0100
0001
0000
2000
0000
3010
,
1000
0000
0100
0000
1000
0000
0100
1000
0000
0002
0000
0013
,
0100
0000
0000
0000
1000
0000
0010
0000
0000
0100
0000
0000
,
0100
0010
1000
0000
0010
0000
1000
0010
0000
2000
0000
3000
,
0010
0000
0000
0000
0000
0000
1000
0001
0100
0000
0000
0000
,
0001
1000
0100
0000
0000
0000
1000
0001
0100
0000
0010
0000
,
0100
0000
0000
0000
0000
0000
1000
0001
0100
0000
0000
0000
,
0001
1000
0100
0000
0000
0000
1000
0001
0100
0000
0010
0000
,
0100
0000
0000
0001
0000
0000
0001
1000
0100
0000
0000
0000
,
1000
0001
0100
0000
0000
0000
0001
1000
0100
0000
0010
0000
,
0110
0000
0000
1000
0000
0000
0001
1000
0100
0000
0000
0000
,
1000
0001
0100
0000
0000
0000
0001
1000
0100
0000
0010
0000
,
0100
0000
0000
0000
0000
0000
0200
2300
0000
3020
0000
0230
,
0302
0023
0000
0230
0300
0200
2300
3020
0000
0230
0300
0100
,
0010
0000
0000
0000
0000
0000
0020
2030
0000
3200
0000
0320
,
0032
0203
0000
0320
0030
0020
2030
3200
0000
0320
0000
0032
,
0103
0000
0000
0000
0000
0000
0200
0302
0000
0023
0000
0230
,
2300
3020
0000
0230
0300
0200
0302
0023
0000
0230
0000
2300
,
3010
0000
0000
0000
0000
0000
0020
2030
0000
3200
0000
0320
,
0032
0203
0000
0320
0030
0020
2030
3200
0000
0320
0000
0032
,
0103
0000
0000
0000
0000
0000
0000
0000
0001
0010
0100
0010
,
0000
0000
1000
0010
0100
0010
0000
0000
0001
0010
0100
0010
,
0000
0000
1000
0010
0100
0010
0000
0000
0001
0010
0100
0010
,
0000
0000
1000
0010
0100
0010
0000
0000
0100
0010
0000
0000
,
1000
0001
0000
1000
0000
0000
1000
0000
0001
0010
0000
1000
,
0001
0000
0100
0010
0000
1000
0001
0000
0001
0010
0000
0001
,
1000
0000
0010
0100
0000
0001
1000
0000
0010
0100
0000
0010
,
1000
0000
0100
0010
0000
0100
1000
0000
0010
1000
0000
0010
,
1000
0000
0000
1010
0000
0000
0101
0000
0010
1000
0000
0000
,
1010
0000
0100
0001
0000
0000
1100
0000
0010
0100
0000
0000
,
0110
0000
1000
0010
0000
0000
0011
0000
0100
0010
0000
0000
,
0110
0000
1000
0100
0000
0000
1100
0000
0010
0100
0000
0000
,
0001
1000
0000
1001
0000
0000
0020
0000
0000
0130
0000
1000
,
0100
0010
0002
0000
0003
0000
0200
0000
0000
0302
0000
0013
,
0100
0010
0002
0003
0000
0000
0020
0000
0000
0230
0000
0310
,
0001
0100
0020
0000
0030
0000
0200
0000
0000
0302
0000
0013
,
0100
0010
0002
0003
0000
0000
0001
0000
0001
0010
0000
0010
,
0001
0000
0001
0100
0000
0000
1000
0000
1000
0010
0000
0010
,
1000
0000
1000
0100
0000
0000
0001
0000
0001
0010
0000
0010
,
0001
0000
0001
0100
0000
0000
1000
0000
1000
0010
0000
0010
,
1000
0000
2000
0002
3003
0000
0001
0000
0100
0001
0000
0000
,
0001
0000
0100
0001
0000
0000
0001
0000
0100
0001
0000
0000
,
0001
0000
0100
0001
0000
0000
0001
0000
0100
0001
0000
0000
,
0001
0000
0100
0001
0000
0000
0001
0000
0100
0001
0000
0000
,
0001
0000
0000
1000
0000
0000
0010
1000
0000
0200
0000
0310
,
0200
0000
0302
0003
1000
0100
0010
0000
0000
0020
0000
0031
,
0020
0000
0030
0000
0100
1000
0100
0000
1000
0010
0000
1000
,
0002
0000
0003
0000
0000
0000
1000
0000
0010
1000
0000
0010
,
1000
0000
0010
1000
0002
0000
0203
0000
0302
0003
0010
0001
,
0100
0000
0001
0020
0000
0130
0020
0000
0030
0000
0001
0010
,
0100
0000
1000
0200
0000
1300
0200
0300
0000
0000
0010
0001
,
0010
0000
0001
0100
0020
0000
2030
0000
3002
0003
0000
0000
,
0100
0000
0100
1000
0000
0001
1000
0000
0010
1000
0002
0000
,
0023
0000
0230
0300
0000
1000
0200
0000
0300
0020
0000
0030
,
0002
0003
0000
1000
0000
1000
0100
0000
0100
2000
0000
3001
,
0020
0000
0030
0200
0300
0100
1000
0000
0000
0020
0030
0010
,
0100
0000
0000
2000
0000
3010
0100
0000
0001
2000
0000
3001
,
0020
0000
0030
0000
0100
1000
0010
0000
1000
0010
0000
1000
,
0100
0000
0000
0220
0330
0000
2002
0000
3003
0020
0000
0030
,
2000
0000
0000
0000
,
0000
0000
3000
0000
;

//--------------- dance-single - Blood4Fame ----------------
#NOTES:
     dance-single:
     Blood4Fame:
     Hard:
     9:
     0,0,0,0,0:
0000
0000
0000
0000
,
0000
0000
0000
0000
,
0000
0000
0000
0000
,
0000
0000
0000
0000
,
0000
0000
0000
0000
1000
0001
0100
0001
0000
2000
0000
3010
,
1000
0010
0100
0000
0001
0010
0100
1000
0000
0002
0000
0013
,
0100
0000
0000
0000
0001
1000
0010
0100
0001
0100
0001
0010
,
0100
0010
0001
0000
0010
0100
1000
0010
0000
2000
0000
3001
,
0010
0000
0000
0000
0000
0000
0100
1000
0010
0100
0010
1000
,
0100
1000
0010
0100
0010
1000
0100
0010
0001
0100
0001
1000
,
0100
0000
0000
0000
0000
0000
0100
0001
0010
0100
0010
0001
,
0100
0001
0010
0100
0010
0001
0100
0010
1000
0100
1000
0001
,
0100
0000
0000
0001
0000
0000
0010
0001
0100
0010
0100
0001
,
0010
0001
0100
0010
0100
0001
0010
0001
0100
0010
1000
0001
,
0010
0000
0000
1000
0000
0000
0010
1000
0100
0010
0100
1000
,
0010
1000
0100
0010
0100
1000
0010
0100
0001
0010
0001
1000
,
0010
0000
0000
0000
0000
0000
0200
0302
0000
0023
0000
0230
,
2300
3020
0000
0230
0300
0200
0302
0023
0000
0230
0300
0100
,
0010
0000
0000
0000
0000
0000
0020
0032
0000
0203
0000
0320
,
2030
3200
0000
0320
0030
0020
0032
0203
0000
0320
0000
2030
,
3100
0000
0000
0000
0000
0000
0200
2300
0000
3020
0000
0230
,
0302
0023
0000
0230
0300
0200
2300
3020
0000
0230
0000
0302
,
0013
0000
0000
0000
0000
0000
0020
0032
0000
0203
0000
0320
,
2030
3200
0000
0320
0030
0020
0032
0203
0000
0320
0000
2030
,
3100
0000
0000
0000
0000
0000
0000
0000
0001
0010
0100
0000
,
0010
0000
1000
0010
0100
0000
0010
0000
0001
0010
0100
0000
,
0010
0000
1000
0010
0100
0000
0010
0000
0001
0010
0100
0000
,
0010
0000
1000
0010
0100
0000
0001
0100
0000
0010
0000
0000
,
1000
0001
0000
1000
0000
0000
1000
0000
0001
0010
0100
1000
,
0001
0000
0100
0010
1000
0001
1000
0000
0001
0010
0100
1000
,
0001
0000
0010
0100
1000
0001
1000
0000
0010
0100
0001
0010
,
0001
0000
0100
0010
1000
0100
1000
0000
0010
1000
0100
0010
,
0001
0000
0000
0011
0000
0000
0101
0000
0010
1000
0100
0000
,
1010
0000
0100
0001
0010
0000
1100
0000
0010
0100
0001
0000
,
0110
0000
1000
0010
0100
0000
0011
0000
0100
0010
0001
0000
,
0110
0000
1000
0100
0010
0000
1100
0000
0010
0100
0001
0000
,
0001
1000
0000
1001
0000
0000
0020
0000
0000
0130
0000
1000
,
0100
0010
0002
0000
0003
0000
0200
0000
0000
0302
0000
0013
,
0100
0010
0002
0003
0000
0000
0020
0000
0000
0230
0000
0310
,
0001
0100
0020
0000
0030
0000
0200
0000
0000
0302
0000
0013
,
0100
0010
0002
0003
0000
0000
0001
0000
0001
0010
0000
0010
,
0001
0000
0001
0100
0000
0000
1000
0000
1000
0010
0000
0010
,
1000
0000
1000
0100
0000
0000
0001
0000
0001
0010
0100
0000
,
0001
0000
0001
0100
0000
0000
1000
0000
1000
0010
0000
0010
,
1000
0000
2000
0002
3003
0000
0001
0000
0100
0001
0010
0000
,
0001
0000
0100
0001
0010
0000
0001
0000
0100
0001
0010
0000
,
0001
0000
0100
0001
0010
0000
0001
0000
0100
0001
0010
0000
,
0001
0000
0100
0001
0010
0000
0001
0000
0100
0001
0010
0000
,
0001
0000
0000
1000
0100
1000
0010
1000
0001
0200
0000
0310
,
0200
0000
0302
0003
1000
0100
0010
0100
1000
0020
0000
1030
,
0020
0000
0030
0000
0100
1000
0100
0010
1000
0010
0200
0000
,
0302
0000
2003
3000
0100
0000
1000
0000
0010
1000
0000
0010
,
1000
0000
0010
1000
0002
0000
0203
0000
0302
0003
0010
0001
,
0100
0001
1000
0020
0000
0130
0020
0000
2030
3000
0001
0010
,
0100
0010
0001
0200
0000
0301
0200
0300
0000
0000
0010
1000
,
0010
0100
0001
0100
0020
0000
2030
0000
3002
0003
0010
0000
,
0100
0000
0100
1000
0000
0001
1000
0000
0010
1000
0002
0000
,
0023
0000
0230
0300
0000
1000
0200
0000
0300
0220
0000
0330
,
0022
0033
0000
2200
3300
1000
0100
0000
0100
2000
0000
3001
,
0020
0000
0030
0200
0300
0100
1000
0001
0000
0020
0030
0010
,
0100
0000
0000
2000
0000
3010
0100
0000
0001
2000
0000
3001
,
0020
0000
0030
0000
0100
1000
0010
0100
0001
0010
0100
1000
,
0010
0000
0000
0220
0330
0000
2002
0000
3003
0022
0000
0033
,
4040
0000
0000
0000
,
0000
0000
3030
0000
;

//--------------- dance-single - Blood4Fame ----------------
#NOTES:
     dance-single:
     Blood4Fame:
     Challenge:
     11:
     0,0,0,0,0:
0000
0000
0000
0000
,
0000
0000
0000
0000
,
0000
0000
0000
0000
,
0000
0000
0000
0000
,
0000
0000
0000
0000
0001
1000
0010
1000
0000
0002
0000
0103
,
0001
0100
0010
0000
1000
0100
0010
0001
0000
2000
0000
3100
,
0010
0000
0000
0000
1000
0001
0100
0010
1000
0010
1000
0100
,
0010
0100
1000
0000
0100
0010
0001
0100
0000
0002
0000
1003
,
0100
0000
0000
0000
0000
0000
0010
0001
0100
0010
0100
0001
,
0010
0001
0100
0010
0100
0001
0010
0100
1000
0010
1000
0001
,
0010
0000
0000
0000
0000
0000
0010
1000
0100
0010
0100
1000
,
0010
1000
0100
0010
0100
1000
0010
0100
0001
0010
0001
1000
,
0010
0000
0000
0011
0000
0000
0100
1000
0010
0100
0010
1000
,
0100
1000
0010
0100
0010
1000
0100
1000
0010
0100
0001
1000
,
0100
0000
0000
0000
0000
0000
0100
0001
0010
0100
0010
0001
,
0100
0001
0010
0100
0010
0001
0100
0010
1000
0100
1000
0001
,
0100
0000
0000
0000
0000
0000
0020
2030
0000
3200
0000
0320
,
0032
0203
0000
0320
0030
0020
2030
3200
0000
0320
0000
0032
,
0103
0000
0110
0000
0011
0000
0200
2300
0000
3020
0000
0230
,
0302
0023
0000
0230
0300
0200
2300
3020
0000
0230
0000
0302
,
0013
0000
0110
0000
1100
0000
0020
0032
0000
0203
0000
0320
,
2030
3200
0000
0320
0030
0020
0032
0203
0000
0320
0000
2030
,
3100
0000
0110
0000
0011
0000
0200
2300
0000
3020
0000
0230
,
0302
0023
0000
0230
0300
0200
2300
3020
0000
0230
0000
0302
,
0013
0000
0110
0000
1100
0000
0000
0000
1000
0100
0010
0001
,
0100
0000
0001
0100
0010
1000
0100
0000
1000
0100
0010
0001
,
0100
0000
0001
0100
0010
1000
0100
0000
1000
0100
0010
0001
,
0100
0000
0001
0100
0010
1000
0100
0000
0000
0100
0000
0000
,
0001
1000
0000
0011
0000
0000
0001
0001
1000
0100
0010
0001
,
1000
1000
0010
0100
0001
1000
0001
0001
1000
0100
0010
0001
,
1000
1000
0100
0010
0001
1000
0001
0001
0100
0010
1000
0100
,
1000
1000
0010
0100
0001
0010
0001
0001
0100
0001
0010
0100
,
1000
1000
0000
1100
0000
0000
1010
0010
0100
0001
0010
0001
,
0101
0100
0010
1000
0100
0010
0011
0001
0100
0010
1000
0100
,
0110
0010
0001
0100
0010
1000
1100
0100
0010
0100
1000
0010
,
0110
0100
0001
0010
0100
0010
0011
0001
0100
0010
1000
0100
,
1001
1001
0000
1001
0000
0000
0200
0000
0000
0310
1000
0100
,
0010
0001
0200
0000
0300
0000
0020
0000
0000
2030
0000
3100
,
0010
0100
2000
3000
0000
0000
0200
0000
0000
0310
0001
0100
,
0010
1000
0200
0000
0300
0000
0020
0000
0000
0032
0000
0103
,
0010
0100
0002
0003
0000
0000
1000
0001
1000
0100
0010
0100
,
1000
0001
1000
0010
0000
0000
0001
1000
0001
0100
0010
0100
,
0001
1000
0001
0010
0000
0000
1000
0001
1000
0100
0010
0100
,
1000
0001
1000
0010
0000
0000
0001
1000
0001
0100
0010
0100
,
0001
0000
0002
2000
3003
0000
1000
0100
0010
0001
0100
0000
,
0001
0100
0010
1000
0100
0000
1000
0100
0010
0001
0100
0000
,
0001
0100
0010
1000
0100
0000
1000
0100
0010
0001
0100
0000
,
0001
0100
0010
1000
0100
0000
1000
0100
0010
0001
0100
0000
,
0001
0000
0000
0001
0010
0001
0100
0001
1000
0010
1000
0100
,
0020
0000
0032
0003
0001
0010
0100
0010
0001
0100
0010
1000
,
0200
0000
0300
0000
0010
0001
0010
0100
1000
0100
0020
0000
,
0032
0000
2003
3000
0010
0000
0100
0001
0100
1000
0100
0001
,
1000
0100
0010
0001
2000
0000
3020
0000
2030
3000
0100
1000
,
0010
1000
0001
0100
0001
0010
0200
0000
2300
3000
1000
0100
,
0010
0100
1000
0010
0100
0001
0020
0030
0000
0000
0100
1000
,
0100
0010
0001
0010
0200
0000
2300
0000
3002
0003
0100
0000
,
0010
1000
0010
0001
0010
1000
0001
0010
0100
1000
0002
0000
,
0203
0000
0320
0030
0000
1000
0020
0000
0030
0220
0000
0330
,
0202
0303
0000
0022
0033
0001
0010
0100
0010
0002
0000
1003
,
0200
0300
0100
0020
0030
0010
0001
1000
0001
0200
0300
0100
,
0010
0000
0000
2000
0000
3100
0010
0100
1000
0002
0000
1003
,
0200
0000
0310
0000
0010
0001
0100
0010
1000
0100
0010
0001
,
0100
0000
0000
0220
0330
0000
2002
0000
3003
2200
0000
3300
,
0404
0000
0000
0000
,
0000
0000
0303
0000
;
