#TITLE:Heaven Help Us;
#SUBTITLE:;
#ARTIST:My Chemical Romance;
#TITLETRANSLIT:;
#SUBTITLETRANSLIT:;
#ARTISTTRANSLIT:;
#GENRE:Rock;
#CREDIT:Blood4Fame;
#MUSIC:Heaven Help Us.mp3;
#BANNER:Banner.png;
#BACKGROUND:BG.png;
#CDTITLE:;
#SAMPLESTART:29.864;
#SAMPLELENGTH:23.196;
#SELECTABLE:YES;
#OFFSET:-0.334;
#BPMS:0.000=194.000
,408.000=195.913
,440.000=196.000
;
#STOPS:;
#BGCHANGES:-0.734=Heaven Help Us.avi=1.000=1=0=1===CrossFade==,
99999.000=-nosongbg-=1.000=0=0=0=StretchNoLoop====
;
#FGCHANGES:;

//--------------- dance-single - Blood4Fame ----------------
#NOTES:
     dance-single:
     Blood4Fame:
     Beginner:
     4:
     0,0,0,0,0:
0000
0000
0000
0000
,
0000
0000
0000
0000
,
0000
0000
0000
0000
,
0000
0000
0000
0000
,
0000
0000
0000
0000
,
0000
0000
0000
0000
,
0000
0000
0000
0000
,
0000
0000
0200
0300
,
0000
0010
0000
0010
,
0000
0010
0000
0010
,
0000
1000
0000
1000
,
0000
1000
0000
1000
,
0000
0001
0000
0001
,
0000
0001
0000
0001
,
0000
0100
0000
0100
,
0000
0010
0000
0010
,
0000
1000
0000
1000
,
0000
1000
0000
1000
,
0000
0001
0000
0001
,
0000
0001
0000
0001
,
0000
0100
0000
0100
,
0000
0100
0000
0100
,
0000
0010
0000
0010
,
0000
0010
0000
0010
,
0000
0000
0000
1001
,
0000
0000
1001
0000
,
0100
0000
0100
0000
,
1000
0000
0001
0000
,
0100
0000
1001
0000
,
1010
0000
1000
0000
,
1100
0000
1100
0000
,
1100
0000
1001
0000
,
0101
0000
0001
0000
,
0010
0000
1010
0000
,
1001
0000
0001
0000
,
0100
0000
0010
0000
,
1000
0000
0010
0000
,
0001
0000
0010
0000
,
0100
0000
0001
0000
,
0001
0000
0100
0000
,
1000
0000
0000
0200
,
0000
0300
0020
0000
0000
0000
0000
0030
,
0200
0000
0320
0000
,
0032
0000
0023
0000
,
0000
1030
0000
0000
,
2000
0000
0000
0000
3002
0000
0000
0003
,
0000
1000
0000
1000
,
0000
0010
0000
1000
,
0000
0100
0000
0010
,
0000
0100
0000
0000
,
1001
0000
1001
0000
,
1001
0000
1001
0000
,
0220
0000
0330
0001
,
0000
0100
0000
0000
,
1001
0000
0000
0100
,
0000
0000
0000
0010
0000
0000
0000
0000
,
0010
0000
0000
1000
,
0000
0100
0100
0000
,
1000
0000
0000
1001
,
0000
0000
1001
0000
,
0101
0000
0100
0000
,
0001
0000
1000
0000
,
1100
0000
1001
0000
,
0011
0000
0001
0000
,
0101
0000
0101
0000
,
0101
0000
1001
0000
,
1100
0000
1100
0000
,
0010
0000
0010
0000
,
1001
0000
1000
0000
,
0100
0000
0010
0000
,
0001
0000
0010
0000
,
1000
0000
0010
0000
,
0100
0100
0000
0010
,
0000
0010
0000
0100
,
0100
0000
0100
0200
,
0000
0300
0000
0000
0020
0000
0000
0030
,
0002
0000
0000
0000
0000
0000
0000
0003
,
0200
0000
0000
0000
0000
0000
0000
0300
,
0020
0000
0030
0000
,
0000
0001
0000
0010
,
2000
0000
0000
0000
0000
0000
0000
3000
,
2000
0000
0000
0000
0000
0000
0000
3000
,
0020
0000
0030
0000
,
0000
1000
0000
0001
,
0002
0000
0003
0000
,
0020
0000
0000
0000
0000
0000
0000
0030
,
0200
0000
0300
0000
,
0000
1000
0000
0100
,
0002
0000
0003
0000
,
0020
0000
0030
0000
,
0000
0010
0000
0100
,
0000
0100
0000
0010
,
0010
0000
0000
1000
,
1000
0000
0000
0000
,
2002
0000
0000
0000
0000
0000
0000
3003
,
2000
0000
0000
3000
0002
0000
0000
0003
,
0020
0000
0000
0000
0000
0000
0000
0030
,
0200
0000
0000
0000
0000
0000
0000
0300
,
2002
0003
0000
0000
0000
0000
0000
0000
0001
0000
0000
0000
0000
0000
0000
0000
,
0001
0000
0000
0000
0001
0000
0000
3000
,
1001
0000
1001
0000
,
0110
0000
0000
0000
,
0011
0010
0010
0000
,
0011
0010
0010
0000
,
1010
1000
1000
0000
,
0101
0100
0100
0000
,
0011
0001
0001
0000
,
0011
0010
0010
0000
,
1010
0010
0010
0000
,
0100
0000
0001
0000
,
1001
0000
1000
0000
,
1000
0000
0100
0000
,
0001
0000
0100
0000
,
1000
0000
0100
0000
,
0010
0000
1000
0000
,
1000
0000
0010
0020
,
0000
0000
0000
0000
,
0030
1000
1000
0000
,
1001
0000
0000
0000
,
1001
0000
0000
0000
,
1100
0000
0000
0000
,
0011
0000
0000
0000
,
0101
0000
0000
0000
,
1010
0000
0000
0000
,
0101
0000
0000
0000
,
1000
1000
1000
0000
,
0101
0000
0000
0000
,
1001
0000
0000
0000
,
0011
0000
0000
0000
,
1100
0000
0000
0000
,
1010
0000
0000
0000
,
0101
0000
0000
0000
,
2000
0000
0000
0010
,
0000
0000
0000
0000
0100
0000
0000
3000
,
0002
0000
0000
0010
,
0000
0000
0000
0000
0010
0000
0000
0003
,
2000
0000
0000
0000
,
3200
0000
0000
0300
0002
0000
0000
0003
,
0200
0000
0000
0000
0000
0000
0000
0300
,
0200
0300
0000
0000
;

//--------------- dance-single - Blood4Fame ----------------
#NOTES:
     dance-single:
     Blood4Fame:
     Easy:
     6:
     0,0,0,0,0:
0000
0000
0000
0000
,
0000
0000
0000
0000
,
0000
0000
0000
0000
,
0000
0000
0000
0000
,
0000
0000
0000
0000
,
0000
0000
0000
0000
,
0000
0000
0000
0000
,
0000
0000
0200
0300
,
1000
0010
1000
0010
,
1000
0010
1000
0010
,
0100
1000
0100
1000
,
0100
1000
0100
1000
,
0010
0001
0010
0001
,
0010
0001
0010
0001
,
1000
0100
1000
0100
,
1000
0010
1000
0010
,
1000
1000
1000
1000
,
1000
1000
1000
1000
,
0001
0001
0001
0001
,
0001
0001
0001
0001
,
1000
0100
1000
0100
,
1000
0100
1000
0100
,
0001
0010
0001
0010
,
0001
0010
0001
0010
,
0001
0000
0000
1001
,
0000
0000
1001
0000
,
1100
0000
0100
0000
,
1000
0100
0001
0000
,
0100
0001
1001
0000
,
1010
0000
1000
1000
,
1100
0000
1100
0000
,
1100
0100
1001
0000
,
0101
0100
0001
0000
,
0010
1000
1010
1010
,
1001
0010
0001
0000
,
0100
0001
0010
0000
,
1000
0100
0010
0000
,
0001
0001
0010
0100
,
0000
0100
0001
0010
,
0001
0000
0100
0100
,
1000
1000
0010
0200
,
0000
0300
0020
0000
0000
0000
0000
0030
,
0200
0000
0320
0000
,
0032
0000
0023
0000
,
0000
1030
0000
0001
,
2000
0000
0000
3000
0002
0000
0000
0003
,
0000
1000
0000
1000
,
0000
0010
0100
0000
,
1000
0100
0000
0010
,
0000
0100
0000
0010
,
1001
0000
1001
0000
,
1001
0000
1001
0110
,
0220
0000
0330
0001
,
0010
0100
0000
1000
,
1001
0000
0001
0100
,
0000
0100
0000
0000
0000
0000
0010
0000
0000
0000
0000
0000
0001
0000
0000
0000
,
0010
0000
0000
0100
0000
0000
1000
0000
,
0000
0000
0000
0000
0100
0000
0000
0000
0000
0100
0000
0000
0000
0000
0000
0000
,
1000
0000
0000
1001
,
0000
0000
1001
0000
,
0101
0000
0100
0000
,
0001
0100
1000
0000
,
1100
0000
1001
0000
,
0011
0000
0001
0001
,
0101
0000
0101
0000
,
0101
0000
1001
0000
,
1100
1100
1100
0000
,
0010
0001
0010
0010
,
1001
0010
1000
0000
,
0100
1000
0010
0000
,
0001
1000
0010
0000
,
1000
1000
0010
0100
,
0000
0100
1000
0010
,
0000
0010
0100
0100
,
0101
0000
0010
0200
,
0000
0300
0000
0000
0020
0000
0000
0030
,
0022
0000
0000
0000
0000
0000
0000
0033
,
0202
0000
0000
0000
0000
0000
0000
0303
,
2020
0000
3030
0000
,
0000
0001
1000
0010
,
2020
0000
0000
0000
0000
0000
0000
3030
,
2200
0000
0000
0000
0000
0000
0000
3300
,
0010
0200
0000
0300
,
0000
1000
1000
0001
,
0202
0000
0303
0000
,
2020
0000
0000
0000
0000
0000
0000
3030
,
0200
0000
0300
0000
,
0000
1000
0010
0100
,
2002
0000
3003
0000
,
0022
0000
0033
0000
,
1000
0010
0000
0100
,
0000
0100
0000
0010
,
0010
0000
0000
0000
0000
0000
0000
0000
1000
0000
0000
0000
0000
0000
0000
0010
,
0000
0000
0000
0100
0000
0000
0000
0000
0000
0000
0000
0000
0000
0000
0000
0000
,
2002
0000
0000
0000
0000
0000
0000
3003
,
2000
0000
0000
3000
0002
0000
0000
0003
,
0020
0000
0000
0000
0000
0000
0000
0030
,
0200
0000
0000
0000
0000
0000
0000
0300
,
2002
0003
0000
0000
0000
0000
0000
0000
0001
0000
0000
0000
0000
0000
0000
0000
,
0001
0000
0000
0000
0001
0000
0000
3000
,
1001
0000
1001
0000
,
0110
0000
0000
0000
,
0011
0010
0010
0000
,
0011
0010
1000
0000
,
1010
1000
1001
0000
,
0101
0100
0001
0000
,
0001
0011
0001
0000
,
0011
0010
1001
0000
,
1010
1010
1010
0000
,
0100
0001
0001
0000
,
1001
0100
1000
0000
,
1000
1000
0100
0000
,
0001
0001
0100
0000
,
1000
1000
0100
0000
,
0010
0010
1000
0000
,
1000
0100
0010
0020
,
0000
0000
0000
0000
,
0030
1000
1000
0001
,
1001
0000
0000
0000
,
1001
0000
0000
0000
,
1100
0000
0000
0000
,
0011
0000
0000
0000
,
0101
0000
0000
0000
,
1010
0000
0000
0000
,
0101
0000
0000
0000
,
1000
1000
1000
1000
,
0101
0000
0000
0000
,
1001
0000
0000
0000
,
0011
0000
0000
0000
,
1100
0000
0000
0000
,
1010
0000
0000
0000
,
0101
0000
0000
0000
,
2000
0000
0000
0010
,
0000
0000
0000
0000
0100
0000
0010
3000
,
0002
0000
0000
0010
,
0000
0000
0000
0000
0010
0000
0100
0003
,
2000
0000
0000
0000
,
3200
0000
0000
0300
0002
0000
0000
0003
,
0200
0000
0000
0000
0000
0000
0000
0300
,
2200
3300
0000
0000
;

//--------------- dance-single - Blood4Fame ----------------
#NOTES:
     dance-single:
     Blood4Fame:
     Medium:
     9:
     0,0,0,0,0:
0000
0000
0000
0000
,
0000
0000
0000
0000
,
0000
0000
0000
0000
,
0000
0000
0000
0000
,
0000
0000
0000
0000
,
0000
0000
0000
0000
,
0000
0000
0000
0000
,
0000
0000
0000
0000
0100
0002
0000
0000
,
1003
0100
0010
0000
1000
0100
0010
0000
,
1000
0100
0010
0000
1000
0100
0010
0000
,
0100
0010
1000
0000
0100
0010
1000
0000
,
0100
0010
1000
0000
0100
0010
1000
0000
,
0010
0100
0001
0000
0010
0100
0001
0000
,
0010
0100
0001
0000
0010
0100
0001
0000
,
1000
0010
0100
0000
1000
0010
0100
0000
,
1000
0100
0010
0000
1000
0100
0010
0000
,
1000
0001
1000
0000
1000
0001
1000
0000
,
1000
0001
1000
0000
1000
0001
1000
0000
,
0001
1000
0001
0000
0001
1000
0001
0000
,
0001
1000
0001
0000
0001
1000
0001
0000
,
1000
0010
0100
0000
1000
0010
0100
0000
,
1000
0010
0100
0000
1000
0010
0100
0000
,
0001
0100
0010
0000
0001
0100
0010
0000
,
0001
0100
0010
0000
0001
0100
0010
0000
,
0001
1000
0000
0100
0000
0000
1001
0100
,
0000
0100
0000
0000
1001
0010
0000
0000
,
1100
0000
0000
1000
0100
1000
0000
0000
,
1100
0100
0001
0100
,
0101
0001
1001
0001
,
1010
0000
0000
0010
1000
0100
1000
0000
,
1100
0000
1100
0000
1100
0100
0000
0000
,
1100
0100
1001
0100
,
0101
0101
0101
0101
,
0010
0001
1000
0010
1010
0000
1010
0000
,
1001
0000
0010
0000
0001
1000
0100
0001
,
0000
1000
0001
1000
0010
0000
0100
0000
,
1000
0000
0000
0001
0010
0100
0001
0000
,
0001
1000
0001
0000
0010
1000
0100
1000
,
0000
0000
0100
0010
0001
1000
0010
0000
,
0001
1000
0010
1000
0100
1000
0100
0000
,
1100
1001
1010
0202
,
0000
0303
2020
0000
0000
0000
0000
3030
,
0200
0000
0320
0000
,
0032
0000
0023
0000
,
0000
1030
0000
0001
,
1000
0000
0010
0000
0100
0000
0001
0000
0100
0000
0000
0000
,
1000
0100
0000
0000
1000
0100
0000
0000
,
1000
0100
0010
0000
0100
1000
0000
0000
,
1000
0000
0100
0001
0000
0000
0010
1000
,
0000
0100
0000
1000
0000
0001
0000
0000
,
1001
0010
1001
0100
,
1001
0001
1001
0110
,
2200
0000
3300
0001
,
0010
0000
0100
1000
0000
1000
0000
0000
,
1001
0010
0011
1100
,
0000
0100
0000
0000
0000
0000
1010
0000
0000
0000
0000
0000
0001
0000
0000
0000
,
0010
1000
0000
1000
0000
0000
1000
0100
,
0000
0001
0000
0010
0000
0100
0000
0000
,
1000
0001
0000
0100
0000
0000
1001
0100
,
0000
0100
0000
0000
1001
0010
0000
0000
,
0101
0000
0000
0001
0100
0001
0000
0000
,
0101
0100
1000
0100
,
1100
1000
1001
1000
,
0011
0000
0000
0010
0001
0100
0001
0000
,
0101
0000
0101
0000
0101
0100
0000
0000
,
0101
0100
1001
0100
,
1100
1100
1100
1100
,
0010
1000
0001
0000
0011
0000
0011
0000
,
1001
0000
0010
0000
1000
0001
0100
1000
,
0000
0001
1000
0001
0010
0000
0100
0000
,
0001
0000
1000
0000
0010
0100
1000
0000
,
1000
0001
1000
0000
0010
0001
0100
0001
,
0000
0000
0100
0010
1000
0000
0010
0001
,
1000
0000
0010
0001
0100
0001
0100
0000
,
0101
1001
0011
2200
,
0000
3300
0000
0000
0022
0003
0001
0030
,
0022
0000
0000
0000
0000
0000
0000
0033
,
0202
0000
0000
0000
0000
0000
0000
0303
,
2020
0000
3030
0000
,
0000
0001
1000
0010
,
2020
0000
0000
0000
0000
0000
0000
3030
,
2200
0000
0000
0000
0000
0000
0000
3300
,
0010
0001
0200
0000
0000
0000
0300
0000
,
0000
1000
1000
0001
,
0202
0000
0303
0000
,
2020
0000
0000
0000
0000
0000
0000
3030
,
0200
0000
0300
0000
,
0000
1000
0010
0100
,
2002
0000
3003
0000
,
0022
0000
0033
0000
,
1010
0000
0010
0200
0000
0300
0100
0010
,
0000
0002
0000
0200
0000
0303
0000
0000
,
0010
0000
1000
0000
0000
0100
0000
0000
0000
0000
0001
0000
0000
0000
0000
0010
,
0000
0000
0000
0100
0000
0000
1000
0000
0000
0000
0000
0000
0000
0000
0000
0000
,
2002
0000
0000
0000
0000
0000
0000
3003
,
2200
0000
0000
3300
0202
0000
0000
0303
,
2020
0000
0000
0000
0000
0000
0000
3030
,
2200
0000
0000
0000
0000
0000
0000
3300
,
2002
0003
0000
0000
0000
0000
0000
0000
0001
0000
0000
0000
0000
0000
0000
0000
,
0001
0000
0000
0000
0001
0000
0000
3000
,
1001
1001
1001
1001
,
0110
0000
0000
0000
,
0011
0000
0010
0000
0010
0001
0000
0000
,
0011
0010
1000
0010
,
1010
1000
1001
1000
,
0101
0000
0100
0000
0001
0000
0001
0100
,
0001
0000
0011
0000
0001
0010
0000
0000
,
0011
0010
1001
0010
,
1010
1010
1010
1010
,
0100
1000
0001
0100
0001
0000
0001
0000
,
1001
0000
0100
0000
1000
0001
0010
1000
,
0000
0001
1000
0001
0100
0000
0010
0000
,
0001
0000
0001
1000
0100
0010
1000
0000
,
1000
0001
1000
0000
0100
0001
0010
0000
,
0010
0000
0010
0100
1000
0001
0100
0000
,
1000
0001
0100
0001
0010
0001
0020
0000
,
0002
0000
0000
0000
,
0033
0000
1000
0001
1000
0010
0001
0000
,
1001
1000
0010
0001
,
1001
1000
0100
0010
,
1100
0100
0010
0010
,
0011
0100
1000
1000
,
0101
1000
0010
0100
,
1010
0001
0100
0010
,
0101
1000
0010
0100
,
1000
0100
1000
0100
1000
0010
1000
0000
,
0101
0001
0100
1000
,
1001
0001
0010
0100
,
0011
0010
0100
0100
,
1100
0010
0010
0001
,
1010
0001
0100
0010
,
0101
1000
0010
0100
,
2010
0000
0000
0001
0000
0000
0010
0000
,
0000
0001
0000
0000
0100
0000
0010
3000
,
0102
0000
0000
1000
0000
0000
0010
0000
,
0000
1000
0000
0000
0010
0000
0100
0003
,
2200
0000
0000
0000
0000
0000
0000
0300
,
0200
0000
0000
0300
0002
0000
0000
0003
,
0200
0000
0000
0000
0000
0000
0000
3300
,
2200
3300
0000
0000
;

//--------------- dance-single - Blood4Fame ----------------
#NOTES:
     dance-single:
     Blood4Fame:
     Hard:
     10:
     0,0,0,0,0:
0000
0000
0000
0000
,
0000
0000
0000
0000
,
0000
0000
0000
0000
,
0000
0000
0000
0000
,
0000
0000
0000
0000
,
0000
0000
0000
0000
,
0000
0000
0000
0000
,
0000
0000
0000
0000
0100
0002
0000
0000
,
1003
0100
0010
0001
1000
0100
0010
0001
,
1000
0100
0010
0001
1000
0100
0010
0001
,
0100
0010
1000
0001
0100
0010
1000
0001
,
0100
0010
1000
0001
0100
0010
1000
0001
,
0010
0100
0001
0100
0010
0100
0001
0100
,
0010
0100
0001
0100
0010
0100
0001
0100
,
1000
0010
0100
0010
1000
0010
0100
0010
,
1000
0100
0010
0100
1000
0100
0010
0100
,
1000
0001
1000
0010
1000
0001
1000
0010
,
1000
0001
1000
0010
1000
0001
1000
0010
,
1000
0010
0100
0001
0010
0100
0001
0100
,
0001
1000
0001
0100
0001
1000
0001
0100
,
0001
0010
0100
0001
1000
0010
0100
0001
,
1000
0010
0100
0001
1000
0010
0100
0001
,
1000
0100
0010
0100
0001
0100
0010
0001
,
1000
0100
0010
1000
0001
0100
0010
1000
,
0001
1000
0000
0100
0000
0100
1001
0100
,
0000
0100
0000
0100
1001
0010
0000
0000
,
1100
0100
0000
1000
0100
1000
0000
1000
,
1100
0100
0001
0100
,
0101
0001
1001
0001
,
1010
0010
0000
0010
1000
0100
1000
0010
,
1100
0000
1100
0000
1100
0100
0000
0000
,
1100
0100
1001
0100
,
0101
0101
0101
0101
,
0010
0001
1000
0010
1010
0000
1010
0010
,
1001
0000
0010
0000
0001
1000
0100
1000
,
0000
1000
0001
1000
0010
1000
0100
1000
,
0000
1000
0000
0001
0010
0100
0001
0000
,
0001
1000
0001
1000
0010
1000
0100
1000
,
0000
1000
0100
0010
0001
1000
0010
1000
,
0001
1000
0010
1000
0100
1000
0100
0000
,
1100
1001
1010
0202
,
0000
0303
2020
0000
0000
0000
0000
3030
,
0200
0000
0320
0000
,
0032
0000
0023
0000
,
0000
1030
0000
0001
,
1000
0000
0010
0000
0100
0000
0001
0000
0100
0000
0000
0000
,
1000
0100
0010
0000
0001
0100
0010
0000
,
1000
0100
0010
0000
0001
0100
0000
0000
,
1000
0000
0100
1000
0000
0000
0010
1000
,
0000
0100
0000
1000
0000
0001
0000
0000
,
1001
0010
1001
0100
,
1001
0001
1001
0110
,
2200
0000
3300
0001
,
0010
0000
0100
1000
0000
1000
0000
0000
,
1001
0000
0010
0000
1010
0000
1100
0100
,
0000
0100
0000
0000
0000
0000
1010
0000
0000
0000
0000
0000
0010
0000
0000
0000
,
0010
1000
0000
1000
0000
0000
1000
0100
,
0000
1000
0000
0010
0000
0100
0000
0000
,
1000
0001
0000
0100
0000
0100
1001
0100
,
0000
0100
0000
0100
1001
0010
0000
0000
,
0101
0100
0000
0001
0100
0001
0000
0001
,
0101
0100
1000
0100
,
1100
1000
1001
1000
,
0011
0010
0000
0010
0001
0100
0001
0010
,
0101
0000
0101
0000
0101
0100
0000
0000
,
0101
0100
1001
0100
,
1100
1100
1100
1100
,
0010
1000
0001
0010
0011
0000
0011
0010
,
1001
0000
0010
0000
1000
0001
0100
0001
,
0000
0001
1000
0001
0010
0001
0100
0001
,
0000
0001
0000
1000
0010
0100
0001
0000
,
1000
0001
1000
0001
0010
0001
0100
0001
,
0000
0001
0100
0010
1000
0001
0010
0001
,
1000
0001
0010
0001
0100
0001
0100
0000
,
0101
1001
0011
2200
,
0000
3300
0000
0000
0022
0003
0001
0030
,
0022
0000
0000
0000
0000
0000
0000
0033
,
0202
0000
0000
0000
0000
0000
0000
0303
,
2020
0000
3030
0000
,
0000
0001
1000
0010
,
2020
0000
0000
0000
0000
0000
0000
3030
,
2200
0000
0000
0000
0000
0000
0000
3300
,
0010
0001
0200
0000
0000
0000
0300
0000
,
0000
1000
1000
0001
,
0202
0000
0303
0000
,
2020
0000
0000
0000
0000
0000
0000
3030
,
0200
0000
0300
0000
,
0000
1000
0010
0100
,
2002
0000
3003
0000
,
0022
0000
0033
0000
,
1010
0000
0010
0200
0000
0300
0100
0010
,
0000
2000
0000
0200
0000
3300
0000
0000
,
1010
0000
1000
0000
0000
0100
0000
0000
0000
0000
0001
0000
0000
0000
0000
0010
,
0000
0000
0000
0100
0000
0000
1000
0000
0000
0000
0000
0000
0000
0000
0000
0000
,
2002
0000
0000
0000
0000
0000
0000
3003
,
2200
0000
0000
3300
0202
0000
0000
0303
,
2020
0000
0000
0000
0000
0000
0000
3030
,
2200
0000
0000
0000
0000
0000
0000
3300
,
2002
0003
0000
0000
0001
0000
0000
0000
0001
0000
0000
0000
0001
0000
0000
0000
,
0001
0000
0001
0000
0001
0000
0001
3000
,
1001
1001
1001
1001
,
0110
0000
0000
0000
,
0011
0000
0010
0000
0010
0001
0000
0000
,
0011
0010
0100
0010
,
1001
1000
1001
1000
,
1010
0000
0100
0000
0001
0000
0001
0100
,
0011
0000
0011
0000
0011
0010
0000
0000
,
0011
0010
1001
0010
,
1010
1010
1010
1010
,
0100
1000
0001
0100
0101
0000
0101
0100
,
1001
0000
0100
0000
0001
1000
0010
1000
,
0000
0001
1000
0001
0100
0001
0010
0001
,
0000
1000
0000
1000
0100
0010
0001
0000
,
1000
0001
1000
0001
0100
0001
0010
0001
,
0000
0001
0010
0100
1000
0001
0100
0001
,
1000
0001
0100
0001
0010
0001
0020
0000
,
0002
0000
0000
0000
,
0033
0000
1000
0001
1000
0010
1000
0100
,
1010
1000
1010
0001
,
1001
1000
0101
0010
,
1100
0100
0110
0010
,
0011
0100
1100
1000
,
0101
1000
1010
0100
,
1010
0001
0101
0010
,
0101
0000
0000
1000
0000
0000
1010
0000
0000
0100
0000
0001
,
1000
0000
0100
1000
0000
0001
1000
0000
0010
1000
0000
0000
,
0101
0001
0101
1000
,
1001
0001
1010
0100
,
0011
0010
0110
0100
,
1100
0010
0011
0001
,
1010
0001
0101
0010
,
0101
1000
1010
0100
,
2010
0000
0000
0001
0000
0000
0010
0000
,
0000
0001
0000
0000
0100
0000
0010
3000
,
0102
0000
0000
1000
0000
0000
0010
0000
,
0000
1000
0000
0000
0010
0000
0100
0003
,
2200
0000
0000
0000
0000
0000
0000
0300
,
0200
0000
0000
0300
0002
0000
0000
0003
,
0200
0000
0000
0000
0000
0000
0000
3300
,
2200
3300
0000
0000
;
