#TITLE:Heartbeat;
#SUBTITLE:;
#ARTIST:Childish Gambino ;
#TITLETRANSLIT:;
#SUBTITLETRANSLIT:;
#ARTISTTRANSLIT:;
#GENRE:Hip Hop;
#CREDIT:Blood4Fame;
#MUSIC:Heartbeat.mp3;
#BANNER:Banner.png;
#BACKGROUND:BG.png;
#CDTITLE:;
#SAMPLESTART:16.036;
#SAMPLELENGTH:16.000;
#SELECTABLE:YES;
#OFFSET:-0.036;
#BPMS:0.000=120.000
,240.000=118.000
,250.000=120.000
;
#STOPS:;
#DISPLAYBPM:120.000;
#BGCHANGES:;
#FGCHANGES:;

//--------------- dance-single - Blood4Fame ----------------
#NOTES:
     dance-single:
     Blood4Fame:
     Easy:
     3:
     0,0,0,0,0:
0000
0000
0000
0000
,
0000
0000
0000
0000
,
0000
0000
0000
0000
,
0000
0000
0000
0000
,
1000
1000
1000
1000
,
0001
0001
0001
0001
,
0100
0100
0100
0100
,
0010
0010
0010
0010
,
1000
1000
1000
1000
,
0001
0001
0001
0001
,
0100
0100
0100
0100
,
0010
0010
0010
0010
,
1000
2000
0000
3001
,
0001
0002
0000
0103
,
0100
0200
0000
0310
,
0010
0020
0000
1030
,
0001
2000
0000
3001
,
1000
0002
0000
0013
,
1000
0020
0000
0130
,
0001
0200
0000
0310
,
2000
0000
0000
0000
,
3002
0000
0000
0013
,
0200
0000
2300
0000
,
3002
0000
1003
0100
,
0020
0000
0000
0000
,
0032
0000
0000
0000
,
0203
0000
0000
0000
,
2300
0000
0000
0000
,
3010
0001
0000
1000
,
0001
0100
0010
1000
,
0000
0010
0001
0100
,
0000
1000
0100
1000
,
0000
0010
0001
0001
,
0000
0010
1000
1000
,
0000
0010
0001
0100
,
0010
1000
0000
0100
,
0001
0010
0010
0001
,
1000
0100
0100
0010
,
0100
1000
0001
0100
,
0010
0100
0001
0001
,
0100
0100
0010
0010
,
1000
0000
0000
1000
,
0001
0010
0100
0001
,
0100
0010
1000
1000
,
0000
0000
0000
0000
,
0000
0000
0000
0000
,
0000
0010
0200
0000
,
0301
0200
0300
0000
,
1000
1000
1000
1000
,
0001
0001
0001
0001
,
0010
0010
0010
0010
,
0100
0100
0100
0100
,
1100
0010
0010
0000
,
1100
0100
0100
0000
,
0101
0010
0010
0000
,
0110
0100
0100
0000
,
0011
0001
0001
0000
,
1010
1000
1000
0000
,
0011
0001
0001
0000
,
0110
0100
0000
0100
,
0200
0010
0000
0310
,
0020
1000
0000
1030
,
2000
0001
0000
3001
,
0020
0000
0000
0130
,
0010
1000
0000
1000
,
0000
1000
0000
1000
;

//--------------- dance-single - Blood4Fame ----------------
#NOTES:
     dance-single:
     Blood4Fame:
     Medium:
     7:
     0,0,0,0,0:
0000
0000
0000
0000
,
0000
0000
0000
0000
,
0000
0000
0000
0000
,
0000
0000
0000
0000
,
0000
0010
0100
0001
0010
0100
2000
0000
,
3000
0100
0010
0001
0001
0010
0001
2000
,
0000
3000
0100
0000
1020
0000
0000
0130
,
0110
0000
1001
0000
2000
3000
0020
0030
,
2000
3000
1000
0001
0100
0010
1000
0000
,
0000
0100
0010
0001
1000
0100
0010
0001
,
0001
0000
1010
0000
2100
0000
0000
3100
,
1010
0000
0000
0000
2200
0000
0000
3300
0000
0000
0000
0000
0000
0000
0000
0010
,
0000
0002
0000
0000
0100
0000
0000
0000
0000
0000
0000
0000
0013
0000
0000
0100
,
0000
0020
0000
0000
1000
0000
0000
0000
0000
0000
0000
0000
0130
0010
0000
0100
,
0000
0200
0000
0000
1000
0000
0000
0000
0000
0000
0000
0000
1300
0100
0000
0001
,
0000
2000
0000
0000
0010
0000
0000
0000
3000
0000
0010
0100
0000
0010
0000
0100
,
0002
0000
0000
0000
0100
0000
0000
0000
0000
0000
0000
0000
0103
0001
0000
0010
,
0000
0020
0000
0000
1000
0000
0000
0000
0000
0000
0000
0000
0130
0010
0000
0001
,
0000
0200
0000
0000
1000
0000
0000
0000
0000
0000
0000
0000
1300
0000
0000
0001
,
0000
2000
0000
0000
0100
0000
0000
0000
0000
0000
0000
0000
3001
0000
0000
0000
,
1002
0000
0103
0000
0010
1000
0100
1000
,
0210
0000
0310
0000
0001
1000
1000
0010
,
0202
0000
0303
1000
0010
0001
0010
0100
,
0202
0000
0303
0000
2000
3000
0200
0300
,
0021
0000
0000
0030
0001
0000
1000
0000
0100
0000
1000
0000
0010
0000
1000
0000
,
0120
0000
0130
0010
1000
0010
0100
0010
,
0102
0000
0103
0001
0010
0001
0100
0010
,
2000
0000
3100
0000
1000
0010
0100
0001
,
0002
0000
0100
0000
0000
0000
1003
2000
,
0000
0000
3010
0000
0200
0000
0010
0300
0200
0000
0001
0000
0301
0000
0010
0002
,
0003
0000
2000
3000
2000
0000
0100
3000
2000
0000
0100
0000
3100
0000
1000
0200
,
0000
0000
0310
0000
0001
0000
0200
0300
0200
0000
0010
0000
0010
0300
0200
0301
,
0000
0010
0001
0100
0010
1000
0010
0100
,
0000
0020
0100
0130
0001
1000
0020
0130
,
0000
0000
0001
0000
0100
0000
0002
0000
0100
0003
2000
0000
3100
0000
0001
0000
,
0100
0010
0100
0002
0000
0103
0010
0100
,
0002
0010
0000
1000
0000
0103
0001
0010
,
0010
0000
0001
0000
0001
0000
0200
0000
0010
0300
0200
0000
0010
0000
0301
0000
,
0010
0000
0200
0000
0000
0300
1000
0000
0200
0000
0310
0000
0200
0000
1300
0000
,
0010
0200
0000
0310
0100
0010
0100
0010
,
1000
0000
0002
0000
0003
0000
1000
0000
0100
0000
0000
0000
0010
0000
0002
0003
,
0000
0100
0000
1000
0000
0100
1000
0001
,
0000
0100
2000
3000
0002
0000
0013
0000
0001
0000
0001
2000
0000
3000
0002
0000
,
0000
0000
0100
0000
0013
0000
1000
0000
0100
2000
3000
0002
0003
0002
1003
0000
,
0000
0010
1000
0100
0010
0001
0100
0000
,
0000
0001
1000
0100
0010
0001
1000
0100
,
0000
0000
0010
0000
0011
0000
0000
0100
,
1100
0000
0100
0000
2000
3000
0200
0300
,
0022
0033
1000
0100
1000
0010
0100
0000
,
0000
1000
0010
0100
0001
0010
0100
0010
,
0100
0000
0010
0000
0001
0000
0000
1000
,
1100
0000
0000
0000
0100
0000
0000
0000
0000
0000
0000
0000
0000
0000
0001
0010
,
0000
0002
0010
0003
0002
0000
0000
0000
1000
0000
0000
0003
0011
0000
0000
0100
,
0000
0020
0000
0000
0001
0000
0000
0000
0001
0000
0000
0000
0130
0010
0000
0100
,
0000
0200
0000
0000
1000
0000
0000
0000
0001
0000
0000
0000
1300
0010
0000
0000
,
2000
0000
0000
0000
0010
0000
0000
0000
3100
0000
0010
0100
0000
0010
0000
0100
,
0002
0000
0000
0000
0100
0000
0000
0000
1000
0000
0000
0000
0103
0001
0000
0010
,
0000
0020
0000
0000
0001
0000
0000
0000
0001
0000
0000
0000
0130
0010
0000
0001
,
0000
0200
0000
0000
1000
0000
0000
0000
0010
0000
0000
0000
0300
0000
1000
0000
,
0010
0000
0000
0000
0200
0000
0000
0000
0000
0000
0000
0000
0310
2000
0000
0000
,
3100
1000
0010
0010
0000
0001
0010
0010
,
0000
0010
0001
1000
0000
0010
0100
0100
,
0000
1000
0010
0001
0000
0000
0001
0100
,
0100
0000
1000
0000
1000
0000
0001
0000
0000
0000
0100
0000
0000
0000
0100
0020
,
0000
0030
0000
0000
0100
0000
0000
0000
0000
0000
0000
0000
0100
0000
0000
0000
,
0000
0100
0000
0100
;

//--------------- dance-single - Blood4Fame ----------------
#NOTES:
     dance-single:
     Blood4Fame:
     Hard:
     10:
     0,0,0,0,0:
0000
0000
0000
0000
,
0000
0000
0000
0000
,
0000
0000
0000
0000
,
0000
0000
0000
0000
,
1100
0010
0100
0001
0010
0100
1000
0000
,
1010
0100
0010
1000
0001
0010
0101
1000
,
2001
0000
3100
0000
1020
0000
0000
0130
,
0110
1001
1200
0310
,
0011
0010
0100
1000
0100
1000
0001
0000
,
1010
0100
0001
0010
0001
0100
0010
1000
,
1001
0000
1010
0000
2100
0000
0000
3100
,
1010
0000
0000
0000
2200
0000
0000
3300
0000
0000
0000
0000
0000
0000
0000
0010
,
0000
0002
0000
0000
0100
0000
0000
0000
1000
0000
0000
0000
0013
0000
0000
0100
,
0000
0020
0000
0000
1000
0000
0000
0000
0001
0000
0000
0000
0130
0010
0000
0100
,
0000
0200
0000
0000
1000
0000
0000
0000
0001
0000
0000
0000
1300
0100
0000
0001
,
0000
2000
0000
0000
0010
0000
0000
0000
3100
0000
0010
0100
0000
0010
0000
0100
,
0002
0000
0000
0000
0100
0000
0000
0000
1000
0000
0000
0000
0103
0001
0000
0010
,
0000
0020
0000
0000
1000
0000
0000
0000
0001
0000
0000
0000
0130
0010
0000
0001
,
0000
0200
0000
0000
1000
0000
0000
0000
0010
0000
0000
0000
1300
0000
0000
0001
,
0000
2000
0000
0000
0100
0000
0000
0000
0010
0000
0000
0000
3001
0000
0000
0000
,
1002
0000
0000
0000
0103
0000
0000
0100
0010
0000
1000
0000
0100
0000
0001
0000
,
0210
0000
0000
0000
0310
0000
0000
0010
0001
0000
1000
0010
1000
0000
0010
0000
,
0202
0000
0000
0000
0303
0000
1000
0100
0010
0000
0001
0000
0010
0000
0100
0000
,
2200
0000
0000
0000
3300
0000
0000
0001
1000
0100
0010
0000
0100
0000
0100
0000
,
2001
0000
0000
0000
3001
0000
1000
0010
0100
0010
1000
0100
0010
0000
0001
0000
,
0120
0000
0000
0000
0130
0000
1000
0100
1000
0100
0010
0000
0100
0000
0010
0000
,
0102
0000
0000
0000
0103
0010
1000
0100
0010
0000
0001
0010
0100
0000
1000
0000
,
2100
0000
0000
0000
3100
0000
0000
0010
0001
0100
0010
0000
0100
0000
0001
0000
,
0002
0000
0000
0000
0100
0000
0010
0000
0000
0000
0000
0000
1003
0000
1000
0200
,
0000
0000
0010
0301
0200
0000
0010
1300
0200
0000
1000
0000
1000
0000
0310
2000
,
0000
3100
2000
3010
2000
0000
0100
3000
2000
0000
0100
0000
3100
2000
3001
0200
,
0000
0000
0310
0200
0301
1000
0200
0310
0200
0000
1000
0000
1000
0300
0200
1300
,
0002
0000
0010
0003
0002
0000
0100
0000
0010
0003
0002
0000
0010
0000
0103
0020
,
0000
1030
0020
0000
0100
0000
0130
0020
1000
0000
1000
0030
0020
0000
0130
0002
,
0000
0000
1000
0000
0100
0003
0002
0000
0100
0003
0002
0000
0010
0003
0001
2000
,
0100
0000
0010
0000
0100
3000
2000
0000
0000
0000
0100
0000
3010
0000
0100
0000
,
0002
0000
0010
0000
0000
0000
1000
0000
0000
0000
0103
0000
0001
1000
0010
0200
,
0310
0200
0000
0000
0001
0300
0200
0010
1000
0300
0200
0000
0010
0000
1300
0200
,
0310
0001
0200
0000
0000
0310
1000
0001
0200
0000
0310
1000
0200
0000
1300
0000
,
0010
0000
0200
0000
0000
0000
0310
1000
0100
0000
0010
0001
0100
0000
0010
0100
,
0002
1003
0002
0000
0000
0000
1000
0000
0100
0000
0000
0000
0013
0100
0001
0020
,
0000
0000
0100
0000
0000
0000
1000
0000
0000
0030
0100
0010
1000
0000
0001
2000
,
0000
3100
2000
3100
2000
0000
3010
0100
0001
0000
0001
2000
0000
3010
1000
0002
,
0000
0000
0100
0000
0010
0000
1000
0000
0103
0002
0003
0002
0003
0001
1000
0000
,
1001
0010
1000
0100
0010
0001
0100
0000
,
0110
0001
1000
0100
0010
0001
1010
0100
,
0101
0000
0010
0000
0011
0000
0000
0100
,
1100
0100
1000
0100
,
1001
0010
1000
0100
1000
0010
0100
0000
,
0110
1000
0010
0100
0001
0010
0100
0010
,
0101
0000
0010
0000
0001
0000
0000
1000
,
1100
0000
0000
0000
0100
0000
0000
0000
0000
0000
0000
0000
0000
0000
0001
0010
,
0000
0002
0010
0003
0002
0000
0000
0000
1000
0000
0000
0003
0011
0000
0000
0100
,
0000
0020
0000
0000
1000
0000
0000
0000
0001
0000
0000
0000
0130
0010
0000
0100
,
0000
0200
0000
0000
1000
0000
0000
0000
0001
0000
0000
0000
1300
0010
0000
2000
,
0000
0000
0000
0000
0010
0000
0000
0000
3100
0000
0010
0100
0000
0010
0000
0100
,
0002
0000
0000
0000
0100
0000
0000
0000
1000
0000
0000
0000
0103
0001
0000
0010
,
0000
0020
0000
0000
1000
0000
0000
0000
0001
0000
0000
0000
0130
0010
0000
1000
,
0000
0200
0000
0000
1000
0000
0000
0000
0010
0000
0000
0000
0300
0000
1000
0010
,
0000
0020
0000
0000
0200
0000
0000
0000
0000
0000
0300
0000
0130
2000
0000
0000
,
3100
0000
1000
0100
0010
0000
0010
0000
0000
0000
0001
0100
0010
0000
0010
0000
,
0000
0000
0010
0100
0001
0000
1000
0000
0000
0000
0010
1000
0100
0000
0100
0000
,
0000
0000
1000
0100
0010
0000
0001
0000
0000
0000
0000
0100
0001
0010
0100
0010
,
0100
0000
1000
0100
1000
0000
0001
0000
0000
0000
0100
0000
0000
0000
0100
0020
,
0000
0030
0000
0000
0100
0000
0000
0000
0000
0000
0000
0000
0100
0000
0000
0000
,
0000
0100
0000
0100
;
