#TITLE:Hazy Shade of Winter;
#SUBTITLE:;
#ARTIST:Gerard Way feat. Ray Toro;
#TITLETRANSLIT:;
#SUBTITLETRANSLIT:;
#ARTISTTRANSLIT:;
#GENRE:Rock;
#CREDIT:Blood4Fame;
#MUSIC:music.mp3;
#BANNER:banner.png;
#BACKGROUND:bg.png;
#CDTITLE:;
#SAMPLESTART:66.631;
#SAMPLELENGTH:12.715;
#SELECTABLE:YES;
#OFFSET:-0.273;
#BPMS:0.000=151.000
,236.000=148.000
,244.000=146.000
,272.000=151.000
,294.000=152.000
;
#STOPS:;
#BGCHANGES:;
#FGCHANGES:;

//--------------- dance-single - Blood4Fame ----------------
#NOTES:
     dance-single:
     Blood4Fame:
     Beginner:
     2:
     0,0,0,0,0:
0000
0000
0000
0000
,
0000
0000
0000
0000
,
0000
0000
0000
0000
,
0000
0000
0000
0000
,
0000
0000
0000
0000
,
0000
0000
0000
0000
,
0000
0000
0000
0000
,
0000
0000
0000
0000
,
0000
0000
0000
0000
,
0000
0000
0000
0000
,
0200
0000
0000
0000
,
0300
0000
0000
0000
,
0020
0000
0000
0000
,
0030
0000
0000
0000
,
0200
0000
0000
0000
,
0300
0000
0000
0000
,
0020
0000
0000
0000
,
0030
0000
0000
0000
,
1000
0000
0000
0000
,
0001
0000
0000
0000
,
1000
0000
0000
0000
,
0001
0000
0000
0000
,
0010
0000
0000
0000
,
0100
0000
0000
0000
,
0010
0000
0000
0000
,
0100
0000
0000
0000
,
0010
0010
0000
0100
,
0100
0000
0010
0000
,
2000
0000
0000
0000
,
3000
0000
0000
0000
,
0200
0000
0000
0000
,
0300
0000
0000
0000
,
1000
0000
1000
1000
,
0000
0001
0001
0001
,
0000
0010
0010
0010
,
0000
0100
0100
0100
,
0000
0010
0010
0010
,
0000
1000
1000
1000
,
1000
0000
0000
0000
,
0010
0000
0000
0000
,
0100
0100
0000
0010
,
0010
0000
0100
0000
,
2000
0000
0000
0000
,
3000
0000
0000
0000
,
0200
0000
0000
0000
,
0300
0000
0000
0000
,
0000
1000
1000
1000
,
0000
0001
0001
0001
,
0000
1000
1000
1000
,
0000
0100
0100
0100
,
0000
0010
0010
0010
,
0000
1000
1000
1000
,
1000
0000
0000
0000
,
0100
0000
0000
0000
,
0010
0010
0000
0100
,
0100
0000
0100
0000
,
2000
0000
0000
0000
,
3000
0000
0000
0000
,
0002
0000
0000
0000
0000
0000
0003
0001
,
0000
0000
0000
0000
,
0000
0000
0000
0000
,
0200
0000
0000
0000
,
0000
0000
0000
0300
,
0020
0000
0000
0000
,
0000
0000
0000
0030
,
2000
0000
0000
0000
,
0000
0000
0000
3000
,
0001
0000
0000
0001
0000
0000
0002
0000
,
0000
0000
0000
0003
,
0000
0000
0200
0000
,
0000
0000
0300
0000
,
0000
0000
2000
0000
,
0000
0000
3000
0000
,
0000
0000
0002
0000
,
0000
0000
0003
0000
,
0000
0000
0020
0000
,
0000
0000
0030
0000
,
0000
0000
1000
0000
,
0000
0000
0100
0000
,
0000
0000
1000
0000
,
0000
0000
0010
0000
,
0000
0000
0100
0000
,
0100
0000
0001
0000
,
0001
0000
1000
0000
,
1000
0000
0001
0000
,
0001
0000
0100
0000
,
0001
0000
1000
0000
,
0010
0000
0100
0000
,
0001
0000
0010
0000
,
1000
0000
0100
0000
,
0100
1000
1000
0000
,
0001
0100
0100
0000
,
0010
1000
1000
0000
,
0100
0010
0000
0000
;

//--------------- dance-single - Blood4Fame ----------------
#NOTES:
     dance-single:
     Blood4Fame:
     Easy:
     4:
     0,0,0,0,0:
0000
0000
0000
0000
,
0000
0000
0000
0000
,
0000
0000
0000
0000
,
0000
0000
0000
0000
,
0000
0000
0000
0000
,
0000
0000
0000
0000
,
0000
0000
0000
0000
,
0000
0000
0000
0000
,
0000
0000
0000
0000
,
0000
0000
0000
0000
,
0100
0100
0100
0100
,
0100
0100
0100
0100
,
0001
0001
0001
0001
,
0001
0001
0001
0001
,
1000
1000
1000
1000
,
1000
1000
1000
1000
,
0100
0100
0100
0100
,
0100
0100
0100
0100
,
1000
0000
0000
0001
0000
0000
1000
0000
,
0000
0000
0000
0100
0000
0000
1000
0000
,
0010
0000
1000
0000
,
0100
0000
0010
0000
,
1000
0001
0001
0010
,
0000
0010
0010
1000
,
0100
0000
0100
0000
,
0100
0000
0100
0000
,
0001
0001
1000
1000
,
0010
0100
0001
0000
,
0100
0100
0100
0100
,
0100
0100
0100
0100
,
0001
0001
0001
0001
,
0001
0001
0001
0001
,
1000
0000
0010
1000
,
0000
0010
1000
0100
,
0000
0100
0010
0100
,
0000
1000
0010
0100
,
0000
0001
0010
0100
,
0000
0100
0010
0001
,
1000
0000
0001
0000
,
1000
0000
0001
0000
,
0100
0100
0010
0010
,
1000
1000
0001
0000
,
0100
0100
0100
0100
,
0100
0100
0100
0100
,
0001
0001
0001
0001
,
0001
0001
0001
0001
,
1000
0000
0010
1000
,
0000
0001
0100
0001
,
0000
0010
1000
0010
,
0000
0100
0010
0100
,
0000
1000
0100
0010
,
0000
0001
0100
0010
,
1000
0000
0001
0000
,
1000
0000
0100
0000
,
0010
0001
0100
0010
,
1000
0100
0010
0000
,
1000
1000
1000
1000
,
0100
0100
0100
0100
,
1000
0000
1000
0000
1000
0000
1000
0001
,
0000
0000
0000
0000
,
0000
0000
0000
0000
,
0020
0000
0000
0000
,
2030
0000
0000
0000
,
3200
0000
0000
0000
,
1300
0010
0100
0000
,
0002
0000
0000
0000
,
0203
0000
0000
0000
,
0320
0000
0000
2030
0000
0000
3200
0000
,
0000
0000
0000
0300
,
0000
0000
0000
0000
,
0000
0000
0000
0000
,
0000
0000
0000
0000
,
0000
0000
0000
0000
,
0000
0000
0100
0100
,
0100
0100
0100
0100
,
0100
0100
0001
0001
,
0001
0001
0001
0001
,
0001
0001
1000
1000
,
1000
1000
1000
1000
,
1000
1000
0010
0010
,
0010
0010
0010
0010
,
0010
0010
1000
1000
,
0001
0001
1000
1000
,
0100
0100
0010
0010
,
0100
0100
1000
1000
,
0001
0001
0100
0100
,
0001
0001
1000
1000
,
0100
0100
0001
0001
,
0100
0100
1000
1000
,
0010
0010
1000
0001
,
0100
0010
1000
0100
,
1000
0001
0010
0001
,
0100
0010
1000
0100
,
0010
0000
0100
0200
0000
0300
0000
0000
;

//--------------- dance-single - Blood4Fame ----------------
#NOTES:
     dance-single:
     Blood4Fame:
     Medium:
     6:
     0,0,0,0,0:
0000
0000
0000
0000
,
0000
0000
0000
0000
,
0000
0000
0000
0000
,
0000
0000
0000
0000
,
0000
0000
0000
0000
,
0000
0000
0000
0000
,
0000
0000
0000
0000
,
0000
0000
0000
0000
,
0000
0000
0000
0000
,
0000
0000
0000
0000
,
1000
0100
1000
0000
0010
1000
0000
2000
,
0000
3000
0001
2000
0000
0000
3001
0000
,
0001
0100
0001
0000
0010
0001
0000
0002
,
0000
0003
1000
0002
0000
0000
1003
0000
,
1000
0100
1000
0000
0010
1000
0000
2000
,
0000
3000
0001
2000
0000
0000
3001
0000
,
0001
0100
0001
0000
0010
0001
0000
0002
,
0000
0003
1000
0002
0000
0000
1003
0000
,
2000
0000
3100
2000
0000
3001
0200
0000
,
0300
0000
0000
2000
0000
3002
0000
0103
,
0010
2000
0000
3200
0000
0000
0300
0000
,
0001
0100
0000
0100
0000
0000
0010
2000
,
0000
3002
0000
2003
0000
3200
0000
0300
,
0000
0000
1000
0100
0000
1000
0000
1000
,
0200
2300
3200
0320
,
0032
0203
0320
2030
,
3100
0000
1000
0100
1000
0000
0100
0010
,
0001
0000
0100
0010
1000
1000
0000
0000
,
1000
0100
1000
0000
0010
1000
0000
2000
,
0000
3000
0001
2000
0000
0000
3001
0000
,
0001
0100
0001
0000
0010
0001
0000
0002
,
0000
0003
1000
0002
0000
0000
1003
0010
,
0000
1000
0100
1000
0010
1000
0100
0000
,
0000
0100
0001
0010
0001
0100
0010
0000
,
0000
0100
0010
0100
1000
0100
0001
0000
,
0000
0001
0100
0010
1000
0010
0100
0000
,
0001
0000
0001
0000
1000
0020
0000
0130
,
0001
0000
0100
0000
1000
0100
0000
1000
,
0020
2030
3020
0230
,
0320
2030
3200
0320
,
0031
0000
0010
0100
1000
0000
0010
0100
,
0001
0000
0010
0100
1000
1000
0000
0000
,
1000
0100
1000
0000
0010
1000
0000
2000
,
0000
3000
0001
2000
0000
0000
3001
0000
,
0001
0100
0001
0000
0010
0001
0000
0002
,
0000
0003
1000
0002
0000
0000
1003
0000
,
0000
1000
0010
1000
0100
1000
0010
0000
,
0000
0010
0001
0100
0001
0010
0100
2000
,
0000
0000
3200
0000
0000
0000
0320
0000
0000
0000
0000
0030
0000
0000
0000
0000
,
0000
0001
0010
0100
1000
0100
0010
0000
,
1000
0001
1000
0001
1000
0100
0010
0000
,
0001
0010
0100
1000
0010
0100
0002
0003
,
0200
2300
3200
0320
,
2030
3200
0320
0230
,
0301
0000
0100
0010
1000
0000
0100
0010
,
0001
0000
0100
0010
1000
1000
0000
0000
,
1000
0100
1000
0000
0010
1000
0000
2000
,
0000
3000
0001
2000
0000
0000
3001
0000
,
0001
0100
0001
0000
0010
0001
0000
0001
,
0000
0000
0000
0000
,
0000
0000
0000
0000
,
1002
0000
1000
0013
,
0021
0000
0100
0031
,
0201
0000
0010
0301
,
2010
0000
0001
3010
,
1200
0000
1000
0301
,
1002
0000
0100
1003
,
2002
0000
3003
2000
0000
0000
0002
0000
,
0000
0000
0000
0000
,
0000
0000
3003
0000
1000
0100
1000
0000
,
0010
1000
0000
2000
0000
3000
0001
2000
,
0000
0000
3001
0000
0001
0100
0001
0000
,
0010
0001
0000
0002
0000
0003
1000
0002
,
0000
0000
1003
0000
1000
0100
1000
0000
,
0010
1000
0000
2000
0000
3000
0001
2000
,
0000
0000
3001
0000
0001
0100
0001
0000
,
0010
0001
0000
0002
0000
0003
1000
0002
,
0000
0000
1003
0000
1000
0100
1000
0000
,
0010
1000
0000
2000
0000
3000
0001
2000
,
0000
0000
3001
0000
0001
0100
0001
0000
,
0010
0001
0000
0002
0000
0003
1000
0002
,
0000
0000
1003
0000
1000
0010
1000
0000
,
0100
1000
0000
2000
0000
3000
0001
2000
,
0000
0000
3001
0000
0001
0010
0001
0000
,
0100
0001
0000
0002
0000
0003
1000
0002
,
0000
0000
1003
0000
0001
0100
0001
0000
,
0010
0001
0000
0002
0000
0003
1000
0002
,
0000
0000
1003
0000
1000
0100
1000
0000
,
0010
1000
0000
2000
0000
3000
0001
2000
,
0000
0000
3001
0000
0001
0000
0100
0010
,
1000
0100
1000
0010
0000
0000
0010
1000
,
0000
1000
0010
0000
1000
0000
1000
0100
,
0010
0100
1000
0010
0000
0100
0001
0010
,
0000
0100
0010
0020
0000
0030
0000
0000
;

//--------------- dance-single - Blood4Fame ----------------
#NOTES:
     dance-single:
     Blood4Fame:
     Hard:
     8:
     0,0,0,0,0:
0000
0000
0000
0000
0000
0000
2000
0000
0000
0000
0000
0000
0000
0000
0000
3200
,
0000
0000
0000
0000
0000
0000
0000
0000
0000
2300
0000
0000
0000
0000
0000
0000
,
0000
0000
0000
0000
0000
3000
0000
0000
,
0000
0000
0000
0000
0000
0020
0000
0000
,
0030
2000
0000
0000
0000
0000
3000
0200
0000
0000
0000
0000
0000
2300
0000
0000
,
0000
0000
0000
0000
0000
3000
0000
2000
0000
0000
0000
0000
0000
0000
0000
0000
,
0000
0000
0000
0000
0000
3200
0000
0000
0000
0000
0000
0000
0000
0000
0000
0000
,
0000
0000
0000
0000
,
0000
0000
0000
0000
,
0000
0000
0000
0300
,
0100
0100
1000
0001
0010
0001
0100
2000
,
0000
3100
0001
2000
0000
0000
3002
0000
,
0103
0100
0001
1000
0010
1000
0100
0002
,
0000
0103
1000
0002
0000
0000
2003
0000
,
3100
0100
1000
0001
0010
0001
0100
2000
,
0000
3100
0001
2000
0000
0000
3002
0000
,
0103
0100
0001
1000
0010
1000
0100
0002
,
0000
0103
1000
0002
0000
0000
1003
0000
,
1000
0100
0010
0001
0000
0001
0100
0000
,
0001
1000
0100
2000
0000
3002
0000
0103
,
0010
1000
0000
1000
0100
0000
1000
0000
,
0001
0100
0010
0100
0000
0100
0010
2000
,
0000
3002
0000
2003
0000
3200
0000
0310
,
0001
0100
0000
0100
0010
1000
0000
1000
,
0200
2300
3200
0320
,
0032
0203
0320
2030
,
3100
0100
1000
0100
1000
1000
0100
0010
,
0001
0001
0100
0010
1000
1000
0000
0000
,
0100
0100
1000
0001
0010
0001
0100
2000
,
0000
3100
0001
2000
0000
0000
3002
0000
,
0103
0100
0001
1000
0010
1000
0100
0002
,
0000
0103
1000
0002
0000
0000
1003
0010
,
0000
1000
0100
1000
0010
1000
0100
0010
,
0001
0100
0001
0010
0001
0100
0010
1000
,
0100
0020
0000
0130
1000
0100
0001
0100
,
0010
0001
0100
0010
1000
0010
0100
0010
,
1000
0000
0000
0000
0001
0000
0000
0001
1000
0000
0020
0000
0000
0000
0130
0000
,
0001
0000
0100
0000
0010
0000
1000
0000
0100
0010
0001
0000
0100
0000
0010
0000
,
0020
2030
3020
0230
,
0320
2030
3200
0320
,
0031
0001
0010
0100
1000
1000
0010
0100
,
0001
0001
0010
0100
1000
2000
3000
0000
,
0100
0100
1000
0001
0010
0001
0100
2000
,
0000
3100
0001
2000
0000
0000
3002
0000
,
0103
0100
0001
1000
0010
1000
0100
0002
,
0000
0103
1000
0002
0000
0000
2003
3000
,
0000
1000
0010
1000
0100
1000
0010
0100
,
0001
0010
0001
0100
0001
0010
0100
1000
,
0010
0200
0000
0310
1000
0010
0001
0010
,
0100
0001
0010
0100
1000
0100
0010
0100
,
1000
0000
0001
0000
1000
0000
0001
0000
1000
0000
0100
0000
0010
0000
0000
0010
,
0001
0010
0100
1000
0010
0100
0002
0003
,
0200
2300
3200
0320
,
0230
2300
3020
0230
,
0301
0001
0100
0010
1000
1000
0100
0010
,
0001
0001
0100
0010
1000
2000
3000
0000
,
0100
0100
1000
0001
0010
0001
0100
2000
,
0000
3100
0001
2000
0000
0000
3002
0000
,
0103
0100
0001
1000
0010
1000
0100
0001
,
0000
0000
0000
0000
,
2000
3200
0320
0032
0203
0320
2030
3001
,
1002
0100
1000
0013
,
0021
0100
0100
0031
,
0201
0010
0010
0301
,
2010
0100
0001
3010
,
1200
0010
1000
0301
,
1002
0010
0100
1003
,
2002
0000
3003
2200
0000
3300
0022
0000
,
0000
0000
0000
0000
,
0000
0000
0033
0000
0100
0100
1000
0001
,
0010
0001
0100
2000
0000
3100
0001
2000
,
0000
0000
3002
0000
0103
0100
0001
1000
,
0010
1000
0100
0002
0000
0103
1000
0002
,
0000
0000
2003
0000
3100
0100
1000
0001
,
0010
0001
0100
2000
0000
3100
0001
2000
,
0000
0000
3002
0000
0103
0100
0001
1000
,
0010
1000
0100
0002
0000
0103
1000
0002
,
0000
0000
2003
0000
3100
0100
1000
0001
,
0010
0001
0100
2000
0000
3100
0001
2000
,
3000
1000
0002
0000
0103
0100
0001
1000
,
0010
1000
0100
0002
0000
0103
1000
0002
,
0003
0001
2000
0000
3010
0010
1000
0001
,
0100
0001
0010
2000
0000
3010
0001
2000
,
3000
1000
0002
0000
0013
0010
0001
1000
,
0100
1000
0010
0002
0000
0013
1000
0002
,
0003
0001
2000
0000
3010
0010
1000
0001
,
0100
0001
0010
2000
0000
3010
0001
2000
,
3000
1000
0002
0000
0013
0010
0001
1000
,
0100
1000
0010
0002
0000
0013
1000
0002
,
0003
0000
0001
0000
2000
0000
0000
0000
3001
0010
0001
0000
0100
0000
0010
0000
,
1000
0000
0100
0000
1000
0000
0010
0000
0100
0001
0100
0000
0010
0000
1000
0000
,
0001
0000
1000
0000
0010
0000
0100
0000
0001
1000
0001
0000
1000
0000
0100
0000
,
0010
0000
0100
0000
1000
0000
0010
0000
0100
0010
0100
0000
0001
0000
0010
0000
,
0100
0010
0100
0000
0010
0000
0020
0000
0000
0000
0030
0000
0000
0000
0000
0000
;
