#TITLE:Good 4 U;
#SUBTITLE:;
#ARTIST:Olivia Rodrigo;
#TITLETRANSLIT:;
#SUBTITLETRANSLIT:;
#ARTISTTRANSLIT:;
#GENRE:Pop-Rock;
#CREDIT:Blood4Fame;
#MUSIC:Good 4 U.mp3;
#BANNER:Banner.png;
#BACKGROUND:BG.png;
#CDTITLE:;
#SAMPLESTART:87.164;
#SAMPLELENGTH:18.123;
#SELECTABLE:YES;
#OFFSET:-0.464;
#BPMS:0.000=84.413
,20.000=168.826
,28.000=84.413
,44.000=165.784
,124.000=331.568
,126.000=165.784
,156.000=82.892
,172.000=41.446
,179.000=165.784
,212.000=166.215
,228.000=83.107
,232.000=41.554
;
#STOPS:124.000=0.362
,179.000=1.086
;
#DISPLAYBPM:41.000:169.000;
#BGCHANGES:-0.464=Good 4 U.avi=1.000=1=0=1===CrossFade==,
99999.000=-nosongbg-=1.000=0=0=0=StretchNoLoop====
;
#FGCHANGES:;

//--------------- dance-single - Blood4Fame ----------------
#NOTES:
     dance-single:
     Blood4Fame:
     Beginner:
     3:
     0,0,0,0,0:
1000
0000
0100
0000
,
0001
0000
0100
0000
,
1000
0000
0100
0000
,
0001
0000
0100
0000
,
1000
0000
0100
0010
,
2000
0000
0000
0000
,
0000
0000
0000
3000
0000
0000
0000
0000
,
1000
0000
0100
0000
,
0001
0000
0100
0000
,
1000
0000
0100
0011
,
1000
1000
1000
1000
1000
0000
0001
0000
,
0000
1001
0000
1001
,
0000
0010
0000
0010
,
0000
1010
0000
1010
,
0000
0100
0000
0100
,
0000
1001
0000
1001
,
0000
0010
0000
0010
,
0000
1001
0000
1001
,
0000
0100
0100
0100
,
0200
0300
0110
0000
,
0110
0000
0110
0000
,
0110
0000
0001
0000
,
0001
0000
0100
0000
,
0200
0300
0000
0010
,
0000
0010
0000
0010
,
0000
0110
0000
0110
,
0000
0001
0000
0100
,
0200
0000
0300
0000
,
0100
0100
0100
0000
,
1000
1000
1000
0000
,
0100
0100
0100
0000
,
0000
0000
0000
0100
,
0000
0100
0000
1000
,
0000
0001
0000
0010
,
0000
0010
0000
0100
,
0000
0010
0000
1000
,
0000
0001
0000
0100
,
0000
0010
0000
0020
,
0000
0000
0100
0000
0100
0030
0100
0000
,
0100
0000
0100
0100
,
0100
0000
1000
0100
,
0100
0000
0001
0100
,
1000
1000
1000
1000
0000
0010
0000
0001
,
0000
1000
0000
1000
0000
1000
0000
1000
0000
1000
0000
1000
0000
1000
0000
1000
,
0000
1000
0000
1000
0000
1000
0000
1000
0000
1000
0000
1000
0000
0000
0000
0000
,
0000
0011
0000
0011
,
0000
0001
0000
0110
,
0000
1001
0000
1000
,
0000
0010
0000
0100
,
0000
1000
0000
0011
,
0000
0011
0000
0000
,
0101
0000
1010
0000
,
1001
1001
0000
1000
,
2000
0000
3000
0000
,
0000
0000
0000
0000
,
1000
0000
1000
0000
,
1000
0000
1000
0000
,
0010
0000
0001
0100
,
0001
0000
0000
0000
;

//--------------- dance-single - Blood4Fame ----------------
#NOTES:
     dance-single:
     Blood4Fame:
     Easy:
     6:
     0,0,0,0,0:
1000
0000
1000
0000
0000
1000
0000
0000
0100
0000
0000
0000
0000
0000
0200
0000
,
0301
0000
0001
0000
0000
0001
0000
0000
0100
0000
0000
0000
0000
0000
0200
0000
,
1300
0000
1000
0000
0000
1000
0000
0000
0100
0000
0000
0000
0000
0000
0200
0000
,
0301
0000
0001
0000
0000
0001
0000
0000
0100
0000
0000
0000
0000
0000
0200
0000
,
1300
0000
1000
0000
0000
1000
0000
0000
0100
0000
0000
0000
0010
0000
0000
0000
,
2000
0000
0000
3000
0020
0000
0000
0030
,
0200
0000
0000
0300
0020
0000
0000
0030
,
1000
0000
1000
0000
0000
1000
0000
0000
0100
0000
0000
0000
0000
0000
0200
0000
,
0301
0000
0001
0000
0000
0010
0000
0000
0100
0000
0000
0000
0000
0000
0200
0000
,
1300
0000
1000
0000
0000
0010
0000
0000
0100
0000
0000
0000
0011
0000
0000
0000
,
1000
0100
1000
0100
1000
0000
0001
0000
,
0000
1001
0000
0011
,
0000
0011
0000
1001
,
1001
0000
1010
0000
,
0101
0100
1000
0020
,
0000
0030
0000
0000
1001
0000
1001
0000
,
1001
0000
0010
0010
,
0001
1001
0011
1001
,
1000
0100
0001
1000
,
0020
0030
0110
0000
,
0110
0000
0110
0110
,
0110
0000
0000
0000
0002
0003
0000
0000
,
0001
1000
0100
0010
,
0200
0000
0300
0000
0000
0010
0000
0010
,
0000
0010
0000
1000
0000
0100
0000
0000
,
0220
0330
0110
0110
,
0010
0001
0010
0100
,
0200
0000
0300
0000
,
0100
0100
0100
0100
,
1000
1000
1000
1000
,
0100
0100
0100
0100
,
0001
0000
0100
0100
,
0001
0100
1000
1000
,
0100
0001
0100
0010
,
0000
0001
0000
0010
0000
0100
0000
0200
,
0300
0010
0100
1000
,
0010
0001
0100
0100
,
1000
0010
0100
0020
,
0000
0000
0100
0000
0100
0030
0010
0000
,
0100
0000
0100
0100
,
0100
0000
1000
0100
,
0100
0000
0001
0100
,
1000
1000
1000
1000
0000
0010
0000
0001
,
0020
0000
1000
0000
1000
0000
1000
0030
1000
0000
1000
0000
1000
0000
1000
0000
1000
0000
1000
0000
1000
0000
1000
0000
1000
0000
1000
0000
1000
0000
1000
0000
,
1000
1000
1000
1000
1000
1000
1000
1000
1000
1000
1000
1000
1000
0000
0000
0000
,
0000
0011
0011
0011
,
0001
0001
0100
0110
,
0110
1001
1001
1000
,
0010
0000
0000
0010
0000
0100
0000
1000
,
0000
0000
0000
1000
0000
0010
0000
0011
,
0000
0011
0000
0110
0000
0110
0000
0000
,
0202
0303
2020
3030
,
1001
1001
0010
0100
,
2000
0000
3000
0000
,
0000
0000
0000
0000
,
1000
1000
1000
1000
,
1000
1000
1000
1000
,
0010
0000
0001
0100
,
0001
0000
0000
0000
;

//--------------- dance-single - Blood4Fame ----------------
#NOTES:
     dance-single:
     Blood4Fame:
     Medium:
     7:
     0,0,0,0,0:
1000
0000
1000
0000
0000
1000
0000
0000
0100
0000
0000
0000
0000
0000
0200
0000
,
0301
0000
0001
0000
0000
0001
0000
0000
0100
0000
0000
0000
0000
0000
0200
0000
,
1300
0000
1000
0000
0000
1010
0000
0000
0100
0000
0000
0000
0011
0000
0200
0000
,
0301
0000
0001
0000
0000
0011
0000
0000
0100
0000
0000
0000
0110
0000
0200
0000
,
1300
0000
0000
0000
0000
0000
1000
0000
0000
0000
0000
0000
0000
0000
0000
1010
0000
0000
0000
0000
0000
0000
0000
0000
0100
0000
0000
0000
0000
0000
0000
0000
0000
0000
0000
0000
0010
0000
0000
0000
0100
0000
0000
0000
0001
0000
0000
0000
,
2000
0000
0000
0000
0020
0000
0000
0030
,
0200
0300
0000
0000
0020
0000
0000
3030
,
1000
0000
1000
0000
0000
1010
0000
0000
0100
0000
0000
0000
0110
0000
0200
0000
,
0301
0000
0001
0000
0000
0110
0000
0000
0100
0000
0000
0000
0110
0000
0200
0000
,
1300
0000
1000
0000
0000
1010
0000
0000
0100
0000
0000
0000
0011
0000
0000
0000
,
1000
0100
1000
0100
1000
0100
1000
0100
1000
0000
0000
0000
0001
0010
0100
0000
,
1100
0000
0011
0000
1000
0100
0000
0011
,
0000
0001
0010
0010
0000
0100
0010
2002
,
3003
1001
1010
1001
,
0001
0010
0100
0001
1000
0100
0001
0020
,
0000
0000
0030
0000
0001
0100
0000
1010
,
0000
1000
0010
0000
0010
0100
0010
1000
,
0001
1001
0011
1001
,
1000
0010
0100
1000
0001
0100
1000
0020
,
0000
0030
0001
0000
0110
0000
1000
0000
,
0100
0010
0001
0000
0110
0000
0110
0200
,
0000
0000
0010
0000
0002
0303
1000
0100
,
0001
0000
1000
0001
0100
0020
0000
0200
,
0000
0000
0000
0330
0000
0000
0000
0000
0001
0000
0010
0000
0000
0000
0010
0000
,
0000
0010
0001
1000
0000
0100
0001
0000
,
0220
0330
0110
0110
,
0010
0000
0001
0000
0010
0100
0100
0000
,
0200
0000
0300
0000
,
0100
0100
0100
0100
,
1000
0010
1000
0000
1000
0010
1000
0000
,
0100
0010
0100
0000
0100
0010
0100
0010
,
0000
0000
0000
0000
0100
0000
0100
0001
,
0000
0001
0100
0000
1000
0010
1000
0000
,
0100
0000
0011
0000
0100
0000
0010
0100
,
0000
0101
0000
0011
0000
0100
0001
0200
,
0300
0000
0010
0000
0100
0000
1000
0001
,
0000
0010
0001
0000
0100
0001
0100
0000
,
1010
0000
0010
0000
0100
0100
0020
0000
,
0000
0000
0100
0000
0100
0030
0010
0000
,
0100
0010
0000
0000
0000
0000
0000
0000
0100
0001
0000
0000
0100
0100
0000
0000
,
0100
0010
0000
0000
0000
0000
0000
0000
1000
0100
0000
0000
0100
1000
0000
0000
,
0100
0010
0000
0000
0000
0000
0000
0000
0001
1000
0000
0000
0100
0100
0000
0000
,
1000
0010
1000
0000
1000
0000
1000
0100
0000
0000
0010
0100
0000
0000
0001
0000
,
0020
0000
1000
0000
1000
0000
1000
0030
1000
0000
1000
0000
1000
0000
1000
0000
1000
0000
1000
0000
1000
0000
1000
0000
1000
0000
1000
0000
1000
0000
1000
0000
,
1000
1000
1000
1000
1000
1000
1000
1000
1000
1000
1000
1000
1000
0000
0000
0000
,
0000
0011
0011
0011
,
0001
0010
0001
0000
0110
0000
1000
0001
,
0000
0000
1001
0000
1001
0000
1000
0100
,
0010
0000
0001
0010
0000
0110
0000
1100
,
0000
0000
0000
1000
0100
0010
0000
0011
,
0000
0011
0000
0110
0000
0110
1000
0000
,
0202
0303
2020
3030
,
1001
0000
1010
0000
0010
0001
0100
0000
,
2000
0000
3000
0000
,
0000
0000
0000
0000
,
1000
0100
1000
0100
1000
0100
1000
0100
,
1000
0010
1000
0010
1000
0010
1000
0010
,
0010
0010
0000
0000
0000
0000
0000
0000
0001
0010
0000
0000
0100
0010
0000
0000
,
0001
0010
0000
0000
0000
0000
0000
0000
0000
0000
0000
0000
0000
0000
0000
0000
0000
0000
0000
0000
0000
0000
0000
0000
0000
0000
0000
0000
0000
0000
0000
0000
;

//--------------- dance-single - Blood4Fame ----------------
#NOTES:
     dance-single:
     Blood4Fame:
     Hard:
     8:
     0,0,0,0,0:
1000
0000
1000
0000
0000
1000
0000
0000
0100
0000
0000
0000
0000
0000
0200
0000
,
0301
0000
0001
0000
0000
0001
0000
0000
0100
0000
0000
0000
0000
0000
0200
0000
,
1300
0000
1000
0000
1010
1000
0000
0000
0100
0000
0000
0000
0011
0000
0200
0000
,
0301
0000
0001
0000
0101
0001
0000
0000
0100
0000
0000
0000
0110
0000
0200
0000
,
0301
0000
0000
0000
0000
0000
1000
0000
0000
0000
0000
0000
1010
0000
0000
1000
0000
0000
0000
0000
0000
0000
0000
0000
0100
0000
0000
0000
0000
0000
0000
0000
0000
0000
0000
0000
0110
0000
0000
0000
0100
0000
0000
0000
0001
0000
0000
0000
,
2000
0000
0000
0000
0020
0000
0000
0030
,
0200
0300
0001
0000
0020
0030
0200
3000
,
1300
0000
1000
0000
1010
1000
0000
0000
0100
0000
0000
0000
0110
0000
0200
0000
,
0301
0000
0001
0000
0110
0100
0000
0000
0100
0000
0000
0000
0110
0000
0200
0000
,
0310
0000
1000
0000
1010
1000
0000
0000
0100
0000
0000
0000
0011
0000
0000
0000
,
1000
0100
1000
0100
1000
0100
1000
0100
1000
0000
0000
0000
0011
0010
0100
0000
,
1100
0000
0011
0000
1000
0100
0000
0011
,
0000
0001
0010
0110
0000
0100
0010
2002
,
3003
1001
1010
1001
,
0001
0010
0100
1000
0001
0100
0001
0200
,
0000
0000
0300
0000
0001
0100
0000
1010
,
0000
1000
0010
0000
0010
0100
0010
1000
,
1001
1001
1010
1001
,
1000
0010
0100
0001
1000
0100
1000
0020
,
0000
0030
1000
0000
0110
0000
1000
0000
,
0100
0010
0001
0000
0110
0000
0110
0200
,
0000
0000
0010
0000
2000
3300
0001
0100
,
0001
0000
1000
0001
0000
0020
0000
0200
,
0000
0000
0000
0330
0000
0000
0000
0000
0001
0000
0010
0000
0000
0000
0010
0000
,
0000
0010
0001
1000
0000
0001
0100
0000
,
0220
0330
0110
0110
,
0010
0000
1000
0000
0010
0100
0100
0000
,
0200
0000
0300
0000
,
0100
0100
0100
0100
,
1000
0010
1000
0010
1000
0010
1000
0010
,
0100
0010
0100
0010
0100
0010
0100
0010
,
0100
0000
0000
0000
0100
0010
0100
1000
,
0000
1000
0100
0000
1000
0010
1000
0001
,
0100
0000
1010
0000
0001
0100
0010
0100
,
0000
0101
0000
1010
0000
0100
1000
0200
,
0301
0100
0010
0000
1000
0100
1000
0001
,
0000
0010
0001
0000
0100
0001
0100
0001
,
1010
0000
0010
0000
0100
0100
0020
0000
,
1000
0000
0100
0000
0001
0030
0010
0000
,
0100
0010
0000
0000
0000
0000
0000
0000
0100
0001
0000
0000
0100
0100
0000
0000
,
0100
0010
0000
0000
0000
0000
0000
0000
1000
0100
0000
0000
0100
1000
0000
0000
,
0100
0010
0000
0000
0000
0000
0000
0000
0001
1000
0000
0000
0100
0100
0000
0000
,
1000
0000
0010
0000
1000
0000
0100
0000
1000
0000
0010
0000
1000
0000
0100
0000
0010
0000
0001
0000
0010
0000
0100
0000
1000
0000
0100
0010
0001
0100
0010
1000
,
0000
1000
1000
1000
1000
1000
1000
1000
1000
1000
1000
1000
1000
1000
1000
1000
,
1000
1000
1000
1000
1000
1000
1000
1000
1000
1000
1000
1000
1000
0000
0000
0000
,
0000
0011
0011
0011
,
0001
0010
0001
0000
0110
0000
0011
0001
,
0000
0000
1001
0000
1001
0000
1000
0100
,
0110
0000
0001
0010
0000
0110
0000
1100
,
0000
0000
1000
0001
0100
0010
0100
1010
,
0000
1010
1000
0110
0000
0110
0001
0000
,
2200
0000
0300
3001
0022
0000
0030
0013
,
1001
0000
0011
0000
1010
1000
0110
0000
,
0002
0000
0003
0000
,
0000
0000
0000
0000
,
1000
0100
1000
0100
1000
0100
1000
0100
,
1000
0010
1000
0010
1000
0010
1000
0010
,
1010
0010
0000
0000
0000
0000
0000
0000
0011
0010
0000
0000
1100
0010
0000
0000
,
0011
0010
0000
0000
0000
0000
0000
0000
0000
0000
0000
0000
0000
0000
0000
0000
0000
0000
0000
0000
0000
0000
0000
0000
0000
0000
0000
0000
0000
0000
0000
0000
;
