#TITLE:Give Your Heart A Break;
#SUBTITLE:;
#ARTIST:Demi Lovato;
#TITLETRANSLIT:;
#SUBTITLETRANSLIT:;
#ARTISTTRANSLIT:;
#GENRE:Pop;
#CREDIT:Blood4Fame;
#MUSIC:music.mp3;
#BANNER:banner.png;
#BACKGROUND:bg.png;
#CDTITLE:;
#SAMPLESTART:39.345;
#SAMPLELENGTH:23.661;
#SELECTABLE:YES;
#OFFSET:-0.317;
#BPMS:0.000=122.988;
#STOPS:;
#BGCHANGES:-0.317=video.avi=1.000=1=0=1===CrossFade==;
#FGCHANGES:;

//--------------- dance-single - Blood4Fame ----------------
#NOTES:
     dance-single:
     Blood4Fame:
     Easy:
     2:
     0,0,0,0,0:
0000
0000
0000
0000
,
0000
0000
0000
0000
,
0000
0000
0000
0000
,
0000
0000
0000
0000
,
0100
0000
0000
0000
,
1000
0000
0000
0000
,
0100
0000
0000
0000
,
0010
0010
0010
0000
,
0001
0000
0000
0000
,
0100
0000
0000
0000
,
0001
0000
0000
0000
,
0010
0010
0010
0000
,
1000
0000
0000
1000
,
0001
0000
0000
0001
,
0100
0000
0000
0100
,
0010
0010
0010
0010
,
1000
0000
0000
1000
,
0100
0000
0000
0100
,
0001
0000
0000
0001
,
1001
0000
0000
0000
,
0010
0000
0010
0000
,
0100
0100
0100
0000
,
0001
0000
0001
0000
,
1000
0100
1000
0000
,
0010
0000
0100
0000
,
0001
0100
0001
0000
,
0010
0000
0100
0000
,
0010
0001
0010
0000
,
1000
1000
1000
0000
,
0001
0001
0001
0000
,
0100
0100
0100
0000
,
0010
0010
0010
0000
,
1000
0000
0000
1000
,
0001
0000
0000
0001
,
0100
0000
0000
0010
,
0100
0100
0100
0000
,
0001
0000
0000
0001
,
1000
0000
0000
1000
,
0010
0000
0000
0010
,
0100
0100
0100
0000
,
0001
0000
0000
0001
,
0010
0000
0000
1000
,
0010
0000
0000
0100
,
1000
1000
1000
0000
,
0001
0000
0000
0001
,
0100
0000
0000
0100
,
0010
0000
0000
1000
,
1001
0000
0000
0000
,
0010
0000
0010
0000
,
0100
0100
0100
0000
,
0001
0000
0001
0000
,
1000
0100
1000
0000
,
0010
0000
0100
0000
,
0001
0100
0001
0000
,
0010
0000
0100
0000
,
0010
0001
0010
0000
,
0100
0000
0100
0000
,
0010
0010
0010
0000
,
1000
0000
1000
0000
,
0001
0010
0001
0000
,
0100
0000
0010
0000
,
1000
0010
1000
0000
,
0100
0000
0010
0000
,
0100
1000
0100
0000
,
0001
0001
0001
0000
,
1000
1000
1000
0000
,
0010
0010
0010
0000
,
0100
0100
0100
0000
,
1000
1000
1000
0000
,
0100
0100
0100
0000
,
0010
0010
0010
0000
,
0001
0001
0001
0000
,
1000
0000
0000
0000
,
0100
0000
0000
0000
,
0010
0000
0000
0000
,
0001
0000
0000
0000
;

//--------------- dance-single - Blood4Fame ----------------
#NOTES:
     dance-single:
     Blood4Fame:
     Medium:
     4:
     0,0,0,0,0:
0000
0000
0000
0000
,
0000
0000
0000
0000
,
0000
0000
0000
0000
,
0000
0000
0000
0000
,
0100
0000
0100
0000
0000
0000
1000
0200
,
1000
0000
1300
0000
0000
0000
0001
0200
,
0001
0000
0301
0000
0000
0000
0010
2000
,
0010
0000
3010
0000
0000
0000
0100
0020
,
0100
0000
0130
0000
0000
0000
0001
0020
,
0001
0000
0031
0000
0000
0000
0010
0200
,
0010
0000
0310
0000
0000
0000
1000
0200
,
1000
0000
1300
0000
0000
0000
0001
0020
,
0001
0030
0001
1000
0000
0000
0010
0000
,
1000
0000
0001
0100
0000
0000
0010
0000
,
1000
0000
0100
0010
0000
0000
0001
0000
,
0010
0000
1000
0100
0000
0000
1000
0000
,
0001
0000
0010
0100
0000
0000
0001
0000
,
0100
0000
0010
0100
0000
0000
1000
0000
,
0100
0000
0100
1000
0000
0000
0001
0000
,
0020
0000
0000
0030
,
1000
1000
0001
0001
,
0100
0010
0100
0001
,
1000
1000
0100
0100
,
0010
0100
1000
0001
,
0100
0100
0010
0010
,
1000
0001
0100
1000
,
0001
0001
0010
0010
,
0001
0010
0100
1000
,
1000
0001
0100
0001
,
1000
0001
1000
0010
,
0100
0010
1000
0001
,
0100
0010
0100
0001
,
1000
0000
1000
0000
0000
0000
0001
0200
,
0001
0000
0301
0000
0000
0000
0010
0200
,
0010
0000
0310
0000
0000
0000
0001
0020
,
0001
0000
0031
0000
0000
0000
0100
0020
,
0100
0030
0100
0001
0000
0000
0010
0000
,
1000
0000
0001
0100
0000
0000
0010
0000
,
0001
0000
0100
0001
0000
0000
1000
0000
,
0010
0000
0100
0010
0000
0000
1000
0000
,
0100
0000
1000
0010
0000
0000
0100
0000
,
0010
0000
0100
0001
0000
0000
0010
0000
,
0001
0000
0010
0100
0000
0000
1000
0000
,
0100
0000
2000
0010
0000
3010
2000
0000
,
3002
0000
0103
0010
0000
0000
0001
0000
,
1000
0000
0100
0010
0000
0000
1000
0000
,
0001
0000
0100
0001
0000
0000
1000
0000
,
0020
0000
0000
0000
,
1030
1000
0001
0001
,
0100
0010
0100
0001
,
1000
1000
0100
0100
,
0010
0100
1000
0001
,
0100
0100
0010
0010
,
1000
0001
0100
1000
,
0001
0001
0010
0010
,
0001
0010
0100
1000
,
0101
0001
1000
1000
,
0110
0010
0100
1000
,
0101
0001
0100
0100
,
1010
0100
0001
1000
,
0110
0100
0010
0010
,
0101
1000
0100
0001
,
1001
1000
0010
0010
,
1100
0010
0100
0001
,
1010
1000
0001
0001
,
0110
0010
0100
0001
,
1100
1000
0100
0100
,
1010
0100
1000
0001
,
0110
0100
0010
0010
,
1100
0001
0100
1000
,
0011
0001
0010
0010
,
0101
0010
0100
1000
,
2001
0000
0001
0000
,
3002
0000
1000
0000
,
0203
0000
0020
0000
,
0330
0000
0000
0000
;

//--------------- dance-single - Blood4Fame ----------------
#NOTES:
     dance-single:
     Blood4Fame:
     Hard:
     6:
     0,0,0,0,0:
0000
0000
0000
0000
,
0000
0000
0000
0000
,
0000
0000
0000
0000
,
0000
0000
0000
0000
,
0000
0000
1000
0100
0000
0020
0000
0000
,
0030
0000
1000
0001
0000
0200
0000
0000
,
0300
0000
0010
1000
0000
0200
0000
0300
,
0100
1000
0100
0010
0001
0200
0000
0000
,
0000
0300
0001
1000
0000
0020
0000
0000
,
0030
0000
0010
0100
0000
0002
0000
0000
,
0003
0000
0100
0010
0000
0200
0000
0300
,
0001
1000
0100
0010
0001
0200
0000
0000
,
0300
0000
0001
0100
0000
0000
0110
0000
,
0000
0000
1000
0100
0000
0000
0110
0000
,
0000
0000
0001
0100
0000
0000
1001
0000
,
0000
0001
0100
1000
0100
0001
0020
0000
,
0230
0000
0310
0001
0000
0000
1100
0000
,
0000
0000
0100
0010
0000
0000
0011
0000
,
0000
0000
0001
0100
0000
0000
1010
0000
,
1001
0000
0000
0000
,
0000
0100
0001
0010
0100
0000
0100
1000
,
0000
0001
0100
0010
1000
0000
1000
0010
,
0000
1000
0001
1000
0100
1000
0010
0100
,
0000
0100
0010
1000
0100
1000
0001
1000
,
0000
0001
0010
0100
0010
0000
0010
0001
,
0000
1000
0010
0100
0010
0000
0010
1000
,
0000
1000
0100
0010
0000
0001
0100
0010
,
0000
0100
0010
1000
0001
0000
0010
0110
,
0000
0000
0100
0010
0100
0000
0001
1001
,
0000
1000
0001
1000
0010
0000
0010
0110
,
0000
0000
0010
0100
0010
0000
1000
1001
,
0000
1100
0101
1100
,
0000
0000
1000
0100
0000
0020
0000
0000
,
0030
0000
0100
0010
0000
2000
0000
0000
,
3000
0000
0000
0002
0000
0203
0000
0000
,
0000
0310
0100
0001
1000
0100
0200
0000
,
1300
0000
0010
1000
0000
0000
1001
0000
,
0100
0000
0010
0001
0000
0000
0011
0000
,
0100
0000
0010
0100
0000
0000
0010
0000
,
0000
0001
1000
0100
0001
0100
2000
0000
,
3000
0000
0001
0010
0100
1000
0100
1000
,
0010
0100
0001
1000
0010
0100
0001
0100
,
1000
0100
0001
0010
0100
0010
0100
1000
,
0010
0100
0010
1000
0100
0001
0100
1000
,
0010
0000
1000
0100
0000
0010
0001
0000
,
0100
0000
0100
0001
0000
0100
0010
0000
,
1000
0000
0001
1000
0000
0010
0100
0000
,
1001
0000
0000
0000
,
0000
0100
0001
0010
0100
0000
0100
1000
,
0000
0001
0100
0010
1000
0000
1000
0010
,
0000
1000
0001
1000
0100
1000
0010
0100
,
0000
0100
0010
1000
0100
1000
0001
1000
,
0000
0001
0010
0100
0010
0000
0010
0001
,
0000
1000
0010
0100
0010
0000
0010
1000
,
0000
1000
0100
0010
0000
0001
0100
0010
,
0000
0100
0010
1000
0001
0000
1000
0010
,
0000
0010
1000
0100
0010
0000
0010
0001
,
0000
1000
0010
0100
0001
0000
0001
0100
,
0000
0001
1000
0001
0010
0001
0100
0010
,
0000
0010
0100
0001
0010
0001
1000
0001
,
0000
1000
0100
0010
0100
0000
0100
1000
,
0000
0001
0100
0010
0100
0000
0100
0001
,
0000
0001
0010
0100
0000
1000
0010
0100
,
0000
0010
0100
0001
1000
0000
0100
0110
,
0000
0000
0010
0100
0010
0000
1000
1001
,
0000
0001
1000
0001
0100
0000
0100
0110
,
0000
0000
0100
0010
0100
0000
0001
1001
,
0000
1000
0001
0100
0010
1000
0010
0100
,
0000
0010
0100
0001
1000
0000
0100
0110
,
0000
0000
0010
0100
0010
0000
1000
1001
,
0000
0001
1000
0001
0100
0000
0100
0110
,
0000
0101
1100
0101
,
0010
0000
0000
0000
0000
0000
0000
1000
,
0100
0000
0000
0000
0000
0000
0001
1000
,
0001
0000
0000
0000
0000
0000
0000
0010
,
1000
0000
0000
0000
;
