#TITLE:「Get Off of My Way」;
#SUBTITLE:;
#ARTIST:MAN WITH A MISSION;
#TITLETRANSLIT:;
#SUBTITLETRANSLIT:;
#ARTISTTRANSLIT:;
#GENRE:Rock;
#CREDIT:Blood4Fame;
#MUSIC:music.mp3;
#BANNER:banner.png;
#BACKGROUND:bg.png;
#CDTITLE:;
#SAMPLESTART:14.270;
#SAMPLELENGTH:19.556;
#SELECTABLE:YES;
#OFFSET:-0.048;
#BPMS:0.000=135.000
,32.000=274.000
,36.000=135.000
,51.000=270.000
,52.000=135.000
,115.000=270.000
,116.000=135.000
,160.000=136.000
,164.000=133.000
,176.000=138.000
,179.000=270.000
,180.000=135.000
,307.000=270.000
,308.000=135.000
;
#STOPS:32.000=0.889
,51.000=0.222
,115.000=0.222
,179.000=0.222
,307.000=0.222
;
#DISPLAYBPM:135.000;
#BGCHANGES:;
#FGCHANGES:;

//--------------- dance-single - Blood4Fame ----------------
#NOTES:
     dance-single:
     Blood4Fame:
     Beginner:
     2:
     0,0,0,0,0:
0000
0000
0000
0000
,
0000
0000
0000
0000
,
0000
0000
0000
0000
,
0000
0000
0000
0000
,
1000
0000
0100
0000
,
1000
0000
0100
0000
,
1000
0000
0100
0000
,
0010
0000
0001
0000
,
0020
0000
0000
0030
,
1000
0000
1000
0000
,
0100
0000
0100
0000
,
1000
0000
1000
0000
,
0001
0000
0000
0000
0000
0000
0000
0000
0002
0000
0000
0000
0000
0003
0000
0000
,
1000
0000
1000
0000
,
0100
0000
0100
0000
,
1000
0000
1000
0000
,
0010
0000
0010
0000
,
1000
0000
0000
0000
,
0001
0000
0000
0000
,
0100
0000
0000
0000
,
0010
0000
0010
0000
,
1000
0000
0000
0000
,
0100
0000
0000
0000
,
0010
0000
0000
0000
,
0001
0000
0100
0000
,
0010
0000
0010
0000
,
1000
0000
1000
0000
,
0010
0000
0010
0000
,
0100
0000
0000
0000
0000
0000
0000
0000
0200
0000
0000
0000
0000
0300
0000
0000
,
0001
0000
0001
0000
,
1000
0000
1000
0000
,
0001
0000
0001
0000
,
0010
0000
0010
0000
,
1000
0000
0000
0000
,
0100
0000
0000
0000
,
0001
0000
0000
0000
,
0010
0000
0100
0000
,
0001
0000
0000
0000
,
1000
0000
0000
0000
,
0010
0000
0100
0000
,
0010
0010
0010
0010
,
1000
0000
1000
0000
,
0100
0000
0100
0000
,
1000
0000
1000
0000
,
0001
0000
0000
0000
0000
0000
0000
0000
0002
0000
0000
0000
0000
0003
0000
0000
,
1000
0000
1000
0000
,
0010
0000
0010
0000
,
1000
0000
1000
0000
,
0100
0000
0100
0000
,
0002
0000
0000
0003
,
0200
0000
0000
0300
,
0002
0003
0200
0300
,
0002
0003
0200
0300
,
2000
0000
0000
3000
,
0020
0000
0000
0030
,
2000
3000
0020
0030
,
2000
3000
0020
0030
,
0200
0000
0000
0300
,
0002
0000
0000
0003
,
0200
0300
0002
0003
,
0200
0300
0002
0003
,
0020
0000
0000
0030
,
2000
0000
0000
3000
,
0020
0030
0000
0000
1000
0000
0000
0000
,
0010
0000
1000
0100
,
0002
0000
0000
0003
0000
0000
0000
0000
0000
0000
0000
0000
0000
0000
0000
0000
,
0000
0000
0000
0000
,
0000
0000
0000
0000
,
0000
0000
0000
0000
,
1000
0000
0001
0000
,
1000
0000
0001
0000
,
0100
0000
0010
0000
,
1000
0100
0010
0001
,
0100
0000
0100
0000
,
0001
0000
0001
0000
,
0100
0000
0100
0000
,
0010
0000
0000
0000
0000
0000
0000
0000
0020
0000
0000
0000
0000
0030
0000
0000
,
0100
0000
0100
0000
,
1000
0000
1000
0000
,
0100
0000
0100
0000
,
0001
0000
0001
0000
,
0100
0000
0100
0000
,
0010
0000
0010
0000
,
0100
0000
0100
0000
,
1000
0000
1000
0000
;

//--------------- dance-single - Blood4Fame ----------------
#NOTES:
     dance-single:
     Blood4Fame:
     Easy:
     4:
     0,0,0,0,0:
0000
0000
0000
0000
,
0000
0000
0000
0000
,
0000
0000
0000
0000
,
0000
0000
0000
0000
,
1100
0000
0000
0000
,
0000
0000
0000
0000
,
0101
0000
0000
0000
,
0000
0000
0000
0000
,
1001
0000
0000
0000
,
0010
0010
0010
0010
,
0100
0100
0100
0100
,
0001
0001
0001
0001
,
1000
1000
1000
1000
,
0001
0001
0001
0001
,
0010
0010
0010
0010
,
0100
0100
0100
0100
,
1000
1000
1000
1000
,
0000
0000
0000
0000
,
0010
0000
0000
0000
,
0100
0000
0000
0000
,
1000
0000
0001
0000
,
0100
0000
0000
0000
,
0010
0000
0000
0000
,
1000
0000
0000
0000
,
0001
0000
0010
0000
,
0100
0100
0100
0100
,
0010
0010
0010
0010
,
1000
1000
1000
1000
,
0001
0001
0001
0001
,
0100
0100
0100
0100
,
1000
1000
1000
1000
,
0010
0010
0010
0010
,
0001
0001
0001
0001
,
0000
0000
0000
0000
,
0100
0000
0000
0000
,
0010
0000
0000
0000
,
1000
0000
0100
0000
,
0010
0000
0000
0000
,
0100
0000
0000
0000
,
0001
0000
0000
0000
,
1000
0000
0000
0000
,
0100
0100
0100
0100
,
0010
0010
0010
0010
,
1000
1000
1000
1000
,
0001
0001
0001
0001
,
0010
0010
0010
0010
,
0100
0100
0100
0100
,
0001
0001
0001
0001
,
1000
1000
1000
1000
,
2200
0000
0000
3300
,
0202
0000
0000
0303
,
0220
0000
0000
0330
,
1100
0000
1010
0000
,
0202
0000
0000
0303
,
0022
0000
0000
0033
,
0110
0000
1001
0000
,
0110
0000
1001
0000
,
2200
0000
0000
3300
,
0022
0000
0000
0033
,
1010
0000
1001
0000
,
0101
0000
0110
0000
,
2200
0000
0000
3300
,
2002
0000
0000
3003
,
0010
0000
0100
0000
,
0010
0001
0010
0100
,
1000
0000
0000
0000
,
0000
0000
0000
0000
,
0101
0000
0000
0000
,
1010
0000
0000
0000
,
0101
0000
0001
0000
,
0110
0000
0010
0000
,
1100
0000
0010
0000
,
0011
0011
0011
0011
,
1000
1000
1000
1000
,
0100
0100
0100
0100
,
0010
0010
0010
0010
,
0001
0001
0001
0001
,
0100
0100
0100
0100
,
0010
0010
0010
0010
,
0001
0001
0001
0001
,
1000
1000
1000
1000
,
0100
0100
0100
0100
,
0010
0010
0010
0010
,
1000
1000
1000
1000
,
0001
0001
0001
0002
,
0003
0000
0000
0000
;

//--------------- dance-single - Blood4Fame ----------------
#NOTES:
     dance-single:
     Blood4Fame:
     Medium:
     6:
     0,0,0,0,0:
0000
0000
0000
0000
,
0000
0000
0000
0000
,
0000
0000
0000
0000
,
0000
0000
0000
0000
,
1100
0000
0000
0000
1001
0000
0000
0000
0001
0000
0000
0100
0000
0000
2000
0000
,
0000
0000
3000
0000
0010
0000
0000
0010
0000
0000
0100
0000
0000
0000
0000
0000
,
0011
0000
0000
0000
1001
0000
0000
0000
0010
0000
0000
0001
0000
0000
0000
0010
,
0000
1000
0100
0000
0100
0000
0100
0001
,
0101
0000
0000
0000
,
0100
0000
0010
0100
0000
0010
0100
0000
,
0010
0100
0000
0010
1000
0001
0010
0001
,
0010
0000
0100
0010
0000
0100
0010
0000
,
0100
0000
0010
0000
0010
0000
0000
0001
0000
0000
0001
0000
2000
0000
0000
0000
,
3001
0000
0100
0001
0000
0100
0001
0000
,
0100
0001
0000
0100
0001
0010
0100
0100
,
1000
0000
0100
1000
0000
0100
1000
0000
,
0100
0000
0100
0000
1000
0000
0000
0001
0000
0000
0100
0000
0020
0000
0030
0000
,
1010
0000
0000
0000
1100
0000
0000
0000
0001
0000
0000
0100
0000
0000
0010
0000
,
0000
0000
1000
0000
0100
0000
0000
0100
0000
0000
0100
0000
0010
0000
0001
0000
,
0101
0000
0000
0000
0011
0000
0000
0000
1000
0000
0000
0010
0000
0000
0000
0100
,
0000
0001
0010
0000
0001
0000
0100
0000
,
0011
0000
0000
0000
0101
0000
0000
0000
1000
0000
0000
0100
0000
0000
0010
0000
,
0000
0000
0001
0000
0100
0000
0000
0010
0000
0000
0100
0000
0010
0000
0000
0000
,
1100
0000
0000
0000
1010
0000
0000
0000
0001
0000
0000
0010
0000
0000
0000
0100
,
0000
1000
0010
0100
0010
0000
0100
0010
,
0100
0000
0010
0100
0000
0010
0100
0000
,
0010
0100
0000
0010
0001
1000
0010
1000
,
0010
0000
0100
0010
0000
0100
0010
0000
,
0100
0010
0100
0001
0100
0000
2000
0000
,
3001
0000
0100
0001
0000
0100
0001
0000
,
0100
0001
0000
0100
0001
0010
0100
1000
,
1000
0000
0100
1000
0000
0100
1000
0000
,
0100
0000
0100
0000
1000
0000
0000
0001
0000
0000
0200
0000
0020
0000
0330
0000
,
0101
0000
0000
0000
0011
0000
0000
0000
1000
0000
0000
0010
0000
0000
0100
0000
,
0000
0000
0001
0000
0010
0000
0000
0010
0000
0000
0010
0000
0100
0000
0000
0000
,
1010
0000
0000
0000
1100
0000
0000
0000
0001
0000
0000
0100
0000
0000
0000
0010
,
0000
1000
0100
0100
1000
0100
0010
0000
,
1100
0000
0000
0000
1010
0000
0000
0000
0001
0000
0000
0010
0000
0000
0100
0000
,
0000
0000
1000
0000
0010
0000
0000
0010
0000
0000
0010
0000
0100
0000
0001
0000
,
0000
0000
0000
0000
0202
0000
0000
0303
0000
0000
0000
0000
0220
0000
0000
0000
,
0330
0000
0100
0010
0100
0000
0010
0000
,
0100
0000
0010
0100
0000
0010
0100
0000
,
0010
0100
0000
0010
1000
0001
0010
1000
,
0010
0000
0100
0010
0000
0100
0010
0000
,
0100
0000
0010
0000
0100
0000
0000
0001
0000
0000
0001
0000
2000
0000
0000
0000
,
3001
0000
0100
0001
0000
0100
0001
0000
,
0100
0001
0000
0100
0001
0010
0100
1000
,
1000
0000
0100
1000
0000
0100
1000
0000
,
0100
0000
0000
0000
1100
0000
0000
0001
0000
0000
0200
0000
0020
0000
0330
0000
,
0000
0000
0001
0000
0100
0000
0000
0002
0000
0000
0103
0000
0010
0000
2000
0000
,
0000
0000
3001
0000
0010
0000
0000
0002
0000
0000
0013
0000
0100
0000
0000
0000
,
0100
0010
0100
1000
0100
0000
0100
0000
,
0010
0100
0010
0001
0010
0000
0020
0000
,
0030
0000
0001
0000
0010
0000
0000
0002
0000
0000
0013
0000
0100
0000
2000
0000
,
0000
0000
3001
0000
0100
0000
0000
0002
0000
0000
0103
0000
0010
0000
0000
0000
,
0010
1000
0010
1000
0020
0000
0130
0002
,
0000
0000
0010
0003
0100
0000
0000
0000
0100
0000
1000
0000
0200
0000
0000
0000
,
0300
0000
1000
0000
0100
0000
0000
2000
0000
0000
3100
0000
0010
0000
0002
0000
,
0000
0000
1003
0000
0010
0000
0000
2000
0000
0000
3010
0000
0100
0000
1000
0000
,
0100
0000
0100
1000
0100
0000
0100
2000
,
0000
3010
1000
0000
0100
0001
0010
0000
,
0100
0000
0000
0000
0100
0000
0000
0002
0000
0000
0103
0000
0010
0000
2000
0000
,
0000
0000
3001
0000
0010
0000
0000
0002
0000
0000
0013
0000
0100
0000
1000
0000
,
0200
0300
0000
1000
0100
0020
0000
0032
,
0000
0103
0010
0000
0010
0000
0010
2000
,
0200
0000
3000
0300
0000
0000
0000
0000
0000
0000
0000
0000
0000
0000
0000
0000
,
0000
0000
0000
0000
,
0011
0000
0000
0000
1001
0000
0000
0000
0010
0000
0000
0001
0000
1000
0000
0010
,
0000
1000
0100
0000
0010
0000
0100
0000
,
1100
0000
0000
0000
1001
0000
0000
0000
0001
0000
0000
0100
0000
0000
0002
0000
,
0000
0000
0103
0000
0010
0000
0000
0010
0000
0000
0100
0000
0010
0000
0000
0000
,
1010
0000
0000
0000
1001
0000
0000
0000
0010
0000
0000
0001
0000
1000
0000
0000
,
2200
0000
0000
3300
2020
0000
0000
3030
0202
0000
0000
0303
0022
0000
0000
0033
,
0100
0000
0010
0100
0000
0010
0100
0000
,
0010
0100
0000
0010
1000
0001
0010
0001
,
0010
0000
0100
0010
0000
0100
0010
0000
,
0100
0000
0010
0000
0010
0000
0000
0001
0000
0000
0001
0000
2000
0000
0000
0000
,
3001
0000
0100
0001
0000
0100
0001
0000
,
0100
0001
0000
0100
0001
0010
0100
0100
,
1000
0000
0100
1000
0000
0100
1000
0000
,
0100
0000
0100
0000
1000
0000
0000
0001
0000
0000
0200
0000
0020
0000
0330
0000
,
0100
0000
0010
0100
0000
0010
0100
0000
,
0010
0100
0000
0010
1000
0001
0010
0001
,
0010
0000
0100
0010
0000
0100
0010
0000
,
0100
0000
0010
0000
0010
0000
0000
0001
0000
0000
0001
0000
2000
0000
0000
0000
,
3000
0000
0000
0000
;

//--------------- dance-single - Blood4Fame ----------------
#NOTES:
     dance-single:
     Blood4Fame:
     Hard:
     9:
     0,0,0,0,0:
0000
0000
0000
0000
,
0000
0000
0000
0000
,
0000
0000
0000
0000
,
0000
0000
0000
0000
,
1100
0000
0000
0000
1001
0000
0000
0000
0001
0010
0000
0100
0000
0000
2000
0000
,
0000
0000
3100
0000
0010
0001
0000
0010
0000
0000
0100
0000
0010
0000
0001
0000
,
0011
0000
0000
0000
1001
0000
0000
0000
0010
0100
0000
0001
0000
1000
0000
0010
,
0000
1000
0100
0001
0100
0010
0100
0001
,
0101
0000
0000
0000
,
0100
0010
0000
0100
0010
0000
0100
0010
0000
0100
0010
0000
0100
0010
0000
0100
,
0010
0000
0100
0010
0000
0100
0010
0000
1000
0000
0001
0000
0010
0001
1000
0000
,
0010
0100
0000
0010
0100
0000
0010
0100
0000
0010
0100
0000
0010
0100
0000
0010
,
0100
0000
0010
0000
0010
0000
0000
0001
0000
0000
0001
0000
2000
0000
0000
0000
,
3001
0100
0000
0001
0100
0000
0001
0100
0000
0001
0100
0000
0001
0100
0000
0001
,
0100
0000
0001
0100
0000
0001
0100
0000
0001
0000
0010
0000
0100
0010
0100
0000
,
1000
0100
0000
1000
0100
0000
1000
0100
0000
1000
0100
0000
1000
0100
0000
1000
,
0100
0000
0100
0000
1000
0000
0000
0001
0000
0000
0200
0000
0020
0000
0330
0000
,
1010
0000
0000
0000
1100
0000
0000
0000
0001
0100
0000
0100
0000
0000
0010
0000
,
0000
0000
1000
0000
0100
0010
0000
0100
0000
0000
0100
0000
0010
0000
0001
0000
,
0101
0000
0000
0000
0011
0000
0000
0000
1000
0010
0000
0010
0000
0000
0000
0100
,
0000
0001
0010
0010
0001
0010
0100
0000
,
0011
0000
0000
0000
0101
0000
0000
0000
1000
0100
0000
0100
0000
0000
0010
0000
,
0000
0000
0001
0000
0100
0010
0000
0100
0000
0000
0100
0000
0010
0000
1000
0000
,
1100
0000
0000
0000
1010
0000
0000
0000
0001
0010
0000
0010
0000
0000
0000
0100
,
0000
1000
0010
0100
0010
1000
0100
0010
,
0100
0010
0000
0100
0010
0000
0100
0010
0000
0100
0010
0000
0100
0010
0000
0100
,
0010
0000
0100
0010
0000
0100
0010
0000
0001
0000
1000
0000
0010
1000
0001
0000
,
0010
0100
0000
0010
0100
0000
0010
0100
0000
0010
0100
0000
0010
0100
0000
0010
,
0100
0010
0100
0100
0000
0001
2000
0000
,
3001
0100
0000
0001
0100
0000
0001
0100
0000
0001
0100
0000
0001
0100
0000
0001
,
0100
0000
0001
0100
0000
0001
0100
0000
0001
0000
0010
0000
0100
0010
0100
0000
,
1000
0100
0000
1000
0100
0000
1000
0100
0000
1000
0100
0000
1000
0100
0000
1000
,
0100
0000
0100
0000
1000
0000
0000
0001
0000
0000
0200
0000
0020
0000
0330
0000
,
0101
0000
0000
0000
0011
0000
0000
0000
1000
0010
0000
0010
0000
0000
0100
0000
,
0000
0000
0001
0000
0010
0100
0000
0010
0000
0000
0010
0000
0100
0000
1000
0000
,
1010
0000
0000
0000
1100
0000
0000
0000
0001
0100
0000
0100
0000
0000
0000
0010
,
0000
1000
0100
0100
1000
0100
0010
0001
,
1100
0000
0000
0000
1010
0000
0000
0000
0001
0010
0000
0010
0000
0000
0100
0000
,
0000
0000
1000
0000
0010
0000
0000
0010
0000
1000
0010
0000
0100
0000
0001
0000
,
0001
0010
0000
0000
0200
0000
0000
0301
0000
0100
0000
0100
0020
0000
0000
0000
,
0030
1000
0100
0010
0100
1000
0010
0000
,
0100
0010
0000
0100
0010
0000
0100
0010
0000
0100
0010
0000
0100
0010
0000
0100
,
0010
0000
0100
0010
0000
0100
0010
0000
1000
0000
0001
0000
0010
0001
1000
0000
,
0010
0100
0000
0010
0100
0000
0010
0100
0000
0010
0100
0000
0010
0100
0000
0010
,
0100
0000
0010
0000
0100
0000
0000
0001
0000
0000
0001
0000
2000
0000
0000
0000
,
3001
0100
0000
0001
0100
0000
0001
0100
0000
0001
0100
0000
0001
0100
0000
0001
,
0100
0000
0001
0100
0000
0001
0100
0000
0001
0000
0010
0000
0100
0010
0100
0000
,
1000
0100
0000
1000
0100
0000
1000
0100
0000
1000
0100
0000
1000
0100
0000
1000
,
0100
0000
0100
0000
1100
0000
0000
0001
0000
0000
0200
0000
0020
0000
0330
0000
,
0000
0000
0001
0000
0100
0010
0000
2000
0000
0000
3100
0000
0010
0000
0002
0000
,
0000
0000
1003
0000
0010
0100
0000
0002
0000
0000
0013
0000
0100
0000
1000
0000
,
0100
0010
0100
1000
0100
0000
0100
1000
,
0010
0100
0010
1000
0010
0000
0010
2000
,
0000
0000
3001
0000
0010
0100
0000
2000
0000
0000
3010
0000
0100
0000
0002
0000
,
0000
0000
1003
0000
0100
0010
0000
0002
0000
0000
0103
0000
0010
0000
1000
0000
,
0010
0100
0010
1000
0020
0000
0130
0002
,
0000
0000
0010
0003
0100
0000
1000
0000
0100
0000
0001
0000
0200
0000
0000
0000
,
0300
0000
0001
0000
0100
0010
0000
2000
0000
0000
3100
0000
0010
0000
0002
0000
,
0000
0000
1003
0000
0010
0100
0000
0002
0000
0000
0013
0000
0100
0000
1000
0000
,
0100
0010
0100
1000
0100
0001
0100
2000
,
0000
3010
1000
0010
0100
0001
0010
0001
,
0100
0000
0000
0000
0100
0010
0000
2000
0000
0000
3100
0000
0010
0000
0002
0000
,
0000
0000
1003
0000
0010
0100
0000
0002
0000
0000
0013
0000
0100
0000
1000
0000
,
0220
0330
0000
1000
0100
0020
0000
0032
,
0000
0103
0010
1000
0010
0001
0010
2000
,
0200
0000
3000
0300
0000
0000
0000
0000
0000
0000
0000
0000
0000
0000
0000
0000
,
0000
0000
0000
0000
,
0011
0000
0000
0000
1001
0000
0000
0000
0010
0100
0000
0001
0000
1000
0000
0010
,
0000
1000
0100
0001
0100
0010
0100
0000
,
1100
0000
0000
0000
1001
0000
0000
0000
0001
0010
0000
0100
0000
0000
0002
0000
,
0000
0000
0103
0000
0010
1000
0000
0010
0000
0000
0100
0000
0010
0000
0000
0000
,
0011
0000
0000
0000
1001
0000
0000
0000
0010
0100
0000
0001
0000
1000
0000
0000
,
2000
0000
0000
3000
2020
0000
0000
3030
0202
0000
0000
0303
0022
0000
0000
0033
,
0100
0010
0000
0100
0010
0000
0100
0010
0000
0100
0010
0000
0100
0010
0000
0100
,
0010
0000
0100
0010
0000
0100
0010
0000
1000
0000
0001
0000
0010
0001
1000
0000
,
0010
0100
0000
0010
0100
0000
0010
0100
0000
0010
0100
0000
0010
0100
0000
0010
,
0100
0000
0010
0000
0010
0000
0000
0001
0000
0000
0001
0000
2000
0000
0000
0000
,
3001
0100
0000
0001
0100
0000
0001
0100
0000
0001
0100
0000
0001
0100
0000
0001
,
0100
0000
0001
0100
0000
0001
0100
0000
0001
0000
0010
0000
0100
0010
0100
0000
,
1000
0100
0000
1000
0100
0000
1000
0100
0000
1000
0100
0000
1000
0100
0000
1000
,
0100
0000
0100
0000
1000
0000
0000
0001
0000
0000
0200
0000
0020
0000
0330
0000
,
0100
0010
0000
0100
0010
0000
0100
0010
0000
0100
0010
0000
0100
0010
0000
0100
,
0010
0000
0100
0010
0000
0100
0010
0000
1000
0000
0001
0000
0010
0001
1000
0000
,
0010
0100
0000
0010
0100
0000
0010
0100
0000
0010
0100
0000
0010
0100
0000
0010
,
0100
0000
0010
0000
0010
0000
0000
0001
0000
0000
0001
0000
2000
0000
0000
0000
,
3000
0000
0000
0000
;

//--------------- dance-single - Blood4Fame ----------------
#NOTES:
     dance-single:
     Blood4Fame:
     Challenge:
     10:
     0,0,0,0,0:
0000
0000
0000
0000
,
0000
0000
0000
0000
,
0000
0000
0000
0000
,
0000
0000
0000
0000
,
1100
0000
0000
0000
1001
0000
0000
0000
0001
0010
0000
0100
0000
0010
0002
0000
,
0000
0000
0103
0000
0010
1000
0000
0010
0000
1000
0100
0000
0010
0000
0010
0000
,
0011
0000
0000
0000
1001
0000
0000
0000
0010
0100
0000
0001
0000
1000
0000
0010
,
0000
0010
1000
0000
0100
0000
0001
0000
0100
0000
0010
0000
0100
0000
0001
0000
,
0101
0000
0000
0001
0000
0010
0000
0001
0000
0000
0000
0000
0000
0000
0000
0000
,
0100
0010
0000
0100
0010
0000
0100
0010
0000
0100
0010
0000
0100
0010
0000
0100
,
0010
0000
0100
0010
0000
0100
0010
0000
1000
0000
0001
0000
0010
0001
1000
0000
,
0010
0100
0000
0010
0100
0000
0010
0100
0000
0010
0100
0000
0010
0100
0000
0010
,
0100
0000
0010
0000
0010
0000
0100
0001
0000
0000
0001
0000
2000
0000
0000
0000
,
3001
0100
0000
0001
0100
0000
0001
0100
0000
0001
0100
0000
0001
0100
0000
0001
,
0100
0000
0001
0100
0000
0001
0100
0000
0001
0000
0010
0000
0100
0010
0100
0000
,
1000
0100
0000
1000
0100
0000
1000
0100
0000
1000
0100
0000
1000
0100
0000
1000
,
0100
0000
0100
0000
1100
0000
1000
0001
0000
0000
0200
0000
0020
0000
0330
0000
,
1010
0000
0000
0000
1100
0000
0000
0000
0001
0100
0000
0100
0000
0100
0010
0000
,
0000
0000
1000
0000
0100
0010
0000
0100
0000
1000
0100
0000
0010
0000
0001
0000
,
0101
0000
0000
0000
0011
0000
0000
0000
1000
0010
0000
0010
0000
0010
0000
0100
,
0000
0100
0001
0000
0010
0000
0010
0000
0001
0000
0010
0000
0100
0000
1000
0000
,
0011
0000
0000
0000
0101
0000
0000
0000
1000
0100
0000
0100
0000
0100
0010
0000
,
0000
0000
0001
0000
0100
0010
0000
0100
0000
0001
0100
0000
0010
0000
1000
0000
,
1100
0000
0000
0000
1010
0000
0000
0000
0001
0010
0000
0010
0000
0000
0000
0100
,
0000
0100
1000
0000
0010
0000
0100
0000
0010
0000
1000
0000
0100
0000
0010
0000
,
0100
0010
0000
0100
0010
0000
0100
0010
0000
0100
0010
0000
0100
0010
0000
0100
,
0010
0000
0100
0010
0000
0100
0010
0000
0001
0000
1000
0000
0010
1000
0001
0000
,
0010
0100
0000
0010
0100
0000
0010
0100
0000
0010
0100
0000
0010
0100
0000
0010
,
0100
0000
0010
0000
0100
0000
0100
1000
0000
0000
0001
0000
2000
0000
0000
0000
,
3001
0100
0000
0001
0100
0000
0001
0100
0000
0001
0100
0000
0001
0100
0000
0001
,
0100
0000
0001
0100
0000
0001
0100
0000
0001
0000
0010
0000
0100
0010
0100
0000
,
1000
0100
0000
1000
0100
0000
1000
0100
0000
1000
0100
0000
1000
0100
0000
1000
,
0100
0000
0100
0000
1100
0000
1000
0001
0000
0000
0200
0000
0020
0000
0330
0000
,
0101
0000
0000
0000
0011
0000
0000
0000
1000
0010
0000
0010
0000
0010
0100
0000
,
0000
0000
0001
0000
0010
0100
0000
0010
0000
0001
0010
0000
0100
0000
1000
0000
,
1010
0000
0000
0000
1100
0000
0000
0000
0001
0100
0000
0100
0000
0100
0000
0010
,
0000
0010
1000
0000
0100
0000
0100
0000
1000
0000
0100
0000
0010
0000
0001
0000
,
1100
0000
0000
0000
1010
0000
0000
0000
0001
0010
0000
0010
0000
0010
0100
0000
,
0000
0000
1000
0000
0010
0100
0000
0010
0000
1000
0010
0000
0100
0000
0001
0000
,
0001
0010
0000
0001
0100
0000
0000
0001
0000
0100
0000
0100
0010
0000
0000
1000
,
0000
0010
1000
0000
0100
0000
0010
0000
0100
0000
1000
0000
0010
0000
0100
0000
,
0100
0010
0000
0100
0010
0000
0100
0010
0000
0100
0010
0000
0100
0010
0000
0100
,
0010
0000
0100
0010
0000
0100
0010
0000
1000
0000
0001
0000
0010
0001
1000
0000
,
0010
0100
0000
0010
0100
0000
0010
0100
0000
0010
0100
0000
0010
0100
0000
0010
,
0100
0000
0010
0000
0100
0000
0100
0001
0000
0000
0001
0000
2000
0000
0000
0000
,
3001
0100
0000
0001
0100
0000
0001
0100
0000
0001
0100
0000
0001
0100
0000
0001
,
0100
0000
0001
0100
0000
0001
0100
0000
0001
0000
0010
0000
0100
0010
0100
0000
,
1000
0100
0000
1000
0100
0000
1000
0100
0000
1000
0100
0000
1000
0100
0000
1000
,
0100
0000
0100
0000
1100
0000
1000
0001
0000
0000
0200
0000
0020
0000
0330
0000
,
0000
0000
0001
0000
0100
0010
0000
2000
0000
0000
3100
0000
0010
0000
0002
0000
,
0000
0000
1003
0000
0010
0100
0000
0002
0000
0000
0013
0000
0100
0000
1000
0000
,
0100
0010
0100
1000
0100
0001
0100
1000
,
0010
0100
0010
1000
0010
0001
0010
2000
,
0000
0000
3001
0000
0010
0100
0000
2000
0000
0000
3010
0000
0100
0000
0002
0000
,
0000
0000
1003
0000
0100
0010
0000
0002
0000
0000
0103
0000
0010
0000
1000
0000
,
0010
0100
0010
1000
0020
0000
0130
0002
,
0000
0000
0010
0003
0100
0000
1000
0000
0100
0000
0001
0000
0100
0000
1000
0000
,
0001
0000
0001
0000
0100
0010
0000
2000
0000
0000
3100
0000
0010
0000
0002
0000
,
0000
0000
1003
0000
0010
0100
0000
0002
0000
0000
0013
0000
0100
0000
1000
0000
,
0100
0010
0100
1000
0100
0001
0100
2000
,
0000
3010
1000
0010
0100
0001
0010
0001
,
0100
0000
0001
0000
0100
0010
0000
2000
0000
0000
3100
0000
0010
0000
0002
0000
,
0000
0000
1003
0000
0010
0100
0000
0002
0000
0000
0013
0000
0100
0000
1000
0000
,
0220
0330
0000
1000
0100
0020
0000
0032
,
0000
0103
0010
1000
0010
0001
0010
2000
,
0200
0000
3000
0300
0000
0000
0000
0000
0000
0000
0000
0000
0000
0000
0000
0000
,
0000
0000
0000
0000
,
0011
0000
0000
0000
1001
0000
0000
0000
0010
0100
0000
0001
0000
1000
0000
0010
,
0000
0010
1000
0000
0100
0000
0001
0000
0100
0000
0010
0000
0100
0000
1000
0000
,
1100
0000
0000
0000
1001
0000
0000
0000
0001
0010
0000
0100
0000
0010
0002
0000
,
0000
0000
0103
0000
0010
1000
0000
0010
0000
1000
0100
0000
0010
0000
0010
0000
,
0011
0000
0000
0000
1001
0000
0000
0000
0010
0100
0000
0001
0000
1000
0000
0010
,
2000
0000
0000
3000
2020
0000
0000
3030
0202
0000
0000
0303
0022
0000
0000
0033
,
0100
0010
0000
0100
0010
0000
0100
0010
0000
0100
0010
0000
0100
0010
0000
0100
,
0010
0000
0100
0010
0000
0100
0010
0000
1000
0000
0001
0000
0010
0001
1000
0000
,
0010
0100
0000
0010
0100
0000
0010
0100
0000
0010
0100
0000
0010
0100
0000
0010
,
0100
0000
0010
0000
0010
0000
0100
0001
0000
0000
0001
0000
2000
0000
0000
0000
,
3001
0100
0000
0001
0100
0000
0001
0100
0000
0001
0100
0000
0001
0100
0000
0001
,
0100
0000
0001
0100
0000
0001
0100
0000
0001
0000
0010
0000
0100
0010
0100
0000
,
1000
0100
0000
1000
0100
0000
1000
0100
0000
1000
0100
0000
1000
0100
0000
1000
,
0100
0000
0100
0000
1100
0000
1000
0001
0000
0000
0200
0000
0020
0000
0330
0000
,
0100
0010
0000
0100
0010
0000
0100
0010
0000
0100
0010
0000
0100
0010
0000
0100
,
0010
0000
0100
0010
0000
0100
0010
0000
1000
0000
0001
0000
0010
0001
1000
0000
,
0010
0100
0000
0010
0100
0000
0010
0100
0000
0010
0100
0000
0010
0100
0000
0010
,
0100
0000
0010
0000
0010
0000
0100
0001
0000
0000
0001
0000
2000
0000
0000
0000
,
3000
0000
0000
0000
;
