#TITLE:Garden Stage - Bomberman Max 2;
#SUBTITLE:[TerminalMontage Mix];
#ARTIST:Hudson Soft;
#TITLETRANSLIT:;
#SUBTITLETRANSLIT:;
#ARTISTTRANSLIT:;
#GENRE:Chiptune;
#CREDIT:Blood4Fame;
#MUSIC:music.mp3;
#BANNER:banner.png;
#BACKGROUND:bg.png;
#CDTITLE:;
#SAMPLESTART:15.050;
#SAMPLELENGTH:15.739;
#SELECTABLE:YES;
#OFFSET:-0.292;
#BPMS:0.000=130.011;
#STOPS:;
#BGCHANGES:;
#FGCHANGES:;

//--------------- dance-single - Blood4Fame ----------------
#NOTES:
     dance-single:
     Blood4Fame:
     Beginner:
     2:
     0,0,0,0,0:
0000
0000
0000
0000
,
0000
0000
0000
0000
,
0000
0000
0000
0000
,
0000
0000
0000
0000
,
0000
0000
1000
0000
,
1000
0000
0001
0000
,
0001
0000
0200
0000
,
0300
0000
0200
0000
,
0300
0000
1000
1000
,
1000
0000
0001
0001
,
0001
0000
0100
0000
,
0010
0000
0200
0000
,
0300
0000
1000
1000
,
1000
0000
0001
0001
,
0001
0000
0100
0000
,
0010
0000
0200
0000
,
0300
0000
1000
0000
,
1000
0000
0001
0000
,
0001
0000
0200
0000
,
0300
0000
0200
0000
,
0300
0000
0001
0000
,
0001
0000
1000
0000
,
1000
0000
0020
0000
,
0030
0000
0020
0000
,
0030
0000
0001
0001
,
0001
0000
1000
1000
,
1000
0000
0010
0000
,
0100
0000
0020
0000
,
0030
0000
0001
0001
,
0001
0000
1000
1000
,
1000
0000
0010
0000
,
0100
0000
0020
0000
,
0030
0000
0001
0000
,
0001
0000
1000
0000
,
1000
0000
0200
0000
,
0300
0000
0200
0000
,
0300
0000
1000
0000
,
1000
0000
0001
0000
,
0001
0000
0020
0000
,
0030
0000
0020
0000
,
0030
0000
1000
1000
,
1000
0000
0001
0001
,
0001
0000
0010
0000
,
0100
0000
0220
0000
,
0330
0000
1000
1000
,
1000
0000
0001
0001
,
0001
0000
0010
0000
,
0100
0000
0220
0000
,
0330
0000
1000
0000
,
1000
0000
0001
0000
,
0001
0000
0202
0000
,
0303
0000
0220
0000
,
0330
0000
0001
0000
,
0001
0000
1000
0000
,
1000
0000
2020
0000
,
3030
0000
0220
0000
,
0330
0000
0001
0001
,
0002
0000
1003
1000
,
2000
0000
3020
0000
,
0230
0000
0320
0000
,
0030
0000
0001
0001
,
0002
0000
1003
1000
,
2000
0000
3020
0000
,
0230
0000
0320
0000
,
0000
0000
0030
0000
;

//--------------- dance-single - Blood4Fame ----------------
#NOTES:
     dance-single:
     Blood4Fame:
     Easy:
     3:
     0,0,0,0,0:
0000
0000
0000
0000
,
0000
0000
0000
0000
,
0000
0000
0000
0000
,
0000
0000
0000
0000
,
0000
0000
0001
0001
,
1000
1000
0001
1000
,
0001
0001
1000
0000
,
0100
0000
1000
0000
,
0001
0000
0100
0100
,
0100
0000
0010
0010
,
0010
0000
1000
0000
,
0001
0000
0100
0000
,
0001
0000
0010
0010
,
0010
0000
0100
0100
,
0100
0000
1000
0000
,
0001
0000
0010
0000
,
0001
0000
1000
1000
,
0001
0001
1000
0001
,
1000
1000
0001
0000
,
0100
0000
0001
0000
,
1000
0000
0001
0001
,
1000
1000
0001
1000
,
0001
0001
1000
0000
,
0100
0000
1000
0000
,
0001
0000
0100
0100
,
0100
0000
0010
0010
,
0010
0000
1000
0000
,
0001
0000
0100
0000
,
0001
0000
0010
0010
,
0010
0000
0100
0100
,
0100
0000
1000
0000
,
0001
0000
0010
0000
,
0001
0000
0010
0010
,
0100
0100
0010
0100
,
0010
0010
0100
0000
,
1000
0000
0100
0000
,
0010
0000
0100
0100
,
0010
0010
0100
0010
,
0100
0100
0010
0000
,
0001
0000
0010
0000
,
0100
0000
0100
0110
,
0100
0000
0010
0110
,
0010
0000
1000
0000
,
0001
0000
0110
0000
,
0001
0000
0010
0110
,
0010
0000
0100
0110
,
0100
0000
1000
0000
,
0001
0000
0110
0000
,
0001
0000
1001
1000
,
0001
0001
1000
0001
,
1000
1000
1001
0000
,
0100
0000
0001
0000
,
1001
0000
1001
0001
,
1000
1000
0001
1000
,
0001
0001
1001
0000
,
0100
0000
1000
0000
,
1001
0000
0100
0110
,
0100
0000
0010
0110
,
0010
0000
1100
0000
,
0101
0000
0110
0000
,
1001
0000
0010
0110
,
0010
0000
0100
0110
,
0100
0000
1100
0000
,
0101
0000
0110
0000
,
1001
0000
0000
0000
;

//--------------- dance-single - Blood4Fame ----------------
#NOTES:
     dance-single:
     Blood4Fame:
     Medium:
     7:
     0,0,0,0,0:
0000
0000
0000
0010
2000
0000
0000
0000
,
3001
0000
0001
0000
1000
0100
0000
1000
0000
0000
1000
0000
0001
0100
0000
0001
,
0000
0000
0001
0000
1000
0100
0000
0020
0000
0000
0000
0000
0000
0000
0030
0000
,
0001
0000
0001
0000
0010
0001
0000
0100
0000
0000
0010
0000
1000
0100
0000
0010
,
0000
0001
0010
0001
2000
0000
0000
0000
,
3001
0000
0001
0000
1000
0100
0000
1000
0000
0000
1000
0000
0001
0100
0000
0001
,
0000
0000
0001
0000
1000
0100
0000
0020
0000
0000
0000
0000
0000
0000
0030
0000
,
0001
0000
0001
0000
0010
0001
0000
0100
0000
0000
0010
0000
1000
0100
0000
0010
,
0000
0000
0001
0000
0010
0000
0001
0000
0100
0000
0000
0010
0000
0000
2000
0000
,
0000
0000
0000
0000
0000
0000
3100
0010
0100
0000
0000
1000
0000
0000
0002
0000
,
0000
0000
0000
0000
0000
0000
1003
0000
0001
0000
0000
0100
0000
0000
0020
0000
,
0000
0000
0100
0000
0000
0100
0000
0000
2030
0000
0000
0000
0000
0000
0000
0000
,
3001
0000
0000
0010
0000
0000
0100
0000
1000
0000
0000
0001
0000
0000
0200
0000
,
0000
0000
0000
0000
0000
0000
0310
0100
0010
0000
0000
1000
0000
0000
0002
0000
,
0000
0000
0000
0000
1003
0002
0000
0000
0023
0000
0000
0000
0000
0000
0030
0000
,
0010
0000
0000
0001
0000
0000
0100
0000
0020
0000
0000
0000
0000
0000
0000
0000
,
1030
0001
1001
1100
,
0001
1000
0100
1000
0010
0000
1000
0001
,
0010
0000
0100
1000
0001
0000
0100
0010
,
1000
0000
0010
0000
0100
0010
0000
1000
0000
0000
0001
0000
0010
0000
0001
0000
,
0100
0000
0000
0100
0000
0000
0010
0000
1000
0000
0000
0000
0101
0000
0000
0000
,
1000
0001
0100
0001
0010
0000
0001
1000
,
0010
0000
0100
0001
1000
0000
0100
0010
,
0001
0000
0010
0000
0100
0010
0000
0001
0000
0000
1000
0000
0010
0000
1000
0000
,
0100
1000
0100
0010
0001
0100
0001
0010
,
0100
0100
0100
1000
0010
0010
1000
0001
,
0100
0000
0100
0000
0100
0000
0001
0000
0010
0000
0000
0011
0000
0000
0100
0000
,
0000
0000
0010
0000
0000
1000
0000
0000
1000
0000
0001
0000
1000
0000
0100
0000
,
0010
0000
0000
0001
0000
0000
1000
0000
1000
0000
0100
0000
1000
0000
0010
0000
,
0100
0100
0100
0001
0010
0010
0001
1000
,
0100
0000
0100
0000
0100
0000
1000
0000
0010
0000
0000
1010
0000
0000
0100
0000
,
0000
0000
0010
0000
0000
0001
0000
0000
0001
0000
1000
0000
0001
0000
0100
0000
,
0010
0000
0110
0100
0002
0000
0000
0000
,
1003
0000
1000
0000
0001
0010
0000
0001
0000
0000
0001
0000
1000
0010
0000
1000
,
0000
0000
1000
0000
0001
0010
0000
0200
0000
0000
0000
0000
0000
0000
0300
0000
,
1000
0000
1000
0000
0100
1000
0000
0010
0000
0000
0100
0000
0001
0010
0000
0100
,
0000
1000
0100
1000
0002
0000
0000
0000
,
1003
0000
1000
0000
0001
0010
0000
0001
0000
0000
0001
0000
1000
0010
0000
1000
,
0000
0000
1000
0000
0001
0010
0000
0200
0000
0000
0000
0000
0000
0000
0300
0000
,
1000
0000
1000
0000
0100
1000
0000
0010
0000
0000
0100
0000
0001
0010
0000
0100
,
0000
0000
1000
0000
0100
0000
1000
0000
0010
0000
0000
0100
0000
0000
0002
0000
,
0000
0000
0000
0000
0000
0000
0013
0100
0010
0000
0000
0001
0000
0000
2000
0000
,
0000
0000
0000
0000
0000
0000
3001
0000
1000
0000
0000
0010
0000
0000
0200
0000
,
0000
0000
0010
0000
0000
0010
0000
0000
0302
0000
0000
0000
0000
0000
0000
0000
,
1003
0000
0000
0100
0000
0000
0010
0000
0001
0000
0000
1000
0000
0000
0020
0000
,
0000
0000
0000
0000
0000
0000
0130
0010
0100
0000
0000
0001
0000
0000
2000
0000
,
0000
0000
0000
0000
3001
2000
0000
0000
3200
0000
0000
0000
0000
0000
0300
0000
,
0100
0000
0000
1000
0000
0000
0010
0000
0200
0000
0000
0000
0000
0000
0000
0000
,
0301
1000
1001
0011
,
1000
0001
0010
0001
0100
0000
0001
1000
,
0100
0000
0010
0001
1000
0000
0010
0100
,
0001
0000
0100
0000
0010
0100
0000
0001
0000
0000
1000
0000
0100
0000
1000
0000
,
0010
0000
0000
0010
0000
0000
0100
0000
0001
0000
0000
0000
1010
0000
0000
0000
,
0001
1000
0010
1000
0100
0000
1000
0001
,
0100
0000
0010
1000
0001
0000
0010
0100
,
1000
0000
0100
0000
0010
0100
0000
1000
0000
0000
0001
0000
0100
0000
0001
0000
,
0010
0001
0010
0100
1000
0010
1000
0100
,
0010
0010
0010
0001
0100
0100
0001
1000
,
0010
0000
0010
0000
0010
0000
1000
0000
0100
0000
0000
1100
0000
0000
0010
0000
,
0000
0000
0100
0000
0000
0001
0000
0000
0001
0000
1000
0000
0001
0000
0010
0000
,
0100
0000
0000
1000
0000
0000
0001
0000
0001
0000
0010
0000
0001
0000
0100
0000
,
0010
0010
0010
1000
0100
0100
1000
0001
,
0010
0000
0010
0000
0010
0000
0001
0000
0100
0000
0000
0101
0000
0000
0010
0000
,
0000
0000
0100
0000
0000
1000
0000
0000
1001
0000
0000
0000
0000
0000
0000
0000
;

//--------------- dance-single - Blood4Fame ----------------
#NOTES:
     dance-single:
     Blood4Fame:
     Hard:
     10:
     0,0,0,0,0:
0000
0000
0000
0000
0000
0000
1000
0000
1100
0000
0000
1000
0001
0000
0100
0000
,
0010
0000
1000
0000
0010
0100
0000
0110
0000
0000
1000
0000
0001
0010
0000
0011
,
0000
0000
1000
0000
0100
0010
0000
0001
0000
0000
0100
0000
0001
0100
0000
0001
,
1000
0000
0100
0000
0010
0001
0000
0100
0001
0000
1000
0000
0010
0100
0000
0010
,
1000
0000
1000
0100
0000
1000
0000
1000
0001
0000
0000
1000
0001
0000
0100
0000
,
0010
0000
1000
0000
0010
0100
0000
0110
0000
0000
1000
0000
0001
0010
0000
0011
,
0000
0000
1000
0000
0100
0010
0000
0001
0000
0000
0100
0000
0001
0100
0000
0001
,
1000
0000
0100
0000
0010
0001
0000
0100
0001
0000
1000
0000
0010
0100
0000
0010
,
1000
0001
0100
0001
0010
0100
1000
0100
0010
0000
0000
0001
0000
0000
0100
0000
,
0010
1000
0100
0000
1000
0010
0100
0000
0001
0000
0000
0010
0000
0000
0100
0000
,
0010
0001
0100
0000
0001
0010
0100
0000
1000
0000
0000
0001
0000
0000
0010
0000
,
0001
0000
0001
0000
0010
0100
0000
0000
1001
0000
0000
0100
0000
0000
0010
0000
,
1000
0000
0001
0010
0000
0001
0100
0000
0010
0000
0000
1000
0000
0000
0100
0000
,
0010
0001
0100
0000
0001
0010
0100
0000
1000
0000
0000
0010
0000
0000
0100
0000
,
0010
1000
0100
0000
1000
0010
0100
0000
0001
0000
1000
0010
0000
0010
1000
0000
,
0100
0000
0000
0010
0000
0000
0001
0000
1001
0000
0000
0000
0001
0100
0000
0000
,
1000
0100
0000
0000
0001
0100
0000
0000
0020
0000
0000
0000
0000
0000
0000
0000
,
0130
0000
0100
0000
0010
0200
0000
0001
0000
0300
0100
0000
0010
1000
0000
0200
,
0000
0000
0310
0000
0001
0100
0000
0200
0000
0000
0000
0000
0010
0000
0000
0000
,
0301
0000
0100
0000
0100
0001
0000
0010
0000
0000
0001
0010
0001
0000
1000
0000
,
0100
0000
0010
0000
0000
0010
0000
0010
0200
0000
0000
0000
0000
0000
0000
0000
,
0310
0000
0010
0000
0100
0020
0000
0001
0000
0030
0010
0000
0100
1000
0000
0020
,
0000
0000
0130
0000
0001
0010
0000
0020
0000
0000
0000
0000
0100
0000
0000
0000
,
0031
0000
0010
0000
0010
0001
0000
0100
0000
0000
0001
0000
0000
0001
0000
0001
,
0010
0000
0100
0000
0010
0000
0001
0000
1001
0000
0000
0101
0000
0000
1010
0000
,
0100
0000
1000
0000
0100
0000
0010
0000
0011
0000
0000
0101
0000
0000
0011
0000
,
0001
0000
0010
0000
0100
0000
1000
0000
1100
0000
0000
1010
0000
0000
1100
0000
,
0100
0000
0010
0000
0001
0000
0100
0000
0110
0000
0000
1010
0000
0000
0110
0000
,
1001
0000
0000
0110
0000
0000
1001
0000
1001
0000
0000
1100
0000
0000
0011
0000
,
0100
0000
0001
0000
0100
0000
0010
0000
1010
0000
0000
1100
0000
0000
1010
0000
,
1000
0000
0010
0000
0100
0000
0001
0000
0101
0000
0000
0011
0000
0000
0101
0000
,
0100
0000
0010
0000
1000
0000
0100
0000
0110
0000
0000
0011
0000
0000
0110
0000
,
1001
0000
0000
0110
0000
0000
1001
0000
0200
0000
0000
0000
0000
0000
0000
0000
,
0310
0000
0010
0000
0100
0020
0000
1000
0000
0030
0010
0000
0100
0001
0000
0020
,
0000
0000
0130
0000
1000
0010
0000
0020
0000
0000
0000
0000
0100
0000
0000
0000
,
1030
0000
0010
0000
0010
1000
0000
0100
0000
0000
1000
0100
1000
0000
0001
0000
,
0010
0000
0100
0000
0000
0100
0000
0100
0020
0000
0000
0000
0000
0000
0000
0000
,
0130
0000
0100
0000
0010
0200
0000
1000
0000
0300
0100
0000
0010
0001
0000
0200
,
0000
0000
0310
0000
1000
0100
0000
0200
0000
0000
0000
0000
0010
0000
0000
0000
,
1300
0000
0100
0000
0100
1000
0000
0010
0000
0000
1000
0000
0000
1000
0000
1000
,
0100
0000
0010
0000
0100
0000
1000
0000
1001
0000
0000
1010
0000
0000
0101
0000
,
0010
0000
0001
0000
0010
0000
0100
0000
1100
0000
0000
1010
0000
0000
1100
0000
,
1000
0000
0100
0000
0010
0000
0001
0000
0011
0000
0000
0101
0000
0000
0011
0000
,
0010
0000
0100
0000
1000
0000
0010
0000
0110
0000
0000
0101
0000
0000
0110
0000
,
1001
0000
0000
0110
0000
0000
1001
0000
1001
0000
0000
0011
0000
0000
1100
0000
,
0010
0000
1000
0000
0010
0000
0100
0000
0101
0000
0000
0011
0000
0000
0101
0000
,
0001
0000
0100
0000
0010
0000
1000
0000
1010
0000
0000
1100
0000
0000
1010
0000
,
0010
0000
0100
0000
0001
0000
0010
0000
0110
0000
0000
1100
0000
0000
0110
0000
,
1001
0000
0000
0110
0000
0000
1001
0000
0011
0000
0000
0001
1000
0000
0010
0000
,
0100
0000
0001
0000
0100
0010
0000
0110
0000
0000
0001
0000
1000
0100
0000
1100
,
0000
0000
0001
0000
0010
0100
0000
1000
0000
0000
0010
0000
1000
0010
0000
1000
,
0001
0000
0010
0000
0100
1000
0000
0010
1000
0000
0001
0000
0100
0010
0000
0100
,
0001
0000
0001
0010
0000
0001
0000
0001
1000
0000
0000
0001
1000
0000
0010
0000
,
0100
0000
0001
0000
0100
0010
0000
0110
0000
0000
0001
0000
1000
0100
0000
1100
,
0000
0000
0001
0000
0010
0100
0000
1000
0000
0000
0010
0000
1000
0010
0000
1000
,
0001
0000
0010
0000
0100
1000
0000
0010
1000
0000
0001
0000
0100
0010
0000
0100
,
0001
1000
0010
1000
0100
0010
0001
0010
0100
0000
0000
1000
0000
0000
0010
0000
,
0100
0001
0010
0000
0001
0100
0010
0000
1000
0000
0000
0100
0000
0000
0010
0000
,
0100
1000
0010
0000
1000
0100
0010
0000
0001
0000
0000
1000
0000
0000
0100
0000
,
1000
0000
1000
0000
0100
0010
0000
0000
1001
0000
0000
0010
0000
0000
0100
0000
,
0001
0000
1000
0100
0000
1000
0010
0000
0100
0000
0000
0001
0000
0000
0010
0000
,
0100
1000
0010
0000
1000
0100
0010
0000
0001
0000
0000
0100
0000
0000
0010
0000
,
0100
0001
0010
0000
0001
0100
0010
0000
1000
0000
0001
0100
0000
0100
0001
0000
,
0010
0000
0000
0100
0000
0000
1000
0000
2002
0000
0000
0000
0000
0000
0000
0000
,
0000
0000
3003
0000
;
