#TITLE:First Of The Year;
#SUBTITLE:(Equinox);
#ARTIST:Skrillex;
#TITLETRANSLIT:;
#SUBTITLETRANSLIT:;
#ARTISTTRANSLIT:;
#GENRE:EDM;
#CREDIT:Blood4Fame;
#MUSIC:music.mp3;
#BANNER:banner.png;
#BACKGROUND:bg.png;
#CDTITLE:;
#SAMPLESTART:0.000;
#SAMPLELENGTH:0.000;
#SELECTABLE:YES;
#OFFSET:-0.052;
#BPMS:0.000=145.000
,35.000=290.000
,35.667=145.000
,37.000=290.000
,38.000=145.000
,45.000=290.000
,46.000=145.000
,47.000=290.000
,48.000=145.000
,50.000=290.000
,52.000=145.000
,70.000=290.000
,71.000=145.000
,79.000=290.000
,80.000=145.000
,88.000=290.000
,89.000=145.000
,92.000=290.000
,94.000=165.000
,96.000=72.500
,112.000=145.000
,114.000=72.500
,115.000=145.000
,116.000=290.000
,117.000=72.500
,118.000=145.000
,120.000=72.500
,121.000=145.000
,122.000=290.000
,123.000=145.000
,138.000=290.000
,140.000=145.000
,141.000=290.000
,143.000=290.000
,144.000=290.000
,146.000=290.000
,147.000=72.500
,148.000=145.000
,150.000=290.000
,152.000=290.000
,153.000=290.000
,157.000=580.000
,166.000=145.000
,168.000=290.000
,172.000=72.500
,173.000=145.000
,176.000=290.000
,177.000=145.000
,178.000=72.500
,179.000=290.000
,181.000=145.000
,188.000=72.500
,189.000=290.000
,193.000=145.000
,194.000=72.500
,195.000=290.000
,196.000=145.000
,198.000=290.000
,199.000=290.000
,202.000=145.000
,203.000=72.500
,203.500=145.000
,204.000=145.000
,206.000=290.000
,207.000=72.500
,208.000=145.000
,210.000=145.000
,211.000=145.000
,217.000=72.500
,218.000=145.000
,220.000=290.000
,222.000=72.500
,223.000=290.000
,224.000=72.500
,225.000=290.000
,226.000=290.000
,229.000=72.500
,230.000=290.000
,232.000=145.000
,233.000=290.000
,234.000=145.000
,235.000=145.000
,237.000=72.500
,253.000=145.000
,255.000=72.500
,256.000=145.000
,257.000=290.000
,258.000=145.000
,260.000=72.500
,261.000=145.000
,264.000=290.000
,265.000=72.500
,266.000=145.000
,281.000=290.000
,283.000=290.000
,284.000=290.000
,286.000=290.000
,287.000=145.000
,289.000=145.000
,290.000=290.000
,291.000=290.000
,295.000=580.000
,303.000=145.000
,305.000=290.000
,309.000=72.500
,310.000=145.000
,311.000=290.000
,315.000=290.000
,316.000=72.500
,318.000=145.000
,318.500=145.000
,319.000=145.000
,325.000=72.500
,326.000=290.000
,330.000=290.000
,334.000=72.500
,335.000=290.000
,339.000=145.000
,340.000=72.500
,340.500=145.000
,341.000=290.000
,345.000=290.000
,346.000=174.000
,346.500=145.000
,348.000=72.500
;
#STOPS:35.000=0.069
,35.333=0.069
,37.000=0.069
,37.333=0.069
,37.667=0.069
,45.000=0.069
,45.333=0.069
,45.667=0.069
,47.000=0.069
,47.333=0.069
,47.667=0.069
,50.000=0.207
,51.000=0.207
,70.000=0.069
,70.333=0.069
,70.667=0.069
,79.000=0.069
,79.333=0.069
,79.667=0.069
,88.000=0.069
,88.333=0.069
,88.667=0.069
,92.000=0.069
,92.333=0.069
,92.667=0.069
,93.000=0.069
,93.333=0.069
,93.667=0.069
,94.000=0.103
,116.000=0.069
,116.333=0.069
,116.667=0.069
,122.000=0.069
,122.333=0.069
,122.667=0.069
,137.000=1.241
,143.000=0.069
,143.333=0.069
,143.667=0.069
,146.000=0.069
,146.333=0.069
,146.667=0.069
,152.000=0.069
,152.333=0.069
,152.667=0.069
,168.000=0.069
,168.333=0.034
,168.667=0.034
,169.333=0.069
,169.667=0.069
,170.000=0.069
,170.333=0.069
,170.667=0.069
,171.000=0.069
,171.333=0.069
,171.667=0.069
,176.000=0.069
,176.333=0.069
,176.667=0.069
,177.000=0.207
,177.500=0.207
,195.000=0.069
,195.333=0.069
,195.667=0.069
,198.000=0.207
,199.000=0.069
,199.333=0.069
,199.667=0.069
,200.000=0.069
,200.333=0.069
,200.667=0.069
,201.000=0.069
,201.333=0.069
,201.667=0.069
,203.500=0.069
,203.667=0.069
,203.833=0.069
,206.000=0.069
,206.333=0.069
,206.667=0.069
,210.000=0.207
,210.500=0.207
,223.000=0.069
,223.333=0.069
,223.667=0.069
,225.000=0.207
,226.000=0.069
,226.333=0.069
,226.667=0.069
,227.000=0.069
,227.333=0.069
,227.667=0.069
,228.000=0.069
,228.333=0.069
,228.667=0.069
,230.000=0.069
,230.333=0.069
,230.667=0.069
,231.000=0.069
,231.333=0.069
,231.667=0.069
,233.000=0.069
,233.333=0.069
,233.667=0.069
,234.000=0.207
,234.500=0.207
,257.000=0.069
,257.333=0.069
,257.667=0.069
,264.000=0.069
,264.333=0.069
,264.667=0.069
,278.000=1.241
,283.000=0.069
,283.333=0.069
,283.667=0.069
,286.000=0.069
,286.333=0.069
,286.667=0.069
,287.000=0.069
,287.167=0.069
,287.333=0.069
,287.500=0.069
,287.667=0.069
,287.833=0.069
,288.000=0.207
,288.500=0.207
,290.000=0.069
,290.333=0.069
,290.667=0.069
,305.000=0.207
,306.000=0.069
,306.333=0.069
,306.667=0.069
,307.000=0.069
,307.333=0.069
,307.667=0.069
,308.000=0.069
,308.333=0.069
,308.667=0.069
,315.000=0.069
,315.333=0.069
,315.667=0.069
,318.000=0.207
,318.500=0.207
,330.000=0.207
,331.000=0.207
,332.000=0.207
,333.000=0.069
,333.333=0.069
,333.667=0.069
,335.000=0.207
,336.000=0.069
,336.333=0.069
,336.667=0.069
,337.000=0.069
,337.333=0.069
,337.667=0.069
,338.000=0.069
,338.333=0.069
,338.667=0.069
,340.500=0.069
,340.667=0.069
,340.833=0.069
,345.000=0.069
,345.333=0.069
,345.667=0.069
,346.000=0.172
,346.500=0.207
,347.000=0.138
,347.333=0.138
,347.667=0.138
;
#BGCHANGES:;
#FGCHANGES:;

//--------------- dance-single - Blood4Fame ----------------
#NOTES:
     dance-single:
     Blood4Fame:
     Easy:
     4:
     0,0,0,0,0:
1000
0000
1100
0000
,
0001
0000
0101
0000
,
1000
0000
1100
0000
,
0001
0000
0101
0000
,
1000
0000
1100
0000
,
0001
0000
0101
0000
,
1000
0000
1010
0000
,
0001
0000
0011
0000
,
1000
1000
0001
0000
,
0100
0100
0010
0000
,
1000
1000
0100
0000
,
0001
0001
0100
0000
,
0010
0010
1000
0000
,
0100
0100
0001
0000
,
0010
0010
1000
0000
,
0100
0100
0001
0010
,
0100
0100
0010
0000
,
1000
1000
0001
0000
,
0100
0100
0010
0000
,
1000
1000
0100
0000
,
0001
0001
0010
0000
,
0010
0010
0100
0000
,
0100
0100
1000
0000
,
1000
1000
0001
1000
,
0010
0010
0100
0000
0000
0000
0000
0000
,
0001
0100
0010
0000
0000
0000
0000
0000
,
1000
0010
0100
0000
0000
0000
0000
0000
,
0001
1000
0100
0000
0000
0000
0000
0000
,
0100
0000
0001
0100
,
0000
1000
0001
0000
,
0010
0100
0000
0010
,
0000
1000
0000
0001
,
0000
0010
0000
0100
,
0000
0001
0000
1000
,
0000
1100
0001
0000
,
0001
0000
0200
0000
0000
0300
0000
0000
,
0200
0000
0000
0000
0300
0000
0002
0003
,
0010
0010
2000
0000
,
3000
2000
0000
0000
,
3000
0002
0000
0000
,
0000
0000
0000
0003
,
0000
0020
0000
0030
,
0200
0000
0000
0000
0000
0000
0000
0300
,
2000
3010
0100
0010
,
0000
0000
1000
1000
0200
0000
1300
0000
,
0000
0000
0001
0000
,
0010
0000
0100
0001
,
2000
3020
0000
0000
,
0030
0000
0001
0000
0100
0010
2000
0000
,
3002
0000
0000
0003
0020
0000
0000
0000
,
0000
0000
0000
0000
0100
0030
0000
0000
,
2000
0000
0000
0000
0000
3000
1000
1000
,
0001
0000
0010
0100
,
0000
0010
0000
0100
,
0000
0001
1000
0000
,
0000
0010
0000
0000
0000
0100
0000
0000
,
0001
0100
0100
0100
,
0100
0100
0001
0000
,
0010
0000
0100
0001
,
0000
0000
1000
0100
0100
0000
0000
0000
,
0000
0000
0010
0001
0100
0000
0000
0000
,
0000
0000
0010
1000
0100
0000
0000
0000
,
0000
0000
0010
0001
0100
0000
0000
0000
,
0000
0000
1000
0000
0000
0000
0002
0003
,
1000
0000
0000
0000
0020
0000
0000
0030
,
1000
0200
0300
2000
,
0000
3000
0020
0030
0100
0000
0000
0000
,
0010
0000
1000
0000
,
0001
0000
0100
0000
,
0010
0000
1001
0100
,
0000
0020
0000
0030
,
0020
0000
0030
0002
,
1003
2000
3000
0200
,
0000
0000
0300
0020
,
0000
0000
0000
0000
,
0000
0000
0030
0001
,
0000
0020
0000
0000
,
0000
0000
0230
0300
0001
0000
2000
0000
,
0000
0000
0000
0000
,
3200
0000
0322
0133
,
0000
0010
0000
1000
,
0000
2020
3130
0000
,
0000
0000
0001
0000
,
0100
0000
0010
2000
,
0000
0000
0000
3000
,
0000
0002
0000
0003
0000
0000
0000
0000
,
0000
0000
0010
0200
,
0000
0300
0000
0000
0000
0000
0000
0000
;

//--------------- dance-single - Blood4Fame ----------------
#NOTES:
     dance-single:
     Blood4Fame:
     Medium:
     7:
     0,0,0,0,0:
0000
0000
0000
0000
,
0000
0000
0000
0000
,
0000
0000
0000
0000
,
0000
0000
0000
0000
,
0000
0000
0000
0000
,
0000
0000
0000
0000
,
0000
0000
0000
0000
,
0000
0000
0000
0000
,
1000
0000
0001
0010
0000
0000
0200
0000
0000
0000
0000
0000
,
1300
0000
0000
1000
0000
0001
0200
0000
0000
0000
0000
0300
,
0100
0000
0010
1000
0000
0000
0200
0000
0000
0000
0000
0310
,
0001
0000
0000
2000
0000
0000
3010
0000
0100
0020
0000
0000
,
1030
0000
0001
0010
0000
0000
0200
0000
0000
0300
0000
0000
,
0010
0000
0000
0100
0000
1000
0200
0000
0000
0300
0000
1000
,
0020
0000
0000
0000
0000
0030
0200
0000
0000
0000
0000
0301
,
0100
0000
0010
0000
1000
0000
0100
0000
0010
0000
0001
0000
,
0100
0000
0000
0000
0100
0000
0010
0000
0000
0000
0000
0000
2000
0000
0000
0000
0000
0000
0000
3000
0000
0000
0001
0000
,
1000
0000
0010
0000
0000
1000
0200
0000
0000
0310
0000
0000
,
0010
0000
0001
0100
0000
0000
0020
0000
0000
0030
0000
0100
,
0010
0000
0100
0000
0001
0000
0100
0000
0010
2000
0000
0000
,
3100
0000
1000
0100
0000
0000
0010
0000
0000
0020
0030
0000
,
0000
0000
0000
0001
0000
0100
0010
0000
0000
0000
1000
0000
,
0200
0000
0000
0000
0000
0000
2000
0000
0000
0000
0000
3300
,
0002
0000
0103
0000
,
0001
0000
0000
1000
0000
0000
0100
0000
0000
1000
0000
0001
0010
0000
0000
0010
0000
0000
0020
0000
0000
0000
0031
0000
,
1000
0000
0000
0100
0000
0000
1000
0000
0000
0001
0000
0100
0001
0000
0000
0001
0000
0100
0010
0000
1000
0100
0000
0100
,
0010
0000
0010
0001
0000
0000
0100
0000
0000
0001
0000
0000
1000
0000
0000
0001
0000
0010
0001
0000
0000
0000
0010
0000
,
0200
0000
0000
0000
2300
0000
0000
0000
0000
0000
3100
0000
0010
0000
0000
0001
0000
0000
0001
0000
1000
0000
0100
0000
,
0010
0001
0202
0303
,
2000
0000
0000
3020
0000
0030
0100
0000
0100
0010
0000
0000
,
2020
0000
0000
3030
0000
0000
0020
0000
0000
0130
0000
0001
,
0010
0001
1100
1001
,
1001
0000
0200
0300
0110
0000
0101
0000
,
0001
0011
0101
1010
,
0110
0000
1001
0000
2200
0000
0000
3000
,
2000
0000
0000
3300
0000
0000
0022
0000
0000
0000
0000
0000
0000
0000
0000
0000
0000
0000
0000
0000
0000
0000
0033
0000
,
0220
0000
0000
0000
0000
0000
0000
0000
0330
2000
0000
0000
,
3200
0000
2000
0300
3002
0000
0000
0000
,
0000
0000
0003
0020
0000
0000
0000
0000
0000
0000
0000
0000
,
0000
0002
0000
0000
,
0000
0000
0000
0000
,
0000
0000
0033
0000
0202
0000
0000
0303
,
0220
0000
0000
0000
0000
0000
0000
0000
0000
0000
0000
0330
,
0002
1003
1100
2200
,
0000
0000
0000
0000
3300
0000
0002
0000
0000
0023
0000
0000
0230
0000
0000
0000
0000
0000
2300
0000
0000
0000
0000
0000
,
0000
3200
0310
0001
,
0100
0000
0010
0000
2000
0000
3002
0003
,
0022
0033
0000
0200
0000
0300
2002
0000
0000
0000
0000
0000
0000
0000
0000
0000
0000
0000
0000
0000
0000
0000
0000
0000
,
0000
0000
0000
3003
0000
0000
1010
0000
0000
0000
0000
0000
1100
0000
0000
0011
0000
0000
1020
0000
0000
0000
0030
0000
,
0200
0000
2302
0000
,
0000
0000
0000
0000
0000
0000
0000
0000
0000
0000
3003
0000
0200
0000
0000
0000
0300
0000
0021
0000
0000
0031
0000
0000
,
0002
0000
0100
0000
0000
0000
0103
1010
,
1000
0000
0000
0000
0010
0000
0100
0000
0000
0000
0000
0000
0020
0000
0000
0130
0000
0000
0110
0000
0000
0000
0000
0000
,
0001
0000
0001
0100
0000
0100
0001
0000
0001
2000
0000
0000
,
0002
0000
0000
0000
0000
3003
2200
0000
0000
0000
0000
3300
0022
0000
0000
0000
0000
0000
0000
0000
0000
0033
0000
0000
,
0200
0000
0000
0000
0000
0000
0000
0000
0000
0300
0000
0000
0020
0000
0000
2030
0000
0000
0020
0000
0000
0000
3030
0000
,
0200
0300
0202
0000
0000
0000
0000
0000
,
0000
0000
0000
0000
0303
0000
0002
0000
0000
0020
0000
0033
2200
0000
0000
0000
0000
0000
0000
0000
0000
0000
3300
0000
,
0020
0000
0000
0000
0000
0000
0002
0000
0000
0000
0033
0000
0200
0000
0000
0002
0000
0303
1000
0000
0000
0000
0010
0000
,
0100
0000
0000
0000
0000
0000
1000
0000
0000
0001
0000
0000
0100
0000
0000
0001
0000
1000
0010
0000
0000
0010
0000
0000
,
0020
0000
0000
0000
1030
0000
0001
0000
0000
0100
0000
0000
0010
0000
0000
1000
0000
0100
1000
0000
0000
1000
0000
0100
,
0010
0000
0000
0100
0000
0010
0001
0000
0000
1000
0000
0000
0100
0000
0000
0001
0000
0000
1000
0000
0000
1000
0000
0010
,
1000
0000
0001
0000
0010
0000
0200
0000
0000
0000
2300
0000
0000
0000
0000
0000
3100
0000
0010
0000
0000
0001
0000
0000
,
1000
0001
0100
0010
0000
0000
1000
0000
0000
2200
0000
3300
,
1000
0000
0000
2000
0000
0000
3020
0000
0030
0100
0000
0100
,
0010
0000
0000
0001
0000
0000
0010
0000
0000
0000
0000
0000
0001
0000
0000
0000
0001
0000
0010
0000
0000
0000
0000
0000
,
0020
0000
0030
0010
0000
0000
0001
0000
0000
0101
0000
0000
,
1001
0000
0000
1001
0000
0000
0210
0000
0000
0310
0000
0100
,
0010
0000
0000
1000
0000
0010
1000
0000
0000
0001
0000
0000
,
0011
0000
0010
0100
0000
0000
1001
0000
0000
2200
0000
3000
,
2000
0000
0000
3300
0000
0000
2002
0000
0000
0000
0000
0000
0000
0000
0000
0003
0000
0000
3002
0000
0000
0000
0003
0000
,
0020
0000
0000
0000
0000
0000
0000
0000
0000
0000
0000
0000
0032
0000
0000
0000
0003
0000
0002
0000
0003
0100
0000
0000
,
0020
0000
0000
0230
0000
0300
1010
0000
0000
0000
0000
0000
2000
0000
0000
0000
3000
0000
0200
0000
0000
0000
0000
0000
,
0000
0000
0000
0020
,
0000
0000
0000
0000
,
0000
0000
0330
2000
,
0000
3000
2002
0000
0000
0000
0000
0000
,
0000
0000
0000
0000
3003
0000
0020
0000
0000
0200
0000
0330
0020
0000
0000
0000
0000
0000
2000
0000
0000
0000
0000
0000
,
0000
0000
0000
0000
0000
0000
0000
0000
0000
0000
3030
0000
,
0020
2030
3200
0300
1100
1001
1010
0000
,
0001
0000
0010
0100
0000
0010
0001
0000
0100
0020
0000
0000
,
2000
0000
0000
0000
3030
0000
0002
0000
0000
0200
0000
0303
2020
0000
0000
0000
0000
0000
0000
0000
0000
0000
0000
0000
,
0000
0000
0000
3030
1001
0000
1100
0000
,
0011
0000
0000
0022
0000
0033
2200
0000
0000
0000
0000
0000
,
0000
0000
0000
0000
0000
0000
0000
0000
0000
0000
0000
0000
0000
0000
0000
0000
0000
3300
2000
0000
0000
0000
0000
0000
,
3002
0103
0200
0000
0000
0000
0000
0000
,
0000
0000
0000
0000
0000
0000
0000
0000
0000
0000
0000
0000
0320
0000
0000
0000
0000
0030
2002
0000
0000
0000
0000
0000
,
0000
3003
0000
0000
0000
0000
0000
0000
0000
0000
0000
0000
0000
0000
0000
0000
0000
0000
0000
0000
0000
0000
0000
0000
;

//--------------- dance-single - Blood4Fame ----------------
#NOTES:
     dance-single:
     Blood4Fame:
     Hard:
     10:
     0,0,0,0,0:
0000
0000
0000
0000
,
0000
0000
0000
0000
,
0000
0000
0000
0000
,
0000
0000
0000
0000
,
0000
0000
0000
0000
,
0000
0000
0000
0000
,
0000
0000
0000
0000
,
0000
0000
0000
0000
,
1000
0000
0001
0010
0000
0000
0100
0000
0000
0000
0000
0010
,
0001
0000
0000
1000
0000
0001
0200
0000
0000
0000
0000
0300
,
0100
0000
0010
1000
0000
0000
0200
0000
0000
0000
0000
0310
,
0001
0000
0000
2000
0000
0000
3010
0000
0100
0010
0000
0100
,
0001
0000
0001
0010
0000
0000
0100
0000
0000
0100
0000
0000
,
0010
0000
0000
0100
0000
1000
0200
0000
0000
0300
0010
0001
,
0020
0000
0000
0000
0000
0030
0100
0000
0000
1000
0000
0001
,
0100
0000
0010
0000
1000
0000
0100
0000
0010
0000
0001
0000
,
0100
0000
0000
0000
0100
0000
0010
0000
0000
0000
0000
0000
2000
0000
0000
0000
0000
0000
0000
3000
0000
0000
0001
0000
,
1000
0000
0010
0000
0000
1000
0200
0000
0000
0310
0000
0001
,
0010
0000
0010
0100
0000
0000
2000
0000
0000
3001
0000
0100
,
0010
0000
0100
0000
0001
0000
0100
0000
0010
1000
0000
0010
,
0100
0000
0001
0100
0000
0000
0010
0000
0000
0020
0030
0000
,
0000
0000
0000
1000
0000
0100
0010
0000
0000
0000
0001
0010
,
0200
0000
0000
0000
0000
0000
2000
0000
0000
0000
0000
3300
,
0001
0000
0010
0000
0001
0000
0100
0000
0000
0000
0000
0000
,
0001
0000
0000
1000
0000
0000
1100
0000
0000
1000
0000
0001
0010
0000
0000
0010
0000
0000
0020
0000
0000
0000
0031
0000
,
1001
0000
0000
0100
0000
0000
0101
0000
0000
0001
0000
0100
0001
0000
0000
0001
0000
0100
0010
0000
1000
0100
0000
0100
,
0010
0000
0010
0001
0000
0000
0100
0000
0000
1010
0000
0000
0011
0000
0000
0001
0000
0010
1000
0000
0000
0000
0010
0000
,
0200
0000
0000
0000
0302
0000
0000
0000
0000
0000
0103
0000
0010
0000
0000
1000
0000
0000
0001
0000
1000
0000
0100
0000
,
0010
0000
0000
0000
0000
0000
0001
0000
0000
0000
0000
0000
0101
0000
0000
0001
0000
0010
0100
0000
0000
0000
0000
0000
,
2000
0000
0000
3020
0000
0030
0100
0000
0100
0010
0000
0000
,
1000
0000
0000
0000
0000
0100
0010
0000
0000
0000
0000
0000
0010
0000
0000
0000
0100
0000
0010
0000
0000
0000
0001
0000
,
0010
0000
0001
1000
0000
0000
1100
0000
0000
1001
0000
0000
,
1001
0000
1000
0200
0000
0000
0310
0000
0001
0100
0000
0000
,
0001
0000
0010
0001
0000
0100
0001
0000
0000
1010
0000
0000
,
0110
0000
1001
0000
2200
0000
0000
3000
,
2000
0000
0000
3300
0000
0000
0022
0000
0000
0000
0000
0000
0000
0000
0000
0003
0000
0000
0031
0000
0010
0000
0001
0000
,
0020
0000
0000
0000
0000
0000
0130
0010
0100
2000
0000
0000
,
3200
0000
2000
0300
3002
0000
0000
0003
,
0001
1000
0001
0020
0000
0000
0000
0000
0000
0000
0000
0000
,
0000
0002
0000
0000
,
0000
0000
0000
0000
,
0000
0000
0033
0000
0202
0000
0000
0303
,
0020
0000
0000
0030
0010
0100
0010
0100
0010
0100
0010
0100
,
0002
0000
0000
0000
0000
0000
1003
0000
0000
0000
0000
0000
1100
0000
0000
0000
0000
0000
2200
0000
0000
0000
0000
3300
,
1000
0000
0100
0000
1000
0000
0002
0000
0000
0023
0000
0000
0230
0000
0000
0000
0000
0000
2300
0000
0000
0000
0000
0000
,
0000
0000
0000
3200
0000
0000
0310
0000
0000
0001
0000
0100
,
0010
0000
0000
0000
0010
0000
1000
0000
0000
0000
0100
0000
0020
0000
0000
0000
0000
0000
0002
0000
0000
0033
0000
0000
,
0022
0033
0000
0200
0000
0300
2002
0000
0000
0000
0000
0000
0000
0000
0000
0000
0000
0000
0000
0000
0000
0000
0000
0000
,
0000
0000
0000
3003
0000
0000
1010
0000
0000
0000
0000
0000
1100
0000
0000
0011
0000
0000
1020
0000
0000
0000
0030
0000
,
0200
0000
0000
0000
0000
0000
0302
0000
0000
1003
0001
1000
,
0001
0000
1000
0000
0001
0000
1000
0000
0001
0000
1000
0000
0200
0000
0000
0000
0300
0000
0021
0000
0000
0031
0000
0010
,
0002
0000
0100
0000
0000
0000
0103
1010
,
1000
0000
0000
0000
0010
0000
0100
0000
0000
0000
0001
0000
0020
0000
0000
0130
0000
0000
0110
0000
0000
0000
0000
0000
,
0001
0000
0001
0100
0000
0100
0001
0000
0001
2000
0000
0000
,
0002
0000
0000
0000
0000
3003
2200
0300
3200
2000
0000
3300
0022
0000
0000
0000
0000
0000
0000
0000
0000
0033
0000
0000
,
0200
0000
0000
0000
0000
0000
0000
0000
0000
0300
0000
0000
0020
0000
0000
2030
0000
3000
0020
0000
0000
0000
0030
0000
,
0200
0000
0000
0302
0000
0000
0103
0001
0100
0001
0100
0001
,
0100
0000
0001
0000
0100
0000
0002
0000
0000
0020
0000
0033
2200
0000
0000
0000
0000
0000
0000
0000
0000
0000
3300
0000
,
0020
0000
0000
0000
0000
0000
0002
0000
0000
0000
0033
0000
0200
0000
0000
0002
0000
0303
1000
0000
0000
0000
0010
0000
,
0100
0000
0000
0000
0001
0000
1000
0000
0000
0001
0000
0000
0101
0000
0000
0001
0000
1000
0010
0000
0000
0010
0000
0000
,
0020
0000
0000
0000
1030
0000
1001
0000
0000
0100
0000
0000
1100
0000
0000
1000
0000
0100
1000
0000
0000
1000
0000
0100
,
0010
0000
0000
0100
0000
0010
0001
0000
0000
1000
0000
0000
0100
0000
0000
0011
0000
0000
1010
0000
0000
1000
0000
0010
,
1000
0000
0001
0000
0010
0000
0200
0000
0000
0000
2300
0000
0000
0000
0000
0000
3100
0000
0010
0000
0000
0001
0000
0000
,
1000
0000
0001
0000
0100
0000
0010
0000
0000
0000
0010
0000
1000
0000
0000
0000
0000
0000
1100
0000
0000
1000
0000
0010
,
1000
0000
0000
2000
0000
0000
3020
0000
0030
0100
0000
0100
,
0010
0000
1000
0001
0000
0000
0010
0000
0000
0000
0000
0000
0001
0000
0000
0000
0001
0000
0010
0000
0000
0000
0000
0000
,
0010
0000
0001
0010
0000
0000
0001
0000
0000
0101
0000
0000
,
1001
0000
0000
1001
0000
0001
0200
0000
0000
0310
0000
0100
,
0010
0000
0000
1000
0000
0010
1000
0000
0000
0001
0000
0000
,
0011
0000
0010
0100
0000
0000
1001
0000
0000
2200
0000
3000
,
2000
0000
0000
3300
0000
0000
2002
0000
0000
0000
0000
0000
0000
0000
0000
0003
0000
0000
3001
0000
0000
0000
0001
0000
,
0020
0000
0000
0000
0000
0000
0000
0000
0000
0000
0000
0000
0031
0000
0000
0000
0010
0000
0002
0000
0003
0100
0000
0000
,
0020
0000
0000
0230
0000
0300
1010
0000
0000
0000
0000
0000
1000
0000
0000
0000
0010
0000
0200
0000
0000
0000
0000
0000
,
0000
0000
0000
0020
,
0000
0000
0000
0000
,
0000
0000
0330
2000
,
0000
0000
0000
3002
0000
0000
1003
0001
1000
0001
1000
0001
,
1000
0000
0001
0000
1000
0000
0020
0000
0000
0200
0000
0330
0020
0000
0000
0000
0000
0000
2000
0000
0000
0000
0000
0000
,
0000
0000
0000
0000
0000
0000
0000
0000
0000
0000
3030
0000
,
0020
2030
3200
0300
1100
1001
1010
0000
,
0001
0000
0010
0100
0000
0010
0001
0000
0100
0020
0000
0000
,
2000
0000
0000
0000
3030
0000
0002
0000
0000
0200
0000
0303
2020
0000
0000
0000
0000
0000
0000
0000
0000
0000
0000
0000
,
0000
0000
0000
3030
1001
0000
1100
0000
,
0011
0000
0000
0010
0001
0010
0200
0000
0000
2300
0000
0000
,
3100
1000
0100
1000
0100
1000
0100
1000
0100
2000
0000
0000
,
3002
0000
0000
0103
0000
0010
0200
0000
0000
0000
0000
0000
0000
0000
0000
0000
0000
0000
0000
0000
0000
0000
0000
0000
,
0000
0000
0000
0000
0000
0000
0000
0000
0000
0000
0000
0000
0320
0000
0000
0000
0000
0030
2002
0000
0000
0000
0000
0000
,
0000
3003
0000
0000
0000
0000
0000
0000
0000
0000
0000
0000
0000
0000
0000
0000
0000
0000
0000
0000
0000
0000
0000
0000
;

//--------------- dance-single - Blood4Fame ----------------
#NOTES:
     dance-single:
     Blood4Fame:
     Challenge:
     12:
     0,0,0,0,0:
0000
0000
0000
0000
,
0000
0000
0000
0000
,
0000
0000
0000
0000
,
0000
0000
0000
0000
,
0000
0000
0000
0000
,
0000
0000
0000
0000
,
0000
0000
0000
0000
,
0000
0000
0000
0000
,
1000
0000
0001
0010
0000
0000
0001
0000
0000
0001
0100
0010
,
1000
0000
0000
0001
0010
0001
0200
0000
0000
0000
0000
0301
,
0100
0000
0010
1000
0000
0000
0200
0000
0000
0000
0000
0310
,
0001
0000
0001
2000
0000
0000
3010
0000
0100
0010
1000
0100
,
0001
0000
0001
0100
0000
0000
0010
0000
0000
0010
0000
0000
,
0010
0000
0000
0100
0010
1000
0200
0000
0000
0300
0010
0001
,
0020
0000
0000
0000
0000
0031
0100
0000
0000
0001
0000
1000
,
0100
0000
0010
0000
0001
0000
0100
0000
0010
0000
1000
0000
,
0100
0000
0100
0010
0000
0000
0002
0000
0000
0000
0000
1003
,
0001
0000
0010
0000
0000
0001
0200
0000
0000
0310
0000
1000
,
0010
0000
0010
0100
0000
0000
0002
0000
0000
1003
0000
0100
,
0010
0000
0100
0000
1000
0000
0100
0000
0010
0001
0100
0010
,
1000
0000
1000
0100
0000
0000
0010
0000
0000
0020
0030
0000
,
0000
0000
0000
0001
0000
0100
0010
0000
0000
0000
1000
0010
,
0200
0000
0000
0000
0000
0000
0002
0000
0000
0000
0000
0303
,
0001
0000
0000
0000
0010
0000
0000
0000
0001
0000
0000
0000
0100
0000
0000
0200
0000
0000
0000
0000
0000
0000
0300
0000
,
0001
0000
0001
1000
0000
0000
1100
0000
0000
1000
0000
0001
0010
0000
0000
0010
0000
0000
0020
0000
0000
0000
0031
0000
,
1001
0000
0010
0100
0000
0000
0101
0000
0000
0001
0000
0100
0001
0000
0000
0001
0000
0100
0010
0000
1000
0100
1000
0100
,
0010
0000
0010
0001
0000
0000
0100
0000
0000
1010
0000
0000
0011
0000
0000
0001
0100
0010
1000
0000
1000
0000
0010
0000
,
0200
0000
0000
0000
0302
0000
0000
0000
0000
0000
0103
0000
0010
0000
0000
1000
0000
0000
0001
0000
1000
0000
0100
0000
,
0010
0000
0000
0000
0010
0000
0001
0000
0000
0000
0000
0000
0101
0000
0000
0001
0100
0010
1000
0000
0000
0000
0000
0000
,
0002
0000
0000
0023
0000
0031
0100
0000
0100
0010
0000
0000
,
1000
0000
0000
1000
0100
0010
0001
0000
0000
0000
1000
0000
0010
0000
0000
0000
0100
0000
0010
0000
0000
0000
1000
0000
,
0010
0100
0001
1000
0000
0000
1100
0000
0000
1001
0000
0000
,
1001
0000
1000
0200
0000
0000
0310
0001
0100
0010
0000
0000
,
1000
0100
0010
0001
0000
0001
1000
0000
0000
1010
0000
0100
,
0010
0000
1001
0000
2200
0000
0000
3000
,
2000
0000
0000
3300
0000
0000
0022
0000
0000
0000
0000
0000
0000
0000
0000
0003
0000
0000
0031
0000
0010
0000
0001
0000
,
0020
0000
0000
0000
0000
0000
0130
0010
0100
2000
0000
0000
,
3200
0000
2000
0300
3002
0000
0000
0003
,
0001
1000
0001
0020
0000
0000
0000
0000
0000
0000
0000
0000
,
0000
0002
0000
0000
,
0000
0000
0000
0000
,
0000
0000
0033
0000
0202
0000
0000
0303
,
0020
0000
0000
0030
0010
0100
0010
0100
0010
0100
0010
0100
,
0002
0000
0000
0000
0000
0000
1003
0000
0000
0000
0000
0000
1100
0000
0000
0000
0000
0000
2200
0000
0000
0000
0000
3300
,
1000
0000
0100
0000
1000
0000
0002
0000
0000
0023
0000
0000
0230
0000
0000
0000
0000
0000
2300
0000
0000
0000
0000
0000
,
0000
0000
0000
3200
0000
0000
0310
0000
0000
0001
0010
0100
,
0010
0000
0001
0000
0100
0000
0010
0000
1000
0000
0100
0000
0020
0000
0000
0000
0000
0000
0002
0000
0000
0033
0000
0000
,
0022
0033
0002
0200
0000
0303
2002
0000
0000
0000
0000
0000
0000
0000
0000
0000
0000
0000
0000
0000
0000
0000
0000
0000
,
0000
0000
0000
3003
0000
0000
1010
0000
0000
0000
0000
0000
1100
0000
0000
0011
0000
0000
1010
0000
0010
0000
0010
0000
,
0200
0000
0000
0000
0000
0000
0302
0000
0000
1003
0001
1000
,
0001
0000
1000
0000
0001
0000
1000
0000
0001
0000
1000
0000
0200
0000
0000
0000
0300
0000
0021
0000
0000
0031
0100
0010
,
2000
0000
0010
0000
0000
0000
3100
1100
,
1000
0000
0000
0000
0010
0000
0100
0000
0000
0000
0001
0000
0020
0000
0000
0130
0000
0000
0110
0000
0000
0000
0000
0000
,
0001
1000
0001
0100
0010
0100
0001
0010
0100
2000
0000
0000
,
0002
0000
0000
0000
0000
3003
2200
0300
3200
2000
0000
3300
0022
0000
0000
0000
0000
0000
0000
0000
0000
0033
0000
0000
,
0202
0000
0000
0000
0000
0000
0000
0000
0000
0303
0000
0000
0021
0000
0000
0032
0000
0003
1010
0000
0010
0000
0010
0000
,
0200
0000
0000
0302
0000
0000
0103
0001
0100
0001
0100
0001
,
0100
0000
0001
0000
0100
0000
0002
0000
0000
0020
0000
0033
1000
0000
0100
0000
1000
0000
0100
0000
1000
0000
0100
0000
,
0020
0000
0000
0000
0000
0000
0031
0000
0010
0000
0001
0000
0200
0000
0000
0002
0000
0303
1000
0000
0000
0000
0010
0000
,
0100
0000
0000
0000
0001
0000
1000
0000
1000
0001
0000
0000
0101
0000
0000
0001
0000
1000
0010
0000
0000
0010
0000
0000
,
0020
0000
0000
0000
1030
0000
1001
0000
0010
0100
0000
0000
1100
0000
0000
1000
0000
0100
1000
0000
0000
1000
0000
0100
,
0010
0000
0001
0100
0001
0100
0010
0000
0010
1000
0000
0000
0100
0000
0000
0011
0000
0000
1010
0000
0000
1000
0100
0010
,
0001
0000
0001
0000
0010
0000
0200
0000
0000
0000
2300
0000
0000
0000
0000
0000
3100
0000
0010
0000
0000
0001
0000
0000
,
1000
0000
0001
0000
0100
0000
0010
0000
0000
0000
0010
0000
1000
0000
0000
0000
0000
0000
1100
0000
0000
1000
0100
0010
,
0001
0000
0000
2000
0000
0000
3020
0000
1030
0100
0000
0100
,
0010
0000
1000
0001
0000
0000
0010
0000
0000
0000
0100
0000
1000
0000
0000
0000
0001
0000
0010
0000
0000
0000
0100
0000
,
0010
0000
0001
0010
0100
1000
0001
0000
0000
0101
0000
0000
,
1001
0000
0000
1001
0000
0001
0200
0000
0000
0310
1000
0100
,
0010
0000
0000
0001
0100
0010
1000
0000
1000
0001
0000
0000
,
0011
0000
0100
0010
0000
0000
1001
0000
0000
2200
0000
3000
,
2000
0000
0000
3300
0000
0000
2002
0000
0000
0000
0000
0000
0000
0000
0000
0003
0000
0000
3001
0000
0010
0000
0001
0000
,
0020
0000
0000
0000
0000
0000
0000
0000
0000
0000
0000
0000
0031
0000
0100
0000
0010
0000
1000
0001
0010
0100
0010
0001
,
0020
0000
0000
0230
0000
0300
0011
0000
0000
0000
0000
0000
0001
0000
0010
0000
0001
0000
0200
0000
0000
0000
0000
0000
,
0000
0000
0000
0020
,
0000
0000
0000
0000
,
0000
0000
0330
2000
,
0000
0000
0000
3002
0000
0000
1003
0001
1000
0001
1000
0001
,
1000
0000
0001
0000
1000
0000
0020
0000
0000
0200
0000
0330
0020
0000
0000
0000
0000
0000
2000
0000
0000
0000
0000
0000
,
0000
0000
0000
0000
0000
0000
0000
0000
0000
0000
0000
0000
0000
0000
0000
3000
0000
0000
1030
0000
0010
0000
0100
0000
,
0020
2030
3200
0300
1100
1001
1010
0000
,
0001
0100
0010
1000
0100
0010
0001
0010
0100
2000
0000
0000
,
0002
0000
0000
0003
0000
0000
3002
0000
0000
0200
0000
0303
2020
0000
0000
0000
0000
0000
0000
0000
0000
0000
0000
0000
,
0000
0000
0000
3030
1001
0000
1100
0000
,
0011
0000
0000
0010
0001
0010
0200
0000
0000
2300
0000
0000
,
3100
1000
0100
1000
0100
1000
0100
1000
0100
2000
0000
0000
,
3002
0000
0000
0103
0010
1000
0200
0000
0000
0000
0000
0000
0000
0000
0000
0000
0000
0000
0000
0000
0000
0000
0000
0000
,
0000
0000
0000
0000
0000
0000
0000
0000
0000
0000
0000
0000
0320
0000
0000
0002
0000
0033
2002
0000
0000
0000
0000
0000
,
0000
3003
0000
0000
0000
0000
0000
0000
0000
0000
0000
0000
;
