#TITLE:Finesse;
#SUBTITLE:(Remix) - Full Version;
#ARTIST:Bruno Mars feat. Cardi B;
#TITLETRANSLIT:;
#SUBTITLETRANSLIT:;
#ARTISTTRANSLIT:;
#GENRE:R&B;
#CREDIT:Blood4Fame;
#MUSIC:Finesse.mp3;
#BANNER:Banner.png;
#BACKGROUND:BG.png;
#CDTITLE:;
#SAMPLESTART:158.022;
#SAMPLELENGTH:22.918;
#SELECTABLE:YES;
#OFFSET:-0.305;
#BPMS:0.000=105.000
,116.000=210.000
,120.000=105.000
,148.000=210.000
,151.000=105.000
,152.000=52.500
,160.000=105.000
,204.000=210.000
,207.000=105.000
,236.000=210.000
,239.000=105.000
,240.000=52.500
,244.000=105.000
,264.000=420.000
,280.000=105.000
,308.000=210.000
,310.000=105.000
,310.500=210.000
,312.000=105.000
,340.000=210.000
,343.000=105.000
,371.000=210.000
,374.000=105.000
;
#STOPS:116.000=0.286
,117.000=0.143
,117.500=0.286
,118.500=0.143
,119.000=0.286
,148.000=0.286
,149.000=0.143
,149.500=0.286
,150.500=0.143
,204.000=0.286
,205.000=0.143
,205.500=0.143
,206.000=0.143
,206.500=0.143
,236.000=0.857
,308.000=0.286
,309.000=0.143
,309.500=0.143
,310.500=0.143
,311.000=0.286
,340.000=1.429
,371.000=0.286
,372.000=0.143
,372.500=0.286
,373.500=0.143
;
#DISPLAYBPM:52.000:105.000;
#BGCHANGES:-0.305=Finesse.avi=1.000=1=0=1===CrossFade==,
99999.000=-nosongbg-=1.000=0=0=0=StretchNoLoop====
;
#FGCHANGES:;

//--------------- dance-single - Blood4Fame ----------------
#NOTES:
     dance-single:
     Blood4Fame:
     Easy:
     4:
     0,0,0,0,0:
0110
0000
0010
0010
0000
0010
0010
0000
,
0110
0000
0010
0010
0000
0010
0010
0000
,
1000
0100
1000
0100
,
1000
0000
0000
0000
0000
0000
1000
0000
0000
0000
0000
1000
0000
0000
0000
0000
0000
0000
0000
0000
0000
1000
0000
0000
,
0100
0010
0001
0100
,
0010
0000
0100
0000
0000
0001
0001
0000
,
1100
0010
0100
0110
,
0100
0010
0100
0101
,
1000
0001
1000
0010
,
0110
0000
0010
0010
0000
0010
0010
0000
,
2002
0000
0000
3000
1003
0000
0010
0000
,
2002
0000
0000
0003
3001
0000
0010
0000
,
0110
1000
0110
1000
,
0010
0000
0010
0010
0000
0010
0000
0000
,
2100
0000
0100
0000
,
0001
0000
0001
0000
,
0100
0000
0000
0000
0100
0000
3000
0022
,
0000
0000
0000
0000
0003
0030
0100
0000
,
1100
0010
0100
0010
,
1100
0010
0100
0010
,
0011
0010
0010
0000
,
0011
0000
0010
0010
0000
0010
0010
0000
,
1001
0010
0010
0000
,
0011
0010
0010
0000
,
1010
0010
0010
0000
,
0022
0000
0000
0033
0010
0000
1000
0000
,
0220
0000
0000
0330
0202
0000
0000
0303
,
1010
1000
1000
0000
,
1001
0010
0100
0000
,
1001
0000
0010
0010
0000
0010
0010
0000
,
2100
0000
0100
3000
,
0100
0100
0010
0001
,
2100
0000
0000
0000
0100
0000
3000
0002
,
0000
0003
0001
0000
0010
0000
0002
0000
0003
0000
0000
0000
0100
0000
0000
0000
,
0012
0000
0010
0003
,
0010
0010
0100
1000
,
0012
0000
0000
0000
0010
0000
0103
2000
,
0000
3000
0000
0000
0100
0000
1000
0000
0000
0000
0001
0000
0010
0000
0000
0000
,
1002
1000
2103
0100
,
3120
0000
0000
0000
0100
0000
0000
0000
0130
0000
0000
0000
0000
0001
0001
0000
,
0100
0000
0100
0000
,
2200
0000
0000
3300
0010
0000
0000
0000
,
0010
0010
0010
0000
,
1001
0110
1001
0110
,
1001
0000
0100
0000
,
1100
0000
0100
0000
,
0101
0000
0100
0000
,
2200
0000
0000
3300
0100
0000
0001
0000
,
0220
0000
0000
0330
2020
0000
0000
3030
,
0101
0000
0001
0000
0200
0000
0000
0300
,
1001
0100
0010
0000
,
1001
0000
0100
0100
0000
0100
0100
0000
,
0012
0000
0010
0003
,
0000
0010
0100
1000
,
0012
0000
0000
0000
0010
0000
0103
2000
,
0000
3000
1000
0000
0100
0000
2000
0000
3000
0000
0000
0000
0010
0000
0000
0000
,
2100
0000
0100
3000
,
0000
0100
0010
0000
,
2100
0000
0100
3020
,
0031
0000
0000
0000
,
0002
0000
0000
0000
2000
0000
0000
3003
,
0011
0010
0100
0011
,
0020
0032
0023
0130
,
1001
0100
0100
0000
,
1010
0010
0010
0000
,
0022
0000
0000
0000
0033
0100
0020
0000
,
0000
0000
0000
0000
,
0000
0000
0000
0000
,
0000
0000
0000
0000
,
0000
0000
0000
0000
0000
0000
0000
0030
,
0010
0001
0100
0010
,
0110
0001
0001
0100
,
0011
1000
0100
0000
,
0200
0300
0002
0003
0200
0000
0320
0030
,
0020
0030
1000
0000
0100
0000
0010
0000
,
0011
0100
0100
0100
,
0020
0000
0000
0000
0000
0000
0000
0000
0000
0000
0000
0000
0000
0000
0000
0000
0000
0000
0000
0000
0000
0000
0000
0000
0032
0000
0000
0000
0000
0000
0000
0000
0000
0000
0000
0000
0000
0000
0000
0000
0000
0000
0000
0000
0000
0000
0000
0000
0000
0000
0000
0000
0000
0000
0000
0003
0000
0000
0000
0000
0000
0000
0000
0000
,
1001
0000
0100
0001
0000
0001
0100
0000
,
2000
0000
0010
0000
0000
0000
0010
3000
,
0000
0010
0010
0002
,
2003
0000
0100
0000
0000
0000
3100
0020
,
0000
0000
0031
0020
0000
0000
0031
0000
,
0100
0010
0010
1000
,
0010
0100
0100
1000
,
0010
0001
0010
0000
,
1001
0000
0000
0100
,
1000
0010
0100
0110
,
1000
1000
0100
1100
,
0001
0010
0001
1000
,
1000
0010
0100
0101
,
0010
0010
0001
1100
,
1000
0020
0030
0200
,
1000
0300
0010
0000
0000
0000
1001
0000
,
0010
0001
0000
0100
1000
0000
0000
0000
;

//--------------- dance-single - Blood4Fame ----------------
#NOTES:
     dance-single:
     Blood4Fame:
     Medium:
     5:
     0,0,0,0,0:
0110
0000
0000
0100
0010
0000
0010
0000
0000
0100
0010
0000
0010
0000
0000
0000
,
0110
0000
0000
0100
0010
0000
0010
0000
0000
0100
0010
0000
0110
0000
0000
0000
,
1000
1000
0100
0000
1000
0100
0100
0000
,
1000
0000
0000
0010
0000
0000
1000
0000
0010
0000
0000
1000
0000
0000
0000
0000
0000
0000
0000
0000
0000
1000
0000
0000
,
0100
0100
0010
0010
0001
0001
0100
0100
,
0010
1000
0100
0100
0000
0011
0011
0000
,
1100
0000
0010
0000
0100
0100
0110
0000
,
1100
0000
0010
0000
0100
0100
0101
0000
,
1000
0001
1000
0010
,
0110
0000
0010
0010
0000
0100
0010
0000
,
2002
0000
0000
3000
1003
0100
0010
0000
,
2002
0000
0000
0003
3001
0100
0010
0000
,
0110
0000
1000
0000
0010
1000
0000
1000
,
0010
0000
0000
0000
0010
0000
0010
0000
0000
0100
0010
0000
0000
0000
0000
0000
,
2100
0100
0100
0100
,
0001
0001
0001
0001
,
0100
0000
0100
0000
0100
0000
3100
0022
,
0000
0000
0000
0000
0003
0130
0100
0000
,
1100
0000
0010
0000
0100
0100
0010
0000
,
1100
0100
0010
0000
0100
0100
0010
0000
,
0011
0000
0010
0000
0010
0010
0000
0000
,
0011
0000
0011
0011
0000
0011
0011
0000
,
1001
0000
0010
0000
0010
0010
0000
0000
,
0011
0000
0010
0000
0010
0010
0000
1000
,
1010
0000
0010
0000
0010
0010
0000
0000
,
0022
0000
0000
0033
0010
0100
1000
0100
,
0220
0000
0000
0330
0202
0000
0000
0303
,
1010
0000
0000
0010
1000
0000
0010
0000
1000
0000
0200
0000
0000
0000
0300
0000
,
1001
0000
0010
0000
0100
0100
0000
0000
,
1001
0000
0010
0010
0000
0010
0010
0000
,
2100
0000
0000
0100
0100
0000
3000
0000
,
0000
0100
0001
0000
0100
0000
0010
0000
0010
0000
0000
0000
0001
0000
0010
0000
,
2100
0000
0000
0100
0100
0000
3010
0002
,
0000
0003
0001
0000
0010
0000
0002
0000
0003
0000
1000
0000
0100
0000
0010
0000
,
0012
0000
0000
0010
0010
0000
0003
0000
,
0000
0010
1000
0000
0010
0000
0100
0000
0100
0000
0000
0000
1000
0000
0100
0000
,
0012
0000
0000
0010
0010
0000
0103
2000
,
0000
3000
0000
0000
0100
0000
1000
0000
0000
0000
0001
0000
0010
0000
0000
0000
,
1002
1000
1000
1000
2103
0100
0100
0100
,
3120
0000
0100
0000
0100
0000
0100
0000
0130
0000
0000
0000
0000
0001
0001
0000
,
0100
0000
0000
0000
0000
0000
0000
1000
0100
0000
0100
0000
0000
0000
0000
0000
,
2200
0000
0000
3300
0010
0020
0030
0000
,
0010
0000
0000
0000
0010
0000
0000
0001
0010
0000
0010
0000
0000
0000
0000
0000
,
1001
0110
1001
0110
,
1001
0000
0100
0000
0100
0100
0000
0000
,
1100
0000
0100
0000
0100
0100
0000
0001
,
0101
0000
0100
0000
0100
0100
0000
0000
,
2200
0000
0000
3300
0100
0010
0001
0010
,
0220
0000
0000
0330
2020
0000
0000
3030
,
0101
0000
0001
0100
0200
0000
0000
0300
,
1001
0100
0010
0000
,
1001
0000
0100
0100
0000
1100
0101
0000
,
0012
0000
0000
0010
0010
0000
0003
0000
,
0000
1000
0010
0100
0100
0000
1000
0100
,
0012
0000
0000
0010
0010
0000
0103
2000
,
0000
3000
1000
0000
0100
0000
2000
0000
3000
0000
0001
0000
0010
0000
0100
0000
,
2100
0000
0000
0100
0100
0000
3000
0000
,
0000
0001
0100
0010
0010
0000
0001
0010
,
2100
0000
0000
0100
0100
0000
3020
0000
,
0031
0000
0000
0000
,
0002
0000
0000
0000
2000
0000
0000
3003
,
0011
0000
0010
0000
0100
0100
0011
0000
,
0020
0000
0032
0000
0023
0100
0130
0000
,
1001
0000
0100
0000
0100
0100
0000
0000
,
1010
0000
0010
0000
0010
0010
0000
0000
,
0022
0000
0000
0000
0033
0100
0020
0000
,
0000
0001
0000
0000
0000
0000
0000
0000
0000
0000
0000
0000
0000
0000
0000
0000
,
0001
0000
0000
0000
,
0000
0000
0000
0000
0000
0000
0000
0001
0000
0000
0000
0000
0000
0000
0000
0000
,
0001
0000
0000
0000
0000
0000
0000
0030
,
0010
0000
0001
1000
0100
0100
0010
0000
,
0110
0000
0001
1000
0001
0001
0100
0000
,
0011
0000
1000
0010
0100
0100
0000
0000
,
0200
0320
0032
2003
3200
0000
0320
0032
,
0023
0030
1000
0001
0100
0100
0010
0000
,
0011
0000
0010
0000
0100
0000
1000
0000
0100
0000
0000
0200
0000
0000
0310
0000
,
0020
0000
0000
0000
0000
0000
0000
0000
0000
0000
0000
0000
0000
0000
0000
0000
0000
0000
0000
0000
0000
0000
0000
0000
0032
0000
0000
0000
0000
0000
0000
0000
0000
0000
0000
0000
0000
0000
0000
0000
0000
0000
0000
0000
0000
0000
0000
0000
0000
0000
0000
0000
0000
0000
0000
0003
0000
0000
0000
0000
0000
0000
0000
0000
,
1001
0000
1100
1001
0000
0011
0101
0000
,
2000
0000
0010
0000
0000
0000
0010
3000
,
0000
0001
0010
0001
0010
0000
0002
0000
,
2003
0000
0100
0000
0000
0000
3100
0020
,
0000
0000
0031
0020
0000
0000
0031
0010
,
0100
0100
0010
0001
0010
0000
1000
0100
,
0010
0000
0100
0100
0100
0000
1000
0100
,
0010
0001
0010
0000
,
1001
0000
0000
0000
0000
0000
0100
0010
,
1000
0000
0010
0010
0100
0000
0110
0000
,
1000
0001
1000
1000
0100
0000
1100
0000
,
0001
0100
0010
0010
0001
0000
1000
1000
,
1000
0000
0010
0100
0100
0000
0101
0000
,
0010
0000
0010
0010
0001
0000
1100
0000
,
1000
0000
0001
0010
0000
0000
0020
0000
0000
0030
0100
0000
0200
0000
0000
0000
,
1000
0300
0010
0002
0003
0000
1001
0000
,
0110
1001
0000
0110
1001
0000
0000
0000
;

//--------------- dance-single - Blood4Fame ----------------
#NOTES:
     dance-single:
     Blood4Fame:
     Hard:
     6:
     0,0,0,0,0:
1001
0000
0000
0100
0010
0000
0010
0000
0000
0100
0010
0000
0010
0000
0000
0000
,
1001
0000
0000
0100
0010
0000
0010
0000
0000
0100
0010
0000
0011
0000
0000
0000
,
1000
1000
0100
0000
1000
0100
0100
0000
,
1000
0000
0000
0100
0000
0000
0010
0000
0000
0100
0000
0000
1000
0000
0000
0000
0010
0000
0000
0000
0000
0000
1000
0000
0000
0000
0000
0000
0000
0000
0000
0000
0000
0000
0000
0000
0000
0000
0000
0000
0000
0000
1000
0000
0000
0000
0000
0000
,
0100
0100
0010
0010
0001
0001
0100
0100
,
1010
1010
0100
0000
0000
0011
0011
0000
,
1100
0000
0010
0000
0100
0100
0110
0000
,
1100
0000
0010
0000
0100
0100
0101
0000
,
1000
0001
1000
0010
,
0110
0000
0010
0010
0000
0100
0010
0000
,
2002
0000
0000
3000
1003
0100
0010
0000
,
2002
0000
0000
0003
3001
0100
0010
0000
,
0110
0000
0000
0000
1000
0000
0000
0100
0010
0000
1000
0000
0000
0000
1000
0000
,
0010
0000
0000
0100
0010
0000
0010
0000
0000
0100
0010
0000
0000
0000
0000
0000
,
2100
0100
0100
0100
,
0001
0001
0001
0001
,
0100
0000
0100
0000
0100
0000
3100
0022
,
0000
0000
0000
0000
0003
0130
0100
0000
,
1100
0000
0000
0000
0010
0000
0000
1000
0100
0000
0100
0000
0010
0000
0000
0000
,
1100
0000
0100
0000
0010
0000
0000
1000
0100
0000
0100
0000
0010
0000
0000
0000
,
0011
0000
0000
0000
0010
0000
0000
0001
0010
0000
0010
0000
0000
0000
0000
0000
,
0011
0000
0011
0011
0000
0011
0011
0000
,
1001
0000
0000
0000
0010
0000
0000
0100
0010
0000
0010
0000
0000
0000
0000
0000
,
0011
0000
0000
0000
0010
0000
0000
0100
0010
0000
0010
0000
0000
0000
1000
0000
,
1010
0000
0000
0000
0010
0000
0000
0100
0010
0000
0010
0000
0000
0000
0000
0000
,
0022
0000
0000
0033
0020
0230
2300
3100
,
0220
0000
0000
0330
0202
0000
0000
0303
,
1020
0000
0030
0010
1000
0000
0010
0000
0020
0000
0200
0000
0000
0000
0330
0000
,
1001
0000
0000
0000
0010
0000
0000
1000
0100
0000
0100
0000
0000
0000
0000
0000
,
1001
0100
0010
0010
0001
0010
0010
0000
,
2200
0300
0000
0100
0100
0000
3000
0010
,
0000
0100
0001
0000
0100
0000
0010
0000
0010
0000
0000
0000
0001
0000
0010
0000
,
2200
0300
0000
0100
0100
0000
3020
0002
,
0000
0003
0031
0000
0020
0000
0002
0000
0033
0000
1000
0000
0100
0000
0010
0000
,
0022
0030
0000
0010
0010
0000
0003
0100
,
0000
0010
1000
0000
0010
0000
0100
0000
0100
0000
0000
0000
1000
0000
0100
0000
,
0022
0030
0000
0010
0010
0000
0203
2000
,
0000
3000
1300
0000
0200
0000
2000
0000
3300
0000
0001
0000
0010
0000
0000
0000
,
1002
0000
0000
0000
1000
0000
0000
0100
0000
0000
1000
0000
0000
1000
0000
0000
2103
0000
0000
0000
0100
0000
0000
0001
0000
0000
0100
0000
0000
0100
0000
0000
,
3020
0000
0000
0000
0100
0000
0000
0001
0000
0000
1000
0000
0000
0100
0000
0000
0030
0000
1000
0000
0100
0000
0010
0000
0000
0000
0011
0000
0011
0000
0001
0000
,
0100
0000
0000
0000
0000
0000
0000
1000
0100
0000
0100
0000
0000
0000
1000
0000
,
1100
0000
0200
0000
0000
0000
0000
0000
0310
0001
0020
0000
0030
0000
0000
1000
,
0010
0000
0000
0000
0011
0000
0000
0001
0010
0000
0010
0000
0000
0000
0000
0000
,
1001
0000
0110
1001
0000
0110
1001
0000
,
1001
0000
0000
0000
0100
0000
0000
0010
0100
0000
0100
0000
0000
0000
0000
0000
,
1100
0000
0000
0000
0100
0000
0000
0010
0100
0000
0100
0000
0000
0000
0001
0000
,
0101
0000
0000
0000
0100
0000
0000
0010
0100
0000
0100
0000
0000
0000
0000
0000
,
2200
0000
0000
3300
0200
0320
0032
0013
,
0220
0000
0000
0330
2020
0000
0000
3030
,
0201
0000
0300
0100
0001
0000
0100
0000
0200
0000
0020
0000
0000
0000
0330
0000
,
1001
0000
0000
0000
0100
0000
0000
0001
0010
0000
0010
0000
0000
0000
0000
0000
,
1001
0010
0100
0100
0000
1100
0101
0000
,
0022
0030
0000
0010
0010
0000
0003
0100
,
0000
0010
1000
0000
0010
0000
0100
0000
0100
0000
0000
0000
1000
0000
0100
0000
,
0022
0030
0000
0010
0010
0000
0203
2000
,
0000
3000
1300
0000
0200
0000
2000
0000
3300
0000
0001
0000
0010
0000
0100
0000
,
2200
0300
0000
0100
0100
0000
3000
0010
,
0000
0100
0001
0000
0100
0000
0010
0000
0010
0000
0000
0000
0001
0000
0010
0000
,
2200
0300
0000
0100
0100
0000
3020
0000
,
0031
0000
0000
0200
,
0302
0000
0000
0000
0000
0000
0000
0000
1000
0000
0000
0000
0000
0000
0200
0303
,
0011
0000
0000
0000
0010
0000
0000
1000
0100
0000
0100
0000
0011
0000
0000
0000
,
0020
0000
0032
0000
0023
0100
0130
0000
,
1001
0000
0000
0000
0100
0000
0000
1000
0100
0000
0100
0000
0000
0000
0000
0000
,
1010
0000
0000
0000
0010
0000
0000
0100
0010
0000
0010
0000
0000
0000
0000
0000
,
0022
0000
0000
0000
0033
0100
0020
0000
,
0000
0001
0000
0000
0000
0000
0000
0000
0000
0000
0000
0000
0000
0000
0000
0000
,
0001
0000
0001
0000
,
0000
0000
0000
0000
0000
0000
0000
0001
0000
0000
0000
0000
0000
0000
0000
0000
,
0001
0000
0000
0000
0000
0000
0000
0030
,
0010
0000
0000
0000
0001
0000
0000
1000
0100
0000
0100
0000
0000
0000
0000
0000
,
0110
0000
0000
0000
0001
0000
0000
1000
0001
0000
0001
0000
0000
0000
0000
0000
,
0011
0000
0000
0000
1000
0000
0000
1000
0100
0000
0100
0000
0000
0000
0000
0000
,
0200
0320
0032
2003
3200
0000
0320
0032
,
0023
0000
0030
0000
0000
0000
0000
1000
0100
0000
0100
0000
0000
0000
0000
0000
,
0011
0000
0000
0000
0000
0000
1000
0000
0100
0000
0000
0200
0000
0000
0310
0000
,
0020
0000
0000
0000
0000
0000
0000
0000
0000
0000
0000
0000
0000
0000
0000
0000
0000
0000
0000
0000
0000
0000
0000
0000
0032
0000
0000
0000
0000
0000
0000
0000
0000
0000
0000
0000
0000
0000
0000
0000
0000
0000
0000
0000
0000
0000
0000
0000
0000
0000
0000
0000
0000
0000
0000
0003
0000
0000
0000
0000
0000
0000
0000
0000
,
1001
0000
1100
1001
0000
0011
0101
0000
,
2000
0000
0010
0000
0000
0000
0010
3000
,
0000
0010
0001
0000
0010
0000
0001
0000
0010
0000
0000
0000
0002
0000
0000
0000
,
2003
0000
0100
0000
0000
0000
3100
0020
,
0000
0000
0031
0020
0000
0000
0031
0010
,
0100
0100
0010
0001
0010
0000
1000
0100
,
0010
0000
0000
1000
0100
0000
0100
0000
0000
0000
0000
0000
1000
0000
0100
0000
,
0010
0001
0010
0000
,
1001
0000
0200
0000
0000
0300
0100
0000
,
1000
0000
0000
0001
0010
0000
0010
0000
0000
0000
0000
0000
0110
0000
0000
0000
,
1000
0000
0000
0001
1000
0000
1000
0000
0000
0000
0000
0000
1100
0000
0000
0000
,
0001
0000
0000
0001
0010
0000
0010
0000
0000
0000
0000
0000
1000
0000
1000
0000
,
1000
0000
0010
0100
0100
0000
0101
0000
,
0000
0000
0000
0001
0010
0000
0010
0000
0000
0000
0000
0000
1100
0000
0000
0000
,
0000
0000
0001
0010
0000
0000
0020
0000
0000
0030
0100
0000
0200
0000
0000
0000
,
2000
0000
0300
3100
0010
0000
0002
0000
0003
0000
0000
0000
1001
0000
0000
0000
,
0110
1001
0000
0110
1001
0000
0000
0000
;

//--------------- dance-single - Blood4Fame ----------------
#NOTES:
     dance-single:
     Blood4Fame:
     Challenge:
     7:
     0,0,0,0,0:
1001
0000
0000
0100
0010
0000
0010
0000
0000
0100
0010
0000
0010
0000
0000
0000
,
0110
0000
0000
0100
0010
0000
0010
0000
0000
0100
0010
0000
0011
0000
0000
0000
,
1000
1000
0100
0100
1000
0100
0100
1000
,
1000
0000
0000
0100
0000
0000
0010
0000
0000
0100
0000
0000
1000
0000
0000
0000
0010
0000
0000
0000
0000
0000
1000
0000
0000
0000
0000
0000
0000
0000
0001
0000
0000
0010
0000
0000
0000
0000
0000
0000
0000
0000
1000
0000
0000
0001
0000
0000
,
0100
0000
0000
0100
0000
0000
0010
0000
0001
0010
0000
0000
0001
0000
0000
0001
0000
0000
0100
0000
1000
0100
0000
0000
,
1010
0000
0010
1000
0000
0000
0100
0000
0000
0100
0000
0010
0000
0000
0000
0011
0000
0000
0011
0000
0000
0000
0000
0000
,
1100
0000
0000
0100
0000
0000
0010
0000
0100
0010
0000
0000
0100
0000
0000
0100
0000
0000
0110
0000
0000
0000
0000
0000
,
1100
0000
0000
0100
0000
0000
0010
0000
0000
0000
0000
0000
0001
0000
1000
0100
0000
0000
0101
0000
0000
0000
0000
0000
,
1000
1000
0001
0001
1000
1000
0010
0000
,
0110
0000
0000
0100
0010
0000
0010
0000
0000
0010
0100
0000
0010
0000
0000
0000
,
2002
0000
0000
0000
0000
0000
0000
0000
0000
3000
0000
0000
1003
0000
0100
0010
0000
0001
0010
0000
0000
0001
0000
0000
,
2002
0000
0000
0000
0000
0000
0000
0000
0000
0003
0000
0000
3001
0000
0010
0100
0000
0000
0010
0000
0000
0001
0000
0000
,
0220
0000
0330
0000
1000
0000
0000
0100
0010
0000
0001
0000
0100
0000
0001
0000
,
0010
0000
0000
0100
0010
0000
0010
0000
0000
0100
0010
0000
0000
0000
0000
0000
,
1002
0000
0000
0003
1000
0000
0000
0100
0000
0000
1000
0000
0000
1000
0000
0000
,
2100
0000
0000
0000
0100
0000
0000
0001
0000
0000
0100
0000
0000
0100
0000
0000
,
3020
0000
0000
0000
0100
0000
0000
0001
0000
0000
1000
0000
0000
0000
0002
0000
,
0030
0000
0000
0000
0003
0100
0100
0001
,
1100
0000
0000
0000
0010
0000
0000
1000
0100
0000
0100
0000
0010
0000
0001
0000
,
1100
0000
0100
0000
0010
0000
0000
1000
0100
0000
0100
0000
0010
0000
0001
0000
,
0011
0000
0000
0000
0010
0000
0000
0001
0010
0000
0010
0000
0001
0000
0000
0000
,
0011
0000
0000
0100
0010
0000
0011
0000
0000
0100
0010
0000
0011
0000
0000
0000
,
1001
0000
0000
0000
0010
0000
0000
0100
0010
0000
0010
0000
0010
0000
0000
0000
,
0011
0000
0000
0000
0010
0000
0000
0100
0010
0000
0010
0000
0010
0000
0000
0000
,
1010
0000
0000
0000
0010
0000
0000
0100
0010
0000
0010
0000
0010
0000
0000
0000
,
2020
0000
0000
3030
0020
0230
2300
3100
,
0220
0000
0330
0000
2002
0000
3003
0000
0202
0000
0303
0000
2020
0000
3030
2020
,
0000
3030
1000
0001
1000
0000
0010
0000
0020
0000
0200
0000
0000
0000
0330
0000
,
1001
0000
0000
0000
0010
0000
0000
1000
0100
0000
0100
0000
0000
0000
0000
0000
,
1001
0100
0010
0010
0001
0010
0010
0000
,
2200
0000
0300
0000
0100
0000
0100
0000
0100
0000
0000
0000
3100
0000
0010
0001
,
0000
0100
0001
0000
0100
0000
0010
0000
0010
0000
0000
0000
0001
0000
0010
0000
,
2200
0300
0100
0100
0100
0000
3020
0002
,
0000
0003
0031
0000
0020
0000
0002
0000
0033
0000
1000
0000
0100
0000
0010
0000
,
0022
0000
0030
0000
0010
0000
0010
0000
0010
0000
0000
0000
0013
0000
0100
1000
,
0000
0010
1000
0000
0010
0000
0100
0000
0100
0000
0000
0000
1000
0000
0100
0000
,
0022
0030
0010
0010
0013
0000
0200
2000
,
0000
3000
1300
0000
0200
0000
2000
0000
3300
0000
0001
0000
0010
0000
0000
0000
,
1002
0000
0000
0000
1000
0000
0000
0100
0000
0000
1000
0000
0000
1000
0000
0000
2103
0000
0000
0000
0100
0000
0000
0001
0000
0000
0100
0000
0000
0100
0000
0000
,
3020
0000
0000
0000
0100
0000
0000
0001
0000
0000
1000
0000
0000
0100
0000
0000
0030
0000
1000
0000
0100
0000
0010
0000
0000
0000
0011
0000
0011
0000
0001
0000
,
0100
0000
0000
0000
0001
0000
0000
1000
0100
0000
0100
0000
0001
0000
1000
0000
,
1100
0000
0200
0000
0010
0000
0000
0000
0310
0001
0020
0000
0030
0000
0000
1000
,
0010
0000
0000
0000
0011
0000
0000
0001
0010
0000
0010
0000
0010
0000
0000
0000
,
1001
0000
0000
0100
0010
0000
1001
0000
0000
0010
0100
0000
1001
0000
0000
0000
,
1001
0000
0000
0000
0100
0000
0000
0010
0100
0000
0100
0000
0100
0000
0000
0000
,
1100
0000
0000
0000
0100
0000
0000
0010
0100
0000
0100
0000
0100
0000
0001
0000
,
0101
0000
0000
0000
0100
0000
0000
0010
0100
0000
0100
0000
0100
0000
0000
0000
,
2200
0000
0000
3300
0200
0320
0032
0013
,
0220
0000
0330
0000
0022
0000
0033
0000
2002
0000
3003
0000
0202
0000
0303
0202
,
0000
0303
0001
0100
0001
0000
0100
0000
0200
0000
0020
0000
0000
0000
0330
0000
,
1001
0000
0000
0000
0100
0000
0000
0001
0010
0000
0010
0000
0000
0000
0000
0000
,
1001
0010
0100
0100
0000
1100
0101
0000
,
0022
0000
0030
0000
0010
0000
0010
0000
0010
0000
0000
0000
0003
0000
0100
1000
,
0000
0010
1000
0000
0010
0000
0100
0000
0100
0000
0000
0000
0001
0000
0000
0000
,
2020
0030
0010
0010
0010
0000
3200
2000
,
0000
3000
1300
0000
0200
0000
2000
0000
3300
0000
0001
0000
0010
0000
0100
0000
,
2200
0000
0300
0000
0100
0000
0100
0000
0100
0000
0000
0000
3000
0000
0010
0001
,
0000
0100
0001
0000
0100
0000
0010
0000
0010
0000
0000
0000
1000
0000
0010
0000
,
2200
0300
0100
0100
0100
0000
3020
0000
,
1030
0000
0000
0200
,
0302
0000
0100
0000
0100
0000
0100
0000
1000
0000
0010
0000
0010
0000
0200
0303
,
0011
0000
0000
0000
0010
0000
0000
0001
0100
0000
0100
0000
1010
0000
0000
0000
,
0020
0000
2030
0000
3020
0100
0130
0000
,
1001
0000
0000
0000
0100
0000
0000
0010
0100
0000
0100
0000
0100
0000
0000
0000
,
1010
0000
0000
0000
0010
0000
0000
0100
0010
0000
0010
0000
0010
0000
0000
0000
,
0010
0010
1000
0001
0010
0100
0010
0000
,
0000
0001
0000
0000
0000
0000
0000
0000
0000
0000
0000
0000
1000
0000
0000
0000
,
0001
0000
0100
0000
,
0000
1000
0010
0000
,
0010
0000
0000
0000
,
0010
0000
0000
0000
0001
0000
0000
1000
0100
0000
0100
0000
0010
0000
0000
0000
,
0110
0000
0000
0000
0001
0000
0000
1000
0001
0000
0001
0000
1000
0000
0000
0000
,
0011
0000
0000
0000
1000
0000
0000
1000
0100
0000
0100
0000
0010
0000
0000
0000
,
0200
0320
0032
2003
3200
0000
0320
0032
,
0023
0000
0030
0000
0001
0000
0000
1000
0100
0000
0100
0000
0010
0000
0000
0000
,
0011
0000
0000
0000
0100
0000
1000
0000
0100
0000
0000
0200
0000
0000
0310
0000
,
0020
0000
0000
0000
0000
0000
0000
0000
0000
0000
0000
0000
0000
0000
0000
0000
0001
0000
0000
0000
0000
0000
0000
0000
0032
0000
0000
0000
0000
0000
0000
0000
0000
0000
0000
0000
0000
0000
0000
0000
0100
0000
0000
0000
0000
0000
0000
0000
0100
0000
0000
0000
0000
0000
0000
0003
0000
0000
0000
0000
0000
0000
0000
0000
,
1001
0000
1010
1001
0000
1010
0101
0000
,
2000
0000
0010
0000
0010
0000
0010
3000
,
0000
0010
1000
0000
0010
0000
1000
0000
0010
0000
0000
0000
0002
0000
0000
0000
,
2003
0000
0100
0000
0100
0000
3100
0020
,
0000
0001
0031
0020
0000
0001
0031
0010
,
0100
0000
0100
0000
0010
0000
0001
0000
0010
0000
0000
0000
1000
0000
0100
0010
,
0000
0010
0001
0000
0100
0000
0100
0000
0010
0000
0000
0000
1000
0000
0100
0000
,
0010
0010
0001
0001
0010
0000
0100
0010
,
1001
0000
0200
0000
0000
0300
0100
0000
,
1000
0000
0000
0001
0010
0000
0010
0000
0100
0000
0000
0000
0110
0000
0001
0000
,
1000
0000
0000
0001
1000
0000
1000
0000
0100
0000
0000
0000
1100
0000
0010
0000
,
0001
0000
0000
0001
0010
0000
0010
0000
0001
0000
0000
0000
0001
0000
0001
0000
,
1000
0100
0010
0100
0100
0000
0110
1000
,
0010
0000
0000
1000
0010
0000
0010
0000
0100
0000
0001
0000
0101
0000
0000
0000
,
1000
0000
0001
0010
0000
0000
0020
0000
0000
0030
0100
0000
0200
0000
0000
0000
,
2000
0000
0300
3100
0010
0000
0002
0000
1003
0000
0000
0000
1001
0000
0100
0000
,
0010
1001
0010
0100
1001
0000
0000
0000
;

//--------------- dance-single - Blood4Fame ----------------
#NOTES:
     dance-single:
     Blood4Fame:
     Edit:
     6:
     0,0,0,0,0:
1001
0000
0110
1001
0000
0110
1001
0000
,
1001
0000
0110
1001
0000
0110
1001
0000
,
1000
1000
0000
0000
0100
0100
0000
0000
,
0001
0001
0000
0000
0010
0000
0010
0000
,
1100
0000
1100
0000
,
0011
0000
0000
0000
0000
0010
0010
0000
,
2200
0000
0000
3300
0000
0000
0000
0000
,
0202
0000
0000
0303
0000
0000
0000
0000
,
1100
0000
1100
0000
,
0110
0000
0100
0010
0000
0100
0010
0000
,
1001
0000
0010
0010
,
1001
0000
0100
0100
,
1001
0000
0101
0000
,
0011
0000
0011
0011
0000
0110
0000
0000
,
1100
0100
0100
0100
,
1100
0100
0100
0100
,
1010
0000
0100
0000
0100
0000
0100
0020
,
0000
0030
0000
0000
0000
1001
1001
0000
,
0200
0000
0310
0000
0100
0100
0010
0000
,
0100
0000
0100
0000
0010
0000
0000
0010
0000
0000
0100
0000
0010
0000
0000
0000
,
0002
0000
0013
0000
0001
0001
0010
0000
,
0011
0000
0000
0000
0011
0000
0011
0000
0000
0000
0010
0000
0101
0000
0000
1000
,
0010
0000
0000
0010
0001
0000
0000
0001
0010
0000
0000
0100
1000
0000
0000
1000
,
0001
0000
0000
0010
0100
0000
0000
0100
1000
0000
0000
0001
0010
0000
0000
1000
,
0010
0000
0000
0100
0010
0000
0000
0001
0010
0000
0000
1000
0100
0000
0000
0000
,
1001
0000
1000
0000
1000
0100
0010
0001
,
0022
0000
0000
0033
,
0220
0000
0000
0330
,
2020
0000
0000
0000
0000
0000
0000
3030
,
1001
0000
1000
1000
0000
0001
0001
0000
,
0010
0000
0000
0100
0010
0000
0000
0100
0010
0000
0000
0100
0010
0000
0000
0000
,
1010
1010
1010
1010
,
0001
0000
0000
0001
0010
0000
0000
0001
0010
0000
0000
0000
0110
0000
1001
0000
,
0000
1001
0110
1001
0000
1000
0100
0010
,
0000
0000
1001
0000
0000
0000
1001
0000
0000
0000
1001
0000
0000
0000
1000
0010
,
0000
0001
0010
0000
0010
0000
0000
0000
,
1001
1001
1001
1001
,
0110
0000
0010
0001
0000
0010
0001
0000
,
2200
0000
0000
0000
0000
0000
0000
0300
,
0002
0000
0003
0000
0002
0000
0003
0000
0002
0000
0000
0000
3003
0110
0110
0000
,
0101
0000
0000
0000
0100
0100
0000
0000
,
0110
0000
0000
0000
0100
0100
0000
0100
,
1010
0000
0000
0000
1000
1000
0000
0000
,
1010
0000
1000
0010
0000
1000
0010
0000
,
1010
0100
1010
0100
1010
0100
1010
0100
,
0110
0100
1001
1000
0110
0100
1001
1000
,
1001
0000
0000
0000
1001
0000
0000
1000
1000
0000
0000
0000
1000
0000
0001
0000
,
1001
0000
0000
0000
0100
0000
0000
0000
0110
0000
0200
0000
0300
0000
0000
0010
,
0200
0000
0000
0000
0300
0000
0000
0010
0200
0000
0000
0000
0300
0000
0000
0010
,
0200
0000
0000
0000
0300
0000
0000
0010
0200
0000
0000
0000
0300
0000
0000
0000
,
0220
0000
0000
0330
0110
0000
0000
0000
,
0011
0000
0000
0000
0000
0001
0001
1000
,
0001
0100
0010
0100
0010
0100
0010
0000
,
0000
0000
1000
0000
1001
0000
1000
0000
1001
0000
0000
1000
0001
0000
0000
1000
,
0001
0000
0000
1000
0001
0000
0000
1000
0001
0000
0000
1000
0001
0000
2002
0000
,
0000
0000
3003
0000
0001
0000
2002
0000
0000
0000
0000
3003
0100
0000
0000
0000
,
1001
0010
1001
0010
1001
0010
1001
0000
,
2002
0000
0000
0000
0000
0000
0000
3003
,
1001
0010
1001
0010
1001
0010
1001
0000
,
1001
0000
0000
0020
,
0032
0000
0000
0000
0100
0000
0000
0003
,
0100
0000
0000
0000
0000
0000
0000
1000
0100
0000
0000
0000
0000
0000
0000
1000
,
0001
0001
1000
1000
,
0010
0000
0000
0000
0000
0000
0000
0100
0010
0000
0000
0000
0000
0000
0000
0000
,
1000
0000
0000
0000
0000
0000
0000
1000
0100
0000
0000
0000
0000
0000
0000
0000
,
0001
0000
0000
0000
0000
0000
0000
0001
0010
0000
0000
0000
0000
0000
0000
0000
,
0220
0000
0000
0000
,
0000
0000
0000
0000
,
0000
0000
0000
0000
,
0330
0000
1000
0000
,
1001
0110
1001
1001
,
0110
0000
0000
0000
0110
0000
0000
0000
0011
0000
0000
0000
0011
0000
0000
1000
,
0001
0000
0000
0000
0000
0000
0000
1000
0001
0000
0000
0000
1001
0000
0000
0000
,
1100
0000
0110
0000
,
0101
0000
0000
0000
0010
0000
0000
1000
0010
0000
0000
1000
0010
0000
0000
1000
,
0020
0030
1000
0000
,
0001
0000
0010
0010
,
0010
0000
0001
0010
0000
0001
0010
0000
,
2200
0000
0000
0000
0000
0000
0000
3300
,
2002
0000
0000
0000
0000
0000
0000
3003
,
2200
0000
0000
0000
0000
3000
1300
0220
,
0000
0330
0001
0220
0000
0300
0130
0000
,
1001
0000
1000
0000
1001
0000
0001
0000
1001
0000
0000
0000
0000
0000
0000
1000
,
0001
0000
0000
1000
0010
0000
0000
1000
0001
0000
0000
1000
0010
0000
0000
0000
,
1001
0000
0101
0000
,
1001
0000
0200
0000
0000
0300
0110
0000
,
0000
0000
0000
1000
0100
0000
0100
0000
0000
0000
0000
0000
0011
0000
0000
0000
,
0000
0000
0000
0001
0100
0000
0100
0000
0000
0000
0000
0000
0011
0000
0000
0000
,
0000
0000
0000
1000
0100
0000
0100
0000
0000
0000
2002
0000
0000
0000
3003
0000
,
0100
2002
0000
0000
0000
3003
1100
0000
,
0000
0000
0000
0100
0010
0000
0010
0000
0000
0000
0000
0000
0011
0000
0000
0000
,
0000
0000
0000
0001
0100
0000
0100
0000
0000
0000
0000
0000
1001
0000
0000
0000
,
0000
0000
0000
0010
0100
0000
0100
0000
0000
0000
0000
0000
2002
0000
0000
0000
,
0000
0000
3003
0000
;
