#TITLE:Final Destination;
#SUBTITLE:- Super Smash Bros. Brawl - [Remix];
#ARTIST:Acid Notation;
#TITLETRANSLIT:;
#SUBTITLETRANSLIT:;
#ARTISTTRANSLIT:;
#GENRE:Electronic;
#CREDIT:Blood4Fame;
#MUSIC:music.mp3;
#BANNER:banner.png;
#BACKGROUND:bg.png;
#CDTITLE:;
#SAMPLESTART:10.128;
#SAMPLELENGTH:20.108;
#SELECTABLE:YES;
#OFFSET:0.786;
#BPMS:0.000=70.000
,9.000=37.500
,11.000=92.500
,12.000=185.000
,108.000=92.500
,122.000=46.250
,123.000=185.000
,183.000=92.500
,185.000=185.000
,249.000=92.500
,265.000=23.125
,273.000=46.250
;
#STOPS:;
#BGCHANGES:0.786=video.avi=1.000=1=0=1===CrossFade==;
#FGCHANGES:;

//--------------- dance-single - Blood4Fame ----------------
#NOTES:
     dance-single:
     Blood4Fame:
     Beginner:
     2:
     0,0,0,0,0:
0000
0000
0000
0000
,
0000
0000
0000
0000
,
0000
0000
0000
0100
,
0100
0000
0000
0000
,
0010
0000
0000
0000
,
0100
0000
0000
0000
,
0010
0000
0000
0000
,
1000
0000
0000
0000
,
1000
0000
0000
0000
,
0100
0000
0000
0000
,
0100
0000
0000
0000
,
0010
0000
0000
0000
,
0010
0000
0000
0000
,
0001
0000
0000
0000
,
0001
0000
0000
0000
,
0100
0000
0000
0000
,
0100
0000
0000
0000
,
0010
0000
0000
0000
,
1000
0000
0000
0000
,
0001
0000
0000
0000
,
0001
0000
0000
0000
,
0010
0000
0000
0000
,
0010
0000
0000
0000
,
0100
0000
0000
0000
,
0100
0000
0000
0000
,
0010
0000
0000
0000
,
0010
0000
0000
0000
,
0001
0001
0001
0001
,
1000
1000
1000
1000
,
0010
0010
0010
0010
,
0100
0000
0100
0000
0200
0300
0001
0000
,
0000
0000
0000
0001
,
0000
0000
0000
1000
,
0000
0000
0000
0100
,
0000
0000
0000
1000
,
0000
0000
0000
0010
,
0000
0000
0000
0100
,
0000
0100
0000
0010
,
0000
0010
0000
1000
,
0000
0000
0000
0001
,
0000
0000
0000
1000
,
0000
0000
0000
0100
,
0000
0000
0000
1000
,
0000
0000
0000
0001
,
0000
0000
0000
0100
,
0000
0000
0000
0010
,
0010
0100
0000
0000
,
0000
0001
0000
0000
,
0000
1000
0000
0000
,
0000
0001
0000
0000
,
0000
0100
0000
0000
,
0000
0010
0000
0000
,
0000
1000
0000
0000
,
0000
0100
0000
0000
,
0000
1000
0000
0000
,
0000
0010
0000
0000
,
0000
0001
0000
0000
,
0000
0001
0000
0000
,
0000
0100
0000
0000
,
0000
0010
0000
0000
,
0000
1000
0000
0000
,
0000
0100
0000
0000
,
0000
1000
1000
1000
,
0001
0100
0100
0100
,
0010
1000
1000
1000
,
0100
0010
0010
0020
,
0000
0030
0000
0000
,
0000
0000
0000
0000
,
0000
0000
0100
0001
0100
0000
1000
1000
,
1000
0000
0010
0000
0100
0000
0001
0001
,
0000
0000
0010
0100
0010
0000
1000
1000
,
1000
0001
0100
2000
,
0000
3000
0000
0000
;

//--------------- dance-single - Blood4Fame ----------------
#NOTES:
     dance-single:
     Blood4Fame:
     Easy:
     3:
     0,0,0,0,0:
0000
0000
0000
0000
,
0000
0000
0000
0000
,
0000
0000
0000
0100
,
0100
0000
0010
0000
,
0010
0000
1000
0000
,
0100
0000
1000
0000
,
0010
0000
0100
0000
,
1000
0000
0001
0000
,
1000
0000
0100
0000
,
0100
0000
0010
0000
,
0100
0000
1000
0000
,
0010
0000
0001
0000
,
0010
0000
0100
0000
,
0001
0000
0010
0000
,
0001
0000
0100
0000
,
0100
0000
0010
0000
,
0100
0000
1000
0000
,
0010
0000
0001
0000
,
1000
0000
0100
0000
,
0001
0000
0001
0000
,
0001
0000
0100
0000
,
0010
0000
0010
0000
,
0010
0000
0001
0000
,
0100
0000
0100
0000
,
0100
0000
1000
0000
,
0010
0000
0010
0000
,
0010
0000
1000
0000
,
0001
0000
0001
1000
0001
0000
0001
0000
,
1000
2000
0100
3100
,
0010
0000
0010
0100
0010
0000
0010
0000
,
0100
0000
0100
0000
0200
0300
0001
0000
,
0000
0001
0000
0001
,
0000
0100
0000
1000
,
0000
1000
0000
0100
,
0000
0010
0000
1000
,
0000
0010
0000
0010
,
0000
0100
0000
0100
,
0000
0110
0000
0010
,
0000
1010
0000
2000
,
0000
0000
3100
2000
,
0000
0000
3010
2000
,
0000
0000
3100
2000
,
0000
0000
3010
2000
,
0000
0000
3001
2000
,
0000
0000
3100
2000
,
0000
0000
3010
0010
,
0110
0101
0000
0010
,
0000
0001
0000
0100
,
0000
1000
0000
0010
,
0000
0001
0000
1000
,
0000
0100
0000
0001
,
0000
0010
0000
0100
,
0000
1000
0000
0010
,
0000
0100
0000
0010
,
0000
1000
0000
0100
,
0000
0010
0000
1000
,
0000
0001
0000
0100
,
0000
0001
0000
0010
,
0000
0100
0000
0010
,
0000
0010
0000
1000
,
0000
1000
0000
0100
,
0000
0100
0000
0010
,
0000
0000
1000
0000
1000
0001
1000
0000
,
0001
0000
0100
0000
0100
0010
0100
0000
,
0010
1000
1000
0000
1000
0100
1000
0000
,
0100
0010
0010
0000
0010
0000
0020
0000
,
0000
0030
0000
0000
,
0000
0000
0000
0000
,
0000
0000
0100
0001
0200
0300
1000
1000
,
2000
3000
0020
0030
0200
0300
0001
0002
,
0000
0003
0010
0100
0020
0030
0001
0001
,
0002
0003
0020
0030
0200
0300
2000
0000
,
0000
3000
0000
0000
;

//--------------- dance-single - Blood4Fame ----------------
#NOTES:
     dance-single:
     Blood4Fame:
     Medium:
     7:
     0,0,0,0,0:
0000
0000
0000
0000
,
0000
0000
0000
0000
,
0000
0000
0000
0000
0000
0000
0000
0000
0000
0000
0000
0000
1000
0000
0010
1000
,
0200
0300
1000
0100
0000
1000
0001
0000
,
0101
0000
0010
1000
0000
0010
0100
0000
,
0101
0000
0001
0100
0000
0001
0010
0000
,
0110
0000
0001
0010
0000
0001
0100
0000
,
1010
0000
0100
0010
0000
1000
0100
0000
,
1100
0000
0100
2000
0010
0000
3001
0100
,
0020
0000
0000
0030
,
1000
0001
0100
0000
0010
0000
0010
0100
,
0002
0000
1003
0001
0000
0010
0001
0000
,
0110
0000
0001
0100
0000
0010
1000
0000
,
0101
0000
1000
0010
0000
1000
0100
0000
,
1001
0000
0001
0100
0000
0001
0010
0000
,
1100
0000
0100
0010
0000
0100
1000
0000
,
0001
0010
0000
0010
0001
0000
0100
0010
,
2000
0000
3001
0010
0000
0001
0100
0000
,
0010
0100
0000
0010
1000
0000
0100
2000
,
0010
0000
3010
0000
0100
2000
0100
0000
,
0001
0000
3001
0000
0010
2000
0010
0000
,
3002
0000
1000
0000
1003
0100
2000
0000
,
0010
0000
3020
0000
0130
0010
0200
0000
,
0310
0000
1000
0100
0000
1000
0001
0000
,
0100
0000
0010
0100
0000
0010
1000
0000
,
0001
0000
0001
0100
0000
0001
1000
0000
,
1000
0100
0000
0010
0001
0000
1000
0100
,
0010
0000
0001
0000
1000
0100
0100
0000
,
0001
0100
0100
0000
0100
0000
0010
0000
,
1000
0000
1000
0000
0010
0001
0001
0000
,
0100
0000
0100
0000
0001
0000
0000
0000
2002
0000
0000
3003
0100
0000
0000
0000
,
0010
0100
0000
0001
1000
0000
0001
0000
,
0001
1000
0000
0100
0010
0000
0010
0000
,
0001
0010
0000
0001
0100
0000
0100
0000
,
0010
1000
0000
1000
0100
0000
1000
0000
,
0010
0100
0000
0010
1000
0000
1000
0000
,
0100
0010
0000
0100
1000
0000
0002
0000
,
2003
3200
0320
0032
,
0203
0320
2030
3200
,
1000
0000
1000
0000
,
1000
0000
1300
0002
,
0100
0000
0100
0000
,
0100
0000
0103
2000
,
0010
0000
0010
0000
,
0010
0000
3010
0200
,
0001
0000
0000
0000
0000
0000
0000
0000
0301
0000
0000
0000
1000
0001
0100
0010
,
2000
0000
3001
0010
0200
0000
0300
0000
1000
0000
0100
0000
0000
0000
1000
0000
,
0001
0000
0101
0000
0010
1000
0000
0010
,
0100
0000
0101
0000
0001
0100
0000
0001
,
0010
0000
0110
0000
0001
0010
0000
0001
,
0100
0000
1010
0000
0100
0010
0000
1000
,
0100
0000
1100
0000
0100
2000
0010
0000
,
3001
0100
0020
0000
0200
0000
0000
0000
,
0330
0000
1000
0001
0100
0000
0010
0000
,
0010
0100
0002
0000
1003
0001
0000
0010
,
0001
0000
0110
0000
0001
0100
0000
0010
,
1000
0000
0101
0000
1000
0010
0000
1000
,
0100
0000
1001
0000
0001
0100
0000
0001
,
0010
0000
1100
0000
0100
0010
0000
0100
,
1000
0000
0001
0010
0000
0010
0001
0000
,
0100
0010
2000
0000
3001
0010
0000
0001
,
0100
0000
0010
0100
0000
0010
1000
0000
,
0100
2000
3020
0000
0130
0010
0100
0001
,
1000
0000
0100
0000
0100
0010
0100
0000
,
0001
0010
0100
0000
1000
0010
0100
0000
,
0001
0200
0010
0000
0010
0010
0020
0000
,
0000
0330
0000
0000
,
0000
0000
0000
0000
,
0000
0000
0020
0000
0000
0000
0100
0100
,
0200
0000
0030
0000
0302
0000
0103
0001
0020
0000
0130
0010
0001
1000
0200
0000
,
0000
0000
0020
0000
0000
0300
0100
0100
,
0130
0000
1000
0100
0020
0000
0031
0100
0020
0000
1030
0010
0200
0000
0000
0000
,
0000
0000
0000
0300
0000
0000
0000
0000
0000
0000
0000
0000
0000
0000
0000
0000
;

//--------------- dance-single - Blood4Fame ----------------
#NOTES:
     dance-single:
     Blood4Fame:
     Hard:
     9:
     0,0,0,0,0:
0000
0000
0000
0000
,
0000
0000
0000
0000
,
0000
0000
0000
0000
0000
0000
0000
0000
0000
0000
0000
0000
0020
0000
0230
0302
,
0203
0000
0301
1000
0100
0010
0001
0010
,
0100
0000
0011
0000
1000
0010
0100
0001
,
0020
0000
0130
0010
0001
0100
0010
1000
,
0010
0000
1010
0000
0100
0010
1000
0001
,
2000
0000
3001
0010
0100
1000
0010
0100
,
0001
0000
0010
0001
2000
0000
3010
0100
,
0002
0000
1003
0100
1000
0010
1000
0100
,
0010
0001
1000
0100
0010
0001
1000
0001
,
0200
0000
0301
0100
0010
1000
0010
0001
,
0020
0000
1030
0001
0010
0100
1000
0001
,
0020
0000
0130
0001
0100
0010
0001
0100
,
0020
0000
1030
0100
1000
0001
1000
0010
,
2000
0000
3010
0100
0001
0100
0010
1000
,
0002
0000
0103
0010
0200
0000
0301
0010
,
0200
0000
1300
0001
0100
0010
1000
0100
,
1000
0010
0100
0001
0010
0100
1000
0010
,
0100
0000
0110
0000
0001
0010
0100
0010
,
0001
0000
0101
0000
1000
0100
1000
0010
,
1000
0000
1001
0000
0001
0100
0010
1000
,
0010
0000
1010
0000
0010
0100
0001
1000
,
0100
0000
0010
0001
0000
0001
1000
0000
,
1010
0000
0001
0010
0200
0000
1300
0010
,
2000
0000
3200
0000
0300
0010
0001
0000
,
0010
0100
0000
0010
1000
0000
0010
0001
,
2000
0000
3000
1000
0200
0300
0020
0030
0002
0003
0200
0300
0010
0000
0000
0001
,
0200
0300
0002
0003
2000
3000
0100
0010
0100
0000
0001
0100
0010
0000
0001
0100
,
0020
0000
0030
0010
2000
3000
0002
0003
2000
3000
0200
0300
0200
0000
0300
0000
,
0002
0000
2003
0000
3020
0000
0000
0030
2200
0000
0000
0300
3001
0000
0000
0000
,
0001
0000
0000
0000
0000
0000
0000
0000
0000
0000
0000
1000
0000
0000
0000
0000
0000
0000
0000
0000
0000
0000
0000
0000
1000
0000
0000
0000
0000
0000
0000
0000
0001
0000
0000
0000
0000
0000
0000
0000
0000
0000
0000
0000
0000
0000
0000
0000
0001
0000
0000
0000
0000
0000
0000
0000
0100
0000
0000
0000
0000
0000
0000
0000
,
0001
0010
0000
0100
0010
0000
0100
1000
,
0001
0000
0000
0000
0000
0000
0000
0000
0000
0000
0000
1000
0000
0000
0000
0000
0000
0000
0000
0000
0000
0000
0000
0000
0100
0000
0000
0000
0000
0000
0000
0000
0010
0000
0000
0000
0000
0000
0000
0000
0000
0000
0000
0000
0000
0000
0000
0000
0100
0000
0000
0000
0000
0000
0000
0000
1000
0000
0000
0000
0000
0000
0000
0000
,
0100
0010
0000
0001
0100
0000
0011
0000
,
0010
0100
0000
1000
0100
0000
0001
1000
,
0000
0010
0100
0000
0001
1000
0001
1000
,
0010
0100
0001
1000
0100
0010
0001
0100
,
0010
1000
0100
1000
0010
0100
0002
0003
,
0202
0000
0300
0103
0020
0030
2000
0100
,
0000
0200
3000
2300
0002
3000
1003
0001
,
0100
0001
1000
0100
1000
0001
0010
0001
,
1000
0010
1000
0100
2000
0000
3001
0100
,
0010
1000
0100
0010
0001
0010
0001
0100
,
0010
1000
0100
1000
0010
0100
0001
0200
,
0000
0000
0000
0000
0300
0000
0001
0000
0010
0000
0001
0000
0200
0302
0023
0230
,
2300
3000
2000
3020
0230
0000
0000
0000
0301
0000
0100
0000
0010
0000
1000
0000
,
0010
0001
0020
0000
1030
0001
0010
0100
,
1000
0001
0020
0000
0130
0001
0100
0010
,
0001
0100
0020
0000
1030
0100
1000
0001
,
1000
0010
2000
0000
3010
0100
0001
0100
,
0010
1000
0002
0000
0103
0010
0200
0000
,
0301
0010
0200
0000
1300
0001
0100
0010
,
1000
0100
1000
0010
0100
0001
0010
0100
,
1000
0010
0100
0000
0110
0000
0001
0010
,
0100
0010
0001
0000
0101
0000
1000
0100
,
1000
0010
1000
0000
1001
0000
0001
0100
,
0010
1000
0010
0000
1010
0000
0010
0100
,
0001
1000
0100
0000
0010
0001
0000
0001
,
1000
0000
1010
0000
0001
0010
0200
0000
,
1300
0010
2000
0000
3200
0000
0300
0010
,
0001
0000
0010
0100
0000
0010
1000
0000
,
0010
0001
2000
3000
1001
0010
0001
0100
,
0220
0330
2020
3030
1010
0001
0020
0030
,
0011
1000
2020
3030
0110
0001
0022
0033
,
1100
0001
0200
0000
0001
0010
0020
0000
,
0000
0000
0000
0000
0000
0330
0000
0000
0000
0000
0000
0000
0000
0000
0000
0000
,
0000
0000
0000
0000
,
0000
0000
0000
0000
2000
0000
3002
0023
0230
1300
2000
0000
0020
3000
2030
3020
,
2030
0000
3200
2300
3002
0000
0203
0302
0023
0030
0020
0032
0100
0203
0302
0000
,
0000
1000
0100
1000
0020
0030
0023
0032
0203
0320
2000
3030
2200
0300
0100
0001
,
0200
0300
3002
0203
0320
0000
1000
0230
0020
0330
0010
0100
0002
0000
0000
0000
,
0000
0000
0000
0003
0000
0000
0000
0000
0000
0000
0000
0000
0000
0000
0000
0000
;

//--------------- dance-single - Blood4Fame ----------------
#NOTES:
     dance-single:
     Blood4Fame:
     Challenge:
     10:
     0,0,0,0,0:
0000
0000
0000
0000
0100
1001
1100
0110
,
0011
0000
0001
0010
0110
0000
0011
0000
0101
0000
1010
0000
1010
0000
0110
0000
,
2100
0000
0000
0000
0002
0000
0000
0000
0000
0000
3003
0000
0020
0000
0230
0302
,
0103
0010
1000
0001
0100
0010
1000
0001
,
0100
0000
0010
0000
1000
0000
0100
0000
1000
0000
0010
1000
0010
0000
0100
0000
,
0010
1000
0100
0010
0001
0100
0010
1000
,
0010
0000
0100
0000
0010
0000
1000
0000
0100
0000
0010
0100
0010
0000
0001
0000
,
1000
0100
1000
0010
0100
0001
0010
0100
,
1000
0010
0100
0010
2000
3000
1000
0100
,
0010
0001
0001
1000
0100
0100
1000
0100
,
0010
0001
0001
0100
0010
0010
1000
0001
,
0100
0010
0100
0001
0010
0001
0010
0001
,
0100
0000
0010
0000
0100
0000
0001
0000
0100
0000
0010
1000
0010
0000
0100
0000
,
0001
0010
0100
0001
0100
0010
0001
0100
,
0010
0000
1000
0000
1000
0000
0100
0000
0010
0000
0001
0100
0001
0000
1000
0000
,
1000
0010
0100
0010
1000
0001
1000
0001
,
0010
0001
0100
0010
0200
0300
0100
0010
,
0100
0001
0010
0001
0100
0010
1000
0100
,
1000
0010
0100
0001
0010
0100
1000
0010
,
0100
0010
0010
1000
0100
0100
0010
0001
,
1000
0001
0001
0010
0100
0100
1000
0010
,
1000
0100
0100
0010
0001
0001
1000
0100
,
0010
0001
0001
0100
0010
0010
1000
0001
,
1000
0100
0100
0010
0001
0001
1000
0001
,
1000
0100
0010
0001
2000
3000
1000
0100
,
1000
0000
0010
0000
0100
0000
0010
0000
0100
0000
0010
0100
0010
0000
1000
0000
,
0001
0000
1000
0001
1000
0000
0001
0000
1000
0000
0001
0000
0100
0000
0010
0000
,
2000
0000
3000
1000
0200
0300
0020
0030
0002
0003
0200
0300
0010
0000
0000
0001
,
0200
0300
0002
0003
2000
3000
0100
0010
0100
0000
0001
0100
0010
0000
0001
0100
,
0020
0000
0030
0010
2000
3000
0002
0003
2000
3000
0200
0300
0200
0000
0300
0000
,
0002
0000
0000
0000
2003
0000
0000
0000
3020
0000
0000
0000
0000
0000
1030
0100
2000
0000
0000
0000
0000
0000
0000
0000
3001
0000
0000
0000
0100
0000
0000
0000
,
0001
0000
0000
0000
0000
0000
0000
0000
0000
0000
0000
1000
0000
0000
0000
0000
0000
0000
0000
0000
0000
0000
0000
0000
1000
0000
0000
0000
0000
0000
0000
0000
0001
0000
0000
0000
0000
0000
0000
0000
0010
0000
0000
0000
0000
0000
0000
0000
0001
0000
0000
0000
0000
0000
0000
0000
0100
0000
0000
0000
0000
0000
0000
0000
,
0001
0000
0010
0000
0100
0000
0000
0100
0010
0000
0001
0000
0100
0000
0001
0000
,
1000
0000
0000
0000
0000
0000
0000
0000
0000
0000
0000
1000
0000
0000
0000
0000
0000
0000
0000
0000
0000
0000
0000
0000
0100
0000
0000
0000
0000
0000
0000
0000
0010
0000
0000
0000
0000
0000
0000
0000
0001
0000
0000
0000
0000
0000
0000
0000
0100
0000
0000
0000
0000
0000
0000
0000
1000
0000
0000
0000
0000
0000
0000
0000
,
0100
0000
0010
0000
0100
0000
0000
0100
0010
0000
1000
0000
0001
0000
0000
0000
,
0010
0100
0000
1000
0100
0010
0001
0000
,
0001
0010
0000
0001
0100
0000
0001
1000
,
0010
0100
0001
1000
0100
0010
0001
0100
,
0010
1000
0100
1000
0010
0100
0002
0003
,
0202
0000
0300
0103
0020
0030
2000
0100
,
0000
0200
3000
2300
0002
3000
1003
0001
,
0100
0001
1000
0100
1000
0001
0010
0001
,
1000
0000
0010
0000
1000
0000
0100
0000
2000
0000
0000
0000
3001
0000
1000
0001
,
1000
0000
0010
0000
1000
0000
0100
0000
0010
0001
0010
0000
0001
0000
0100
0000
,
0010
0000
1000
0000
0100
1000
0100
0000
0010
0100
0010
0000
0001
0010
0002
0000
,
0000
0000
0000
0000
0003
0000
0001
0100
0001
0000
1000
0000
0200
2300
3020
0230
,
0302
0003
0002
0023
0130
0000
0010
0000
0001
0000
1000
0000
0100
0000
0010
0000
,
0001
0000
1000
0000
0100
0000
0010
0000
0001
0000
0100
0000
0001
0000
0010
0001
,
0010
0100
0010
0001
0100
0010
1000
0100
,
0010
0000
0001
0000
0010
0000
0100
0000
0010
0000
0001
0000
0100
0000
0010
0100
,
0010
1000
0001
0100
0001
0010
0100
1000
,
0010
0100
0001
0010
0100
0010
0002
0003
,
0001
0100
0010
1000
1000
0001
0100
0100
,
0001
0100
0010
1000
1000
0100
0010
0010
,
0001
1000
0100
0010
0010
0001
0100
0100
,
0010
1000
0001
1000
1000
0010
0100
0100
,
0001
0010
0001
0100
0100
0010
1000
1000
,
0001
0100
0010
1000
1000
0100
0010
0010
,
0001
1000
0001
0100
0100
0010
1000
1000
,
0001
1000
0001
0100
0010
1000
0002
0003
,
0001
0000
0100
0000
0001
0000
0010
0000
0100
0000
0010
0000
0100
0000
0010
0100
,
0010
0000
0001
0000
1000
0000
0001
1000
0001
0000
1000
0000
0001
0000
1000
0000
,
0100
0000
0010
0000
0002
0000
0003
0001
2000
0000
3020
0000
2030
0000
3100
0000
,
0200
0300
0000
0000
0102
0000
0003
1000
0002
0003
0020
0030
0002
0000
0003
0001
,
0100
0000
1020
0000
0200
0000
0330
0000
1000
0000
2001
0000
3010
0000
0000
0010
,
1000
0001
2002
3003
1100
1001
2002
0000
,
0000
0000
0000
3003
0002
0003
0000
0000
0000
0000
0000
0000
0000
0000
0000
0000
,
0000
1100
0101
1001
,
1100
0000
0010
0000
0210
0000
0310
0001
0010
1000
0200
0300
0120
0030
0020
1030
,
0120
0000
0031
0100
0110
0000
1200
0310
0110
0000
0012
0103
0010
2000
0020
0000
,
3030
1000
0100
1000
0201
0000
0301
0010
0100
0010
0011
0000
1020
0000
0130
0010
,
0110
0000
1000
0100
0110
0000
0001
0100
0110
0000
1000
0001
2002
0000
0000
0000
,
0000
0000
0000
3003
0000
0000
0000
0000
0000
0000
0000
0000
0000
0000
0000
0000
;
