#TITLE:F.C.P.R.E.M.I.X.;
#SUBTITLE:;
#ARTIST:Fall of Troy;
#TITLETRANSLIT:;
#SUBTITLETRANSLIT:;
#ARTISTTRANSLIT:;
#GENRE:Rock;
#CREDIT:Blood4Fame;
#MUSIC:music.mp3;
#BANNER:banner.png;
#BACKGROUND:bg.png;
#CDTITLE:;
#SAMPLESTART:0.000;
#SAMPLELENGTH:0.000;
#SELECTABLE:YES;
#OFFSET:-0.438;
#BPMS:0.000=180.000
,4.000=178.000
,8.000=182.000
,12.000=158.000
,16.000=173.000
,20.000=181.000
,24.000=175.000
,26.000=179.000
,28.000=166.000
,32.000=170.000
,40.000=175.000
,44.000=336.000
,44.667=336.000
,45.333=336.000
,48.000=168.000
,52.000=179.000
,56.000=174.000
,60.000=173.000
,61.000=185.000
,62.000=167.000
,64.000=168.000
,68.000=173.000
,76.000=336.000
,76.667=336.000
,77.333=336.000
,80.000=178.000
,84.000=170.000
,86.000=176.000
,92.000=174.000
,92.333=170.000
,96.000=165.000
,100.000=168.000
,108.000=170.000
,112.000=330.000
,114.000=165.000
,116.000=330.000
,118.000=165.000
,128.000=167.000
,132.000=169.000
,136.000=173.000
,140.000=328.000
,144.000=169.000
,148.000=168.000
,152.000=174.000
,156.000=336.000
,160.000=175.000
,164.000=173.000
,172.000=180.000
,176.000=171.000
,184.000=174.000
,188.000=324.000
,192.000=179.000
,196.000=173.000
,200.000=171.000
,208.000=166.000
,212.000=164.000
,216.000=169.000
,220.000=174.000
,224.000=332.000
,226.000=166.000
,228.000=330.000
,230.000=165.000
,232.000=168.000
,236.000=171.000
,241.000=226.000
,243.000=169.000
,246.000=171.000
,249.000=175.000
,252.000=220.000
,254.000=175.000
,260.000=170.000
,263.000=227.000
,265.000=171.000
,271.000=180.000
,273.000=170.000
,274.000=229.000
,276.000=168.000
,279.000=177.000
,285.000=218.000
,287.000=175.000
,290.000=168.000
,295.000=175.000
,296.000=216.000
,298.000=166.000
,307.000=212.000
,309.000=156.000
,312.000=163.000
,318.000=200.000
,320.000=165.000
,322.000=169.000
,323.000=167.000
,336.000=165.000
,340.000=164.000
,342.000=166.000
,360.000=164.000
,364.000=166.000
,367.000=171.000
,375.000=175.000
,376.000=170.000
,384.000=166.000
,388.000=174.000
,392.000=177.000
,396.000=172.000
,400.000=164.000
,404.000=172.000
,408.000=175.000
,412.000=168.000
,416.000=161.000
,420.000=165.000
,428.000=174.000
,432.000=165.000
,444.000=162.000
,448.000=175.000
,452.000=166.000
,456.000=163.000
,460.000=170.000
,468.000=157.000
,472.000=164.000
,480.000=173.000
,488.000=165.000
,496.000=170.000
,500.000=172.000
,504.000=174.000
,508.000=340.000
,512.000=174.000
,516.000=181.000
,520.000=177.000
,528.000=176.000
;
#STOPS:44.000=0.119
,44.667=0.119
,45.333=0.119
,46.000=0.119
,46.667=0.119
,47.333=0.119
,76.000=0.119
,76.667=0.119
,77.333=0.119
,78.000=0.119
,78.667=0.119
,79.333=0.119
,112.000=0.121
,112.667=0.121
,113.333=0.121
,116.000=0.121
,116.667=0.121
,117.333=0.121
,140.000=0.122
,140.667=0.122
,141.333=0.122
,142.000=0.122
,142.667=0.122
,143.333=0.122
,156.000=0.119
,156.667=0.119
,157.333=0.119
,158.000=0.119
,158.667=0.119
,159.333=0.119
,188.000=0.123
,188.667=0.123
,189.333=0.123
,190.000=0.123
,190.667=0.123
,191.333=0.123
,224.000=0.120
,224.667=0.120
,225.333=0.120
,228.000=0.121
,228.667=0.121
,229.333=0.121
,240.000=2.723
,508.000=0.118
,508.667=0.118
,509.333=0.118
,510.000=0.118
,510.667=0.118
,511.333=0.118
,524.000=1.356
;
#DISPLAYBPM:155.000:230.000;
#BGCHANGES:-0.738=movie.avi=1.000=1=0=1===CrossFade==,
99999.000=-nosongbg-=1.000=0=0=0=StretchNoLoop====;
#FGCHANGES:;

//--------------- dance-single - Blood4Fame ----------------
#NOTES:
     dance-single:
     Blood4Fame:
     Easy:
     4:
     0,0,0,0,0:
0000
0000
0000
0000
,
0000
0000
0000
0000
,
0000
0000
0000
0000
,
0000
0000
0000
0000
,
0000
0000
0000
0000
,
0000
0000
0000
0000
,
0000
0000
0000
0000
,
0000
0000
0000
0000
,
1000
0001
0100
0100
,
0001
1000
0100
0100
,
1000
0001
0100
0100
,
0010
0000
0010
0000
,
0001
1000
0100
0100
,
1000
0001
0100
0100
,
0001
1000
0100
0100
,
0010
0000
0010
0000
,
1000
0001
0100
0100
,
0001
1000
0100
0100
,
0001
1000
0100
0100
,
0010
0000
0010
0000
,
1000
0001
0100
0100
,
0001
1000
0100
0100
,
1000
0001
0100
0100
,
0001
1000
0100
0010
,
0001
0000
1000
0000
,
0001
0000
0100
0000
,
0010
0000
0100
0000
,
0010
0000
1000
0000
,
0001
0000
2000
0000
,
3001
0000
2000
0000
,
3001
0100
0010
0000
,
0001
1000
0100
0000
,
0001
1000
0010
0000
,
0001
1000
0010
0000
,
1000
0001
0010
0000
,
0100
0000
0100
0000
,
1000
0001
0010
0000
,
0001
1000
0010
0000
,
1000
0001
0010
0000
,
0100
0000
0100
0000
,
1000
0001
0010
0000
,
0001
1000
0010
0000
,
1000
0001
0010
0000
,
0100
0000
0100
0000
,
0001
1000
0010
0000
,
0001
1000
0010
0000
,
1000
0001
0100
0000
,
0010
0000
0100
0000
,
0001
1000
0010
0000
,
1000
0001
0010
0000
,
1000
0001
0010
0000
,
1000
1000
1000
0000
,
0001
0000
1000
0000
,
0001
0000
1000
0000
,
0100
0000
0010
0000
,
0100
0000
0010
0000
,
1000
0000
2000
0000
,
3001
0000
2000
0000
,
3001
0001
0100
0000
,
0010
1000
0100
0000
,
0001
0000
0000
1000
,
0000
0000
0001
0000
,
0000
1000
0000
0000
,
0010
0000
0100
0000
,
0000
0100
0000
0000
,
0010
0000
0000
1000
,
0000
0100
0000
0000
,
0001
0000
0000
0010
,
0000
0000
1000
0000
,
0100
0000
0000
0100
,
0000
0000
0001
0000
,
0000
0001
0000
1000
,
0000
0000
0010
0000
,
0000
0100
0000
0000
,
0001
0000
1000
0000
,
0000
1000
0000
0000
,
0010
0000
0000
0100
,
0000
0100
0000
0000
,
0001
0000
0000
0010
,
0000
0000
0100
0000
,
0200
0000
0000
0000
,
0000
0000
0000
0000
,
0301
0000
0000
0000
,
0000
0000
0000
0000
,
0202
0000
0000
0303
,
0202
0000
0000
0303
,
0202
0000
0000
0303
,
0202
0000
0000
0303
,
1000
0000
1000
0000
,
1000
0000
1000
0000
,
1000
1000
1000
1000
,
0000
0000
0000
0010
,
0100
0000
0000
0011
,
0100
0000
0000
0011
,
0100
0000
0000
0011
,
1000
0000
1000
0000
,
1100
0000
0000
0010
,
1100
0000
0000
0010
,
1100
0000
0000
0010
,
0100
0000
0001
0000
,
0011
0000
0000
0100
,
1010
0000
0000
0100
,
0101
0000
0000
0100
,
0010
0000
1000
0000
,
1100
0000
0000
0010
,
0110
0000
0000
0001
,
0101
0000
0000
0010
,
1000
1000
1000
1000
,
0001
1000
0010
0000
,
1000
0010
0100
0000
,
0001
0100
0010
0000
,
1000
0001
0100
0000
,
1000
0000
0001
0000
,
1000
0000
0001
0000
,
0100
0000
0010
0010
,
1000
0000
0100
0100
,
0001
1000
0010
0000
,
0001
1000
0010
0000
,
1000
0010
0100
0000
,
0001
0000
0100
0000
,
0010
0000
0100
0000
,
1000
0000
0001
0000
,
1000
0001
0100
0010
,
0000
0001
0100
0010
,
1000
0001
0010
0000
,
1000
0001
0010
0000
,
1000
0001
0010
0000
,
1000
0000
1000
0000
,
1000
0010
0001
0000
,
0001
0010
1000
0000
,
1000
0010
0001
0000
,
0100
0000
0000
0000
;

//--------------- dance-single - Blood4Fame ----------------
#NOTES:
     dance-single:
     Blood4Fame:
     Medium:
     9:
     0,0,0,0,0:
0000
0000
0000
0000
,
0000
0000
0000
0000
,
0000
0000
0000
0000
,
0000
0000
0000
0000
,
0000
0000
0000
0000
,
0000
0000
0000
0000
,
0000
0000
0000
0000
,
0000
0000
0000
0000
,
0010
0001
0100
0000
0100
0010
1000
0000
,
0001
1000
0010
0000
0001
0010
0100
0000
,
1000
0100
1000
0000
0010
0100
0010
0000
,
1010
0000
1010
0000
1010
0000
1001
0000
1001
0000
1001
0000
,
0100
1000
0010
0000
0010
0100
0001
0000
,
1000
0001
0100
0000
1000
0100
0010
0000
,
0001
0010
0001
0000
0100
0010
0100
0000
,
0100
0000
0000
0000
0000
0000
1000
0000
0000
0000
0000
0000
1000
0000
0000
0000
0000
0001
0000
0000
0000
0000
0000
0000
,
1000
0000
0000
0000
0010
0000
0000
0000
0000
0200
0000
0000
0000
0000
0000
0000
0000
0000
0310
0000
0000
0001
0000
0000
,
0100
0000
1000
0100
0010
0000
0100
0010
,
0001
0000
0100
1000
0010
0000
0001
0010
,
0100
0000
1000
0000
0010
0000
1000
0000
0001
0000
1000
0000
,
0000
1000
0100
0000
0100
0000
0010
1000
,
0000
0001
0100
0000
1000
0000
0100
0010
,
0000
0001
0010
0000
1000
0000
0100
0001
,
0000
0010
0100
0010
0000
0100
0010
0001
,
0200
0000
0300
0000
0100
0010
1000
0010
,
1000
0100
0020
0000
0000
0230
0000
0000
,
0300
0000
0000
0000
1000
0100
1000
0010
,
0100
0000
0000
0010
0000
0000
2000
0000
0000
0000
0000
0000
0000
0000
0000
0000
0002
0000
0000
0000
0000
0000
0000
3003
,
1100
0000
0000
0000
1100
0000
0000
0000
1100
0000
0000
0000
2002
0000
0000
0000
0000
0000
0000
0000
0000
3003
0000
0000
,
1100
0000
0000
0000
1100
0000
0000
0000
1100
0000
0000
0000
2002
0000
0000
0000
0000
0000
0000
0000
0000
3003
0000
0000
,
0000
0000
0010
0000
0100
0010
2000
0000
,
3100
1000
0010
0000
0200
0000
0320
0000
,
0031
0010
0100
0000
1000
0001
0100
0000
,
1000
0010
0100
0000
0001
0010
0100
0000
,
0001
0100
0010
0000
1000
0001
1000
0000
,
1000
0000
0001
0000
1000
0000
0100
0000
0100
0000
0100
0000
,
0010
1000
0100
0000
0100
0010
0001
0000
,
1000
0001
0010
0000
1000
0010
0100
0000
,
0001
0100
0001
0000
0010
0100
0010
0000
,
0011
0000
0011
0000
0011
0000
1001
0000
1001
0000
1001
0000
,
0100
0001
0010
0000
0010
0100
1000
0000
,
0001
1000
0100
0000
0001
0100
0010
0000
,
1000
0010
1000
0000
0100
0010
0100
0000
,
0100
0000
0000
0001
0000
0000
0001
0000
0001
0000
0000
0000
,
0001
0000
0000
0000
0010
0000
0000
0000
0000
0200
0000
0000
0000
0000
0000
0000
0000
0000
0310
0000
0000
1000
0000
0000
,
0100
0000
0001
0100
0010
0000
0100
0010
,
1000
0000
0100
0001
0010
0000
1000
0010
,
0100
0000
0001
0000
0010
0000
0001
0000
1000
0000
0001
0000
,
0010
0000
0100
2000
0000
3000
0010
0100
,
0001
0000
0100
0010
0001
0000
0100
0010
,
1000
0000
0010
0100
1000
0000
0100
0001
,
0000
0100
1000
0000
0100
0002
0000
0000
,
1003
0000
0100
0000
0001
0010
0001
0010
,
0001
0100
0020
0000
0000
0230
0000
0000
,
0301
0000
0100
0010
0001
0000
0001
0010
,
0100
0000
0000
0000
0000
0000
0002
0000
0000
0000
0000
0000
0000
0000
0000
0000
2000
0000
0000
0000
0000
0000
0000
3003
,
0101
0000
0000
0000
0101
0000
0000
0000
0101
0000
0000
0000
2002
0000
0000
0000
0000
0000
0000
0000
0000
3003
0000
0000
,
0101
0000
0000
0000
0101
0000
0000
0000
0101
0000
0000
0000
2002
0000
0000
0000
0000
0000
0000
0000
0000
3003
0000
0000
,
0100
1000
0010
0000
0100
0010
0002
0000
,
0103
0001
0010
0000
0200
0000
0320
0000
,
1030
0000
0000
0000
0000
0000
0010
0000
0000
0000
0001
0000
0000
0000
0100
0000
0000
0000
0020
0000
0000
0000
0000
0030
,
0001
0000
0000
0000
0000
0000
0001
0000
0000
0010
0000
0000
0200
0000
0000
0000
0000
0300
0001
0000
0000
0000
0000
0000
,
0001
0000
0000
0100
0000
0000
0020
0000
0000
0000
0000
0030
0001
0000
0000
0000
0000
0000
0001
0000
0000
0100
0000
0000
,
0010
0000
0000
0000
0000
0000
0001
0000
0000
0000
0000
0000
0020
0000
0000
0000
0000
0030
1000
0000
0000
0010
0000
0000
,
1000
0000
0000
0000
0000
0000
0200
0000
0000
0000
0000
0300
1000
0000
0000
0100
0000
0000
1000
0000
0000
0000
0000
0000
,
0200
0000
0000
0000
0000
0300
1000
0000
0000
0100
0000
0000
1000
0000
0000
0000
0000
0000
1000
0000
0000
0000
0010
0000
,
0000
0000
0100
0000
0000
0000
0020
0000
0000
0000
0000
0030
0001
0000
0000
0010
0000
0000
0001
0000
0000
0000
0000
0000
,
0200
0000
0000
0000
0000
0300
0001
0000
0000
0100
0000
0000
0001
0000
0000
0000
0000
0000
0200
0000
0000
0000
0000
0300
,
0001
0000
0000
0100
0000
0000
0001
0000
0000
0000
0000
0000
0010
0000
0000
0000
0100
0000
0000
0000
0001
0000
0000
0000
,
0020
0000
0000
0000
0000
0030
0001
0000
0000
0000
0000
0000
0011
0000
0000
0000
0000
0000
0020
0000
0000
0000
0000
0030
,
1000
0000
0000
0000
0000
0000
1010
0000
0000
0000
0000
0000
0200
0000
0000
0000
0000
0300
0001
0000
0000
0000
0000
0000
,
0101
0000
0000
0000
0000
0000
1000
0000
0000
0000
0010
0000
0000
0000
0100
0000
0000
0000
0020
0000
0000
0000
0000
0030
,
0001
0000
0000
0010
0000
0000
0001
0000
0000
0000
0000
0000
0020
0000
0000
0000
0000
0030
1000
0000
0000
0010
0000
0000
,
0010
0000
0000
0000
0000
0000
0200
0000
0000
0000
0000
0300
1000
0000
0000
0100
0000
0000
1000
0000
0000
0000
0000
0000
,
0001
0000
0000
0000
0010
0000
0000
0000
0100
0000
0000
0000
1000
0000
0000
0000
0000
0000
0010
0000
0000
1000
0000
0000
,
0010
0000
0001
0000
0010
1000
0010
0000
,
0001
0000
0000
0000
0000
0000
0001
0000
0000
0100
0000
0000
0001
0000
0000
0000
0000
0000
0100
0000
0000
0000
1000
0000
,
0000
0010
0000
1001
0000
0000
1100
0000
0000
0001
0000
0000
,
1001
0101
1000
1001
,
0110
0000
0000
0010
0000
0000
0001
0000
0010
0000
0100
0000
,
0002
0000
0000
0000
,
0000
0000
0000
0000
0000
0000
0000
0003
,
1001
0000
0000
0000
,
0000
0000
0000
0000
,
1001
0000
0010
0000
0100
0000
0001
1000
,
1001
0000
0010
0000
0100
0000
1000
0001
,
1001
0000
0100
0000
0010
0000
0001
1000
,
1001
0000
0100
0000
0010
0000
1000
0001
,
1000
0000
0000
1000
0000
0000
0011
0000
,
0100
0000
0000
0100
0000
0000
0011
0000
,
1100
0000
0000
1100
0000
0000
0011
0000
,
0001
0000
0000
0000
1000
0000
0000
1000
0000
0000
0100
0000
0002
0000
0000
0000
,
1003
0000
0000
0000
0000
0000
0000
0000
0001
0000
0000
0000
0000
0000
0000
0000
0000
0000
0010
0000
0000
0000
0000
0000
0000
0000
0000
0100
0000
0000
0000
0000
0000
0000
0000
0000
0110
0000
0000
0000
0000
0000
0000
0000
0000
0000
0000
0000
,
0001
0000
0000
0000
0000
0000
0000
0000
1000
0000
0000
0000
0000
0000
0000
0000
0000
0000
0010
0000
0000
0000
0000
0000
0000
0000
0000
0100
0000
0000
0000
0000
0000
0000
0000
0000
0110
0000
0000
0000
0000
0000
0000
0000
0000
0000
0000
0000
,
1000
0000
0000
0000
0000
0000
0000
0000
0001
0000
0000
0000
0000
0000
0000
0000
0000
0000
0010
0000
0000
0000
0000
0000
0000
0000
0000
0100
0000
0000
0000
0000
0000
0000
0000
0000
0110
0000
0000
0000
0000
0000
0000
0000
0000
0000
0000
0000
,
1100
0000
0000
0000
0010
0000
0000
0001
0000
0000
0100
0000
0000
0010
0000
0000
,
0000
0000
0000
1001
0000
0000
0000
0000
0000
0000
0000
0000
1001
0000
0000
0000
0000
0000
0000
0000
1001
0000
0000
0000
0000
0000
0000
0000
0000
0000
0000
0100
0000
0000
0000
0000
0000
0110
0000
0000
0000
0000
0000
0000
0000
0000
0000
0000
,
0001
0000
0000
0000
0000
0000
0000
0000
0000
1000
0000
0000
0000
0000
0000
0000
0000
0000
0010
0000
0000
0000
0000
0000
0000
0000
0000
0000
0000
0100
0000
0000
0000
0000
0000
0000
0110
0000
0000
0000
0000
0000
0000
0000
0000
0000
0000
0000
,
0010
0000
0000
1000
0000
0000
0100
0000
0000
1000
0000
0000
1001
0000
0000
0000
,
0010
0000
0000
0000
0010
0000
0000
0001
0000
0000
0001
0000
0000
0100
0000
0000
,
0001
0000
0000
0001
0000
0000
0001
0000
0100
0000
0000
0000
0010
0000
0010
0000
,
0001
0000
0000
0001
0000
0000
0001
0000
0100
0000
0000
0000
0010
0000
0010
0000
,
0001
0000
0000
0001
0000
0000
0001
0000
0100
0000
0000
0000
1000
0000
1000
0000
,
0100
0000
0000
0000
1100
0000
0000
1100
0000
0000
1000
0000
0000
0001
0000
0000
,
1010
0000
0000
1010
0000
0000
1010
0000
1000
0000
1000
0000
0001
0000
0001
0000
,
1000
0000
0000
0001
0000
0000
1000
0000
1000
0000
0000
0000
0010
0000
0000
0000
,
0001
0000
0000
1000
0000
0000
0001
0000
0100
0000
0010
0000
0010
0000
0000
0000
,
1000
0100
1000
0100
1000
0010
1000
0000
,
0010
0000
0100
0000
0100
0010
1000
0000
,
1000
0100
0020
0000
0000
0230
0000
0000
,
1300
0010
0100
0000
1000
0100
1000
0000
,
0100
0000
0000
0000
0000
0000
0010
0000
0000
0000
0000
0000
2000
0000
0000
0000
0000
0000
0000
0000
0000
0000
0000
0000
0000
0000
0000
0000
0000
0000
0002
0000
0000
0000
0000
0000
0000
0000
0000
0000
0000
0000
0000
0000
0000
0003
3000
0000
,
2200
0000
0000
0000
0000
0000
0000
0000
0000
3300
0000
0000
1001
0000
0000
0000
0000
0000
2020
0000
0000
0000
0000
3030
,
2200
0000
0000
0000
0000
0000
0000
0000
0000
3300
0000
0000
1001
0000
0000
0000
0000
0000
2020
0000
0000
0000
0000
3030
,
0100
0001
0010
0000
0100
0010
2000
0000
,
3100
1000
0010
0000
0200
0000
0320
0000
,
0031
0000
0010
0000
0100
0010
0001
0000
,
0001
0100
0020
0000
0000
0230
0000
0000
,
0301
0010
0100
0000
0001
0100
0001
0000
,
0200
0000
0000
0000
0000
0000
0000
0000
2000
0000
0000
0000
0000
0000
3000
0300
,
0202
0000
0000
0000
0000
0000
0000
0000
0000
0303
0000
0000
2002
0000
0000
3003
0000
0000
0022
0000
0000
0000
0000
0033
,
0202
0000
0000
0000
0000
0000
0000
0000
0000
0000
0000
0000
0000
0000
0000
0000
0000
0000
0000
0000
0000
0303
0000
0000
1001
0000
0000
0000
0000
0000
0000
0000
0000
0000
0000
0000
0022
0000
0000
0000
0000
0000
0000
0000
0000
0000
0033
0000
,
0100
1000
0010
0000
0100
0000
2000
0000
,
3100
0001
0010
0000
0200
0000
0320
0030
,
0010
0001
0100
0000
0100
0010
1000
0000
,
0001
1000
0010
0000
0001
0010
0100
0000
,
1000
0100
1000
0000
0010
0100
0010
0000
,
1010
0000
1010
0000
1010
0000
1001
0000
1001
0000
1001
0000
,
0100
1000
0010
0000
0010
0100
0001
0000
,
1000
0001
0100
0000
1000
0100
0010
0000
,
0010
0100
1000
0000
0100
0010
0100
0000
,
0200
0300
0000
0000
0000
0000
0000
0000
0000
0000
0000
0000
0000
0000
0000
0000
0000
0000
0000
0000
0000
0000
0000
0000
;

//--------------- dance-single - Blood4Fame ----------------
#NOTES:
     dance-single:
     Blood4Fame:
     Hard:
     10:
     0,0,0,0,0:
0000
0000
0000
0000
,
0000
0000
0000
0000
,
0000
0000
0000
0000
,
0000
0000
0000
0000
,
0000
0000
0000
0000
,
0000
0000
0000
0000
,
0000
0000
0000
0000
,
0000
0000
0000
0000
,
0010
0001
0100
0010
0100
0010
1000
0000
,
0001
1000
0010
1000
0001
0010
0100
0000
,
1000
0100
1000
0001
0010
0100
0010
0000
,
1010
0000
1010
0000
1010
0000
1001
0000
1001
0000
1001
0000
,
0100
1000
0010
0100
0010
0100
0001
0000
,
1000
0001
0100
0001
1000
0100
0010
0000
,
0001
0010
0001
1000
0100
0010
0100
0000
,
0100
0000
0000
0001
0000
0000
1000
0000
0000
0010
0000
0000
1000
0000
0000
0000
1000
0001
0000
0000
0000
0000
0000
0000
,
1000
0000
0000
0000
0010
1000
0000
0000
0000
0200
0000
0000
0000
0000
0000
0000
0000
0000
0310
0000
0000
0001
0000
0000
,
0100
0010
1000
0100
0010
0000
0100
0010
,
0001
0010
0100
1000
0010
0100
0001
0010
,
0100
0000
1000
0000
0010
0000
1000
0000
0001
0000
1000
0000
,
0000
1000
0100
0000
0100
1000
0010
1000
,
0000
0001
0100
0010
1000
0010
0100
0010
,
1000
0001
0010
0100
1000
0010
0100
0001
,
1000
0010
0100
0010
1000
0100
0010
0001
,
0200
0000
0300
0000
0100
0010
1000
0010
,
1000
0100
0020
0000
0000
0230
0000
0000
,
0300
0000
0000
0000
1000
0100
1000
0010
,
0100
0000
0000
0010
0000
0000
2000
0000
0000
0000
0000
0000
0000
0000
0000
0000
0002
0000
0000
0000
0000
0000
0000
3003
,
1100
0000
0000
0000
1100
0000
0000
0000
1100
0000
0000
0000
1001
0000
0000
0000
0000
0000
2020
0000
0000
0000
0000
3030
,
1100
0000
0000
0000
1100
0000
0000
0000
1100
0000
0000
0000
1001
0000
0000
0000
0000
0000
2020
0000
0000
0000
0000
3030
,
0000
0000
0010
0000
0100
0010
2000
0000
,
3100
1000
0010
0000
0200
0000
0320
0000
,
0031
0010
0100
0000
1000
0001
0100
0001
,
1000
0010
0100
0000
0001
0010
0100
0010
,
0001
0100
0010
0000
1000
0001
1000
0010
,
1000
0000
0001
0000
1000
0000
0100
0000
0100
0000
0100
0000
,
0010
1000
0100
0010
0100
0010
0001
0000
,
1000
0001
0010
0001
1000
0010
0100
0000
,
0001
0100
0001
1000
0010
0100
0010
0000
,
0011
0000
0011
0000
0011
0000
1001
0000
1001
0000
1001
0000
,
0100
0001
0010
0100
0010
0100
1000
0000
,
0001
1000
0100
1000
0001
0100
0010
0000
,
1000
0010
1000
0001
0100
0010
0100
0000
,
0100
0000
0000
1000
0000
0000
0001
0000
0000
0010
0000
0000
0001
0000
0000
0000
0001
1000
0000
0000
0000
0000
0000
0000
,
0001
0000
0000
0000
0010
0001
0000
0000
0000
0200
0000
0000
0000
0000
0000
0000
0000
0000
0310
0000
0000
1000
0000
0000
,
0100
0010
0001
0100
0010
0000
0100
0010
,
1000
0010
0100
0001
0010
0100
1000
0010
,
0100
0000
0001
0000
0010
0000
0001
0000
1000
0000
0001
0000
,
0010
0000
0100
2000
0000
3000
0010
0100
,
0001
1000
0100
0010
0001
0000
0100
0010
,
1000
0001
0010
0100
1000
0010
0100
0001
,
0010
0100
1000
0010
0100
0002
0000
0000
,
1003
0000
0100
0000
0001
0010
0001
0010
,
0001
0100
0020
0000
0000
0230
0000
0000
,
0301
0010
0100
0010
0001
0100
0001
0010
,
0100
0000
0000
0010
0000
0000
0002
0000
0000
0000
0000
0000
0000
0000
0000
0000
2000
0000
0000
0000
0000
0000
0000
3003
,
0101
0000
0000
0000
0101
0000
0000
0000
0101
0000
0000
0000
1001
0000
0000
0000
0000
0000
0022
0000
0000
0000
0000
0033
,
0101
0000
0000
0000
0101
0000
0000
0000
0101
0000
0000
0000
1001
0000
0000
0000
0000
0000
0022
0000
0000
0000
0000
0033
,
0100
1000
0010
1000
0100
0010
0002
0000
,
0103
0001
0010
0001
0200
0000
0320
0000
,
1030
0000
0000
0000
0000
0000
0010
0000
0000
0000
0001
0000
0000
0000
0100
0000
0000
0000
0020
0000
0000
0000
0000
0030
,
0001
0000
0000
0010
0000
0000
0001
0000
0000
0010
0000
0000
0200
0000
0000
0000
0000
0300
0001
0000
0000
0100
0000
0000
,
0001
0000
0000
0100
0000
0000
0020
0000
0000
0000
0000
0030
0001
0000
0000
0010
0000
0000
0001
0000
0000
0100
0000
0000
,
0010
0000
0000
1000
0000
0000
0000
0001
0000
0000
0000
0000
0020
0000
0000
0000
0000
0030
1000
0000
0000
0010
0000
0000
,
1000
0000
0000
0010
0000
0000
0200
0000
0000
0000
0000
0300
1000
0000
0000
0100
0000
0000
1000
0000
0000
0010
0000
0000
,
0200
0000
0000
0000
0000
0300
1000
0000
0000
0100
0000
0000
1000
0000
0000
0010
0000
0000
1000
0000
0000
0000
0010
0000
,
0000
0000
0100
0000
0000
0000
0020
0000
0000
0000
0000
0030
0001
0000
0000
0010
0000
0000
0001
0000
0000
0010
0000
0000
,
0200
0000
0000
0000
0000
0300
0001
0000
0000
0100
0000
0000
0001
0000
0000
0010
0000
0000
0200
0000
0000
0000
0000
0300
,
0001
0000
0000
0100
0000
0000
0001
0000
0000
1000
0000
0000
0010
0000
0000
0000
0100
0000
0000
0000
0001
0000
0000
0000
,
0020
0000
0000
0000
0000
0030
0001
0000
0000
0010
0000
0000
0011
0000
0000
0000
0000
0000
0020
0000
0000
0000
0000
0030
,
1000
0000
0000
0010
0000
0000
1010
0000
0000
0000
0000
0000
0200
0000
0000
0000
0000
0300
0001
0000
0000
0100
0000
0000
,
0101
0000
0000
0000
0000
0000
1000
0000
0000
0000
0010
0000
0000
0000
0100
0000
0000
0000
0020
0000
0000
0000
0000
0030
,
0001
0000
0000
0010
0000
0000
0001
0000
0100
0000
0000
0000
0020
0000
0000
0000
0000
0030
1000
0000
0000
0010
0000
0000
,
0010
0000
0100
0000
0000
0000
0200
0000
0000
0000
0000
0300
1000
0000
0000
0100
0000
0000
1100
0000
0000
0000
0000
0000
,
0001
0000
0000
0000
0010
0000
0000
0000
0100
0000
0000
0000
1000
0000
0000
0000
0000
0000
0010
0000
0000
1000
0000
0000
,
0010
0100
0001
1000
0010
1000
0010
0100
,
0001
0000
0000
0010
0000
0000
0001
0000
0000
0100
0000
0000
0001
0000
0000
0010
0000
0000
0100
0000
0000
0000
1000
0000
,
0000
0000
0010
0000
0000
0000
1001
0000
0000
0000
0000
0000
1100
0000
0000
0000
0000
0000
0001
0000
0000
0010
0000
0000
,
1001
0000
0101
0000
1000
0010
1001
0000
,
0110
0000
0000
0000
0000
0000
0010
0000
0000
0100
0000
0000
0001
0000
0000
0000
0010
0000
0000
0000
0100
0000
0000
0000
,
0002
0000
0000
1000
0000
0000
0100
0000
,
1000
0000
0000
0010
0000
0000
0100
0003
,
1001
0000
0000
0000
,
0000
0000
0000
0000
,
2001
0000
0010
0000
0100
0000
3001
1000
,
1002
0000
0010
0000
0100
0000
1003
0001
,
2001
0000
0100
0000
0010
0000
3001
1000
,
1002
0000
0100
0000
0010
0000
1003
0001
,
1000
0000
0000
1000
0000
0000
0011
0000
,
0100
0000
0000
0100
0000
0000
0011
0000
,
1100
0000
0000
1100
0000
0000
0011
0000
,
0001
1000
0000
0010
1000
0000
0010
1000
0000
0010
0100
0000
0002
0000
0000
0000
,
1003
0000
0000
0000
0000
0000
0000
0000
0001
0000
0000
0000
0000
0000
0000
0000
0000
0000
0010
0000
0000
0000
0000
0000
0000
0000
0000
0100
0000
0000
0000
0000
0000
0000
0000
0000
0110
0000
0000
0000
0000
0000
0000
0000
0000
0000
0000
0000
,
0001
0000
0000
0000
0000
0000
0000
0000
1000
0000
0000
0000
0000
0000
0000
0000
0000
0000
0010
0000
0000
0000
0000
0000
0000
0000
0000
0100
0000
0000
0000
0000
0000
0000
0000
0000
0110
0000
0000
0000
0000
0000
0000
0000
0000
0000
0000
0000
,
1000
0000
0000
0000
0000
0000
0000
0000
0001
0000
0000
0000
0000
0000
0000
0000
0000
0000
0010
0000
0000
0000
0000
0000
0000
0000
0000
0100
0000
0000
0000
0000
0000
0000
0000
0000
0110
0000
0000
0000
0000
0000
0000
0000
0000
0000
0000
0000
,
1000
0100
0000
0000
0010
0000
0000
0001
0000
0000
0100
0000
0000
0010
0000
0000
,
0000
0000
0000
1001
0000
0000
0000
0000
0000
0000
0000
0000
1001
0000
0000
0000
0000
0000
0000
0000
1001
0000
0000
0000
0000
0000
0000
0000
0000
0000
0000
0100
0000
0000
0000
0000
0000
0110
0000
0000
0000
0000
0000
0000
0000
0000
0000
0000
,
0001
0000
0000
0000
0000
0000
0000
0000
0000
1000
0000
0000
0000
0000
0000
0000
0000
0000
0010
0000
0000
0000
0000
0000
0000
0000
0000
0000
0000
0100
0000
0000
0000
0000
0000
0000
0110
0000
0000
0000
0000
0000
0000
0000
0000
0000
0000
0000
,
0010
0000
0000
1000
0000
0000
0100
0000
0000
1000
0000
0000
1001
0000
0000
0000
,
0010
0000
0000
0000
0010
0000
0000
0001
0000
0000
0001
0000
0000
0100
0000
0000
,
0001
0000
0000
0001
0000
0000
0000
0001
0000
0100
0000
0000
0010
0000
0010
0000
,
0001
0000
0000
0001
0000
0000
0001
0000
0100
0000
0001
0000
0010
0000
0010
0000
,
0001
0000
0000
0001
0000
0000
0001
0000
0100
0000
0010
0000
1000
0000
1000
0000
,
0100
0000
0000
0000
1100
0000
0000
1100
0000
0000
1000
0000
0000
0001
0000
0000
,
1010
0000
0000
1010
0000
0000
1010
0000
1000
0000
1000
0000
0001
0000
0001
0000
,
1000
0000
0000
0001
0000
0000
1000
0000
1000
0000
0100
0000
0010
0000
0010
0000
,
0001
0000
0000
1000
0000
0000
0001
0000
0100
0000
0010
0000
0010
0000
0000
0000
,
1000
0100
1000
0100
1000
0010
1000
0000
,
0010
0000
0100
0000
0100
0010
1000
0010
,
1000
0100
0020
0000
0000
0230
0000
0000
,
1300
0010
0100
0010
1000
0100
1000
0010
,
0100
0000
0000
0000
0000
0000
0010
0000
0000
0000
0000
0000
2000
0000
0000
0000
0000
0000
0000
0000
0000
0000
0000
0000
0000
0000
0000
0000
0000
0000
0002
0000
0000
0000
0000
0000
0000
0000
0000
0000
0000
0000
0000
0000
0000
0003
3000
0000
,
2200
0000
0000
0000
0000
0000
0000
0000
0000
3300
0000
0000
1001
0000
0000
0000
0000
0000
2020
0000
0000
0000
0000
3030
,
2200
0000
0000
0000
0000
0000
0000
0000
0000
3300
0000
0000
1001
0000
0000
0000
0000
0000
2020
0000
0000
0000
0000
3030
,
0100
0001
0010
0001
0100
0010
2000
0000
,
3100
1000
0010
1000
0200
0000
0320
0000
,
0031
0000
0010
0000
0100
0010
0001
0010
,
0001
0100
0020
0000
0000
0230
0000
0000
,
0301
0010
0100
0010
0001
0100
0001
0010
,
0200
0000
0000
0000
0000
0000
0000
0000
2000
0000
0000
0000
0000
0000
3000
0300
,
0202
0000
0000
0000
0000
0000
0000
0000
0000
0303
0000
0000
2002
0000
0000
3003
0000
0000
0022
0000
0000
0000
0000
0033
,
0202
0000
0000
0000
0000
0000
0000
0000
0000
0000
0000
0000
0000
0000
0000
0000
0000
0000
0000
0000
0000
0303
0000
0000
1001
0000
0000
0000
0000
0000
0000
0000
0000
0000
0000
0000
0022
0000
0000
0000
0000
0000
0000
0000
0000
0000
0033
0000
,
0100
1000
0010
1000
0100
0000
2000
0000
,
3100
0001
0010
0001
0200
0000
0320
0030
,
0011
0001
0100
0010
0100
0010
1000
0001
,
0101
1000
0010
1000
0001
0010
0100
1000
,
1100
0100
1000
0001
0010
0100
0010
0001
,
1010
0000
1010
0000
1010
0000
1001
0000
1001
0000
1001
0000
,
0100
1000
0010
0100
0010
0100
0001
1000
,
1000
0001
0100
0001
1000
0100
0010
0001
,
0010
0100
1000
0001
0100
0010
0100
0001
,
0200
0300
0000
0000
0000
0000
0000
0000
0000
0000
0000
0000
0000
0000
0000
0000
0000
0000
0000
0000
0000
0000
0000
0000
;

//--------------- dance-single - Blood4Fame ----------------
#NOTES:
     dance-single:
     Blood4Fame:
     Challenge:
     12:
     0,0,0,0,0:
0000
0000
0000
0000
,
0000
0000
0000
0000
,
0000
0000
0000
0000
,
0000
0000
0000
0000
,
0000
0000
0000
0000
,
0000
0000
0000
0000
,
0000
0000
0000
0000
,
0000
0000
0000
0000
,
0011
0001
0100
0010
0100
0010
1000
0001
,
0101
1000
0010
1000
0001
0010
0100
1000
,
1100
0100
1000
0001
0010
0100
0010
0001
,
1010
0000
1010
0000
1010
0000
1001
0000
1001
0000
1001
0000
,
1100
1000
0010
0100
0010
0100
0001
1000
,
1010
0001
0100
0001
1000
0100
0010
0001
,
0011
0010
0001
1000
0100
0010
0100
1000
,
0101
0000
0000
0001
0000
0000
1001
0000
0000
1000
0000
0000
1001
0000
0000
0000
1000
0001
0000
0000
0000
0000
0000
0000
,
1000
0000
0000
0000
0010
1000
0000
0000
0000
0200
0000
0000
0000
0000
0000
0000
0000
0000
0310
0000
0000
0001
0000
0000
,
0100
0010
1000
0100
0010
0001
0100
0010
,
1000
0010
0100
0001
0010
0100
1000
0010
,
0100
0000
1000
0000
0010
0000
1000
0000
0001
0000
1000
0000
,
0000
1000
0100
0001
0100
1000
0010
0100
,
0000
0001
0100
0010
1000
0010
0100
0010
,
1000
0001
0010
0100
1000
0010
0100
0001
,
1000
0010
0100
0010
1000
0100
0010
0001
,
0200
0000
0300
0000
0100
0010
1000
0010
,
1000
0100
0020
0000
0000
0230
0000
0000
,
1300
0010
0100
0010
1000
0100
1000
0010
,
0100
0000
0000
0010
0000
0000
2000
0000
0000
0000
0000
0000
0000
0000
0000
0000
0002
0000
0000
0000
0000
0000
0000
3003
,
1100
0000
0000
0000
1100
0000
0000
0000
1100
0000
0000
0000
1001
0000
0000
0000
0000
0000
2020
0000
0000
0000
0000
3030
,
1100
0000
0000
0000
1100
0000
0000
0000
1100
0000
0000
0000
1001
0000
0000
0000
0000
0000
2020
0000
0000
0000
0000
3030
,
0100
0001
0010
0001
0100
0010
2000
0000
,
3100
1000
0010
1000
0200
0000
0320
0000
,
0031
0010
0100
0000
1000
0001
0100
0001
,
1000
0010
0100
0000
0001
0010
0100
0010
,
0001
0100
0010
0000
1000
0001
1000
0010
,
1000
0000
0001
0000
1000
0000
0100
0000
0100
0000
0100
0000
,
1010
1000
0100
0010
0100
0010
0001
1000
,
1100
0001
0010
0001
1000
0010
0100
0001
,
0101
0100
0001
1000
0010
0100
0010
1000
,
0011
0000
0011
0000
0011
0000
1001
0000
1001
0000
1001
0000
,
0101
0001
0010
0100
0010
0100
1000
0001
,
0011
1000
0100
1000
0001
0100
0010
1000
,
1010
0010
1000
0001
0100
0010
0100
0001
,
1100
0000
0000
1000
0000
0000
1001
0000
0000
0001
0000
0000
1001
0000
0000
0000
0001
1000
0000
0000
0000
0000
0000
0000
,
0001
0000
0000
0000
0010
0001
0000
0000
0000
0200
0000
0000
0000
0000
0000
0000
0000
0000
0310
0000
0000
1000
0000
0000
,
0100
0010
0001
0100
0010
1000
0100
0010
,
0001
0010
0100
1000
0010
0100
0001
0010
,
0100
0000
0001
0000
0010
0000
0001
0000
1000
0000
0001
0000
,
0010
0000
0100
2000
0000
3000
0010
0100
,
0001
1000
0100
0010
0001
0010
0100
0010
,
0001
1000
0010
0100
0001
0010
0100
1000
,
0010
0100
1000
0010
0100
2000
0000
0000
,
3001
0000
0100
0000
0001
0010
0001
0010
,
0001
0100
0020
0000
0000
0230
0000
0000
,
0301
0010
0100
0010
0001
0100
0001
0010
,
0100
0000
0000
0010
0000
0000
0002
0000
0000
0000
0000
0000
0000
0000
0000
0000
2000
0000
0000
0000
0000
0000
0000
3003
,
0101
0000
0000
0000
0101
0000
0000
0000
0101
0000
0000
0000
1001
0000
0000
0000
0000
0000
0022
0000
0000
0000
0000
0033
,
0101
0000
0000
0000
0101
0000
0000
0000
0101
0000
0000
0000
1001
0000
0000
0000
0000
0000
0022
0000
0000
0000
0000
0033
,
0100
1000
0010
1000
0100
0010
0002
0000
,
0103
0001
0010
0001
0200
0000
0320
0000
,
1030
0000
0000
0000
0000
0000
0010
0000
0000
0000
0001
0000
0000
0000
0100
0000
0000
0000
0020
0000
0000
0000
0000
1030
,
0001
0000
0000
0010
0000
0000
0001
0000
0000
0010
0000
0000
0200
0000
0000
0000
0000
1300
0001
0000
0000
0100
0000
0000
,
0001
0000
0000
0100
0000
0000
0020
0000
0000
0000
0000
1030
0001
0000
0000
0010
0000
0000
0001
0000
0000
0100
0000
0000
,
0010
0000
0000
1000
0000
0000
0000
0001
0000
0000
0000
0000
0020
0000
0000
0000
0000
0031
1000
0000
0000
0010
0000
0000
,
1000
0000
0000
0010
0000
0000
0200
0000
0000
0000
0000
0301
1000
0000
0000
0100
0000
0000
1000
0000
0000
0010
0000
0000
,
0200
0000
0000
0000
0000
0301
1000
0000
0000
0100
0000
0000
1000
0000
0000
0010
0000
0000
1000
0000
0000
0000
0010
0000
,
0000
0000
0100
0000
0000
0000
0020
0000
0000
0000
0000
1030
0001
0000
0000
0010
0000
0000
0001
0000
0000
0010
0000
0000
,
0200
0000
0000
0000
0000
1300
0001
0000
0000
0100
0000
0000
0001
0000
0000
0010
0000
0000
0200
0000
0000
0000
0000
1300
,
0001
0000
0000
0100
0000
0000
0001
0000
0000
1000
0000
0000
0010
0000
0000
0000
0100
0000
0000
0000
0001
0000
0000
0000
,
0020
0000
0000
0000
0000
1030
0001
0000
0000
0010
0000
0000
0011
0000
0000
0000
0000
0000
0020
0000
0000
0000
0000
0031
,
1000
0000
0000
0010
0000
0000
1010
0000
0000
0000
0000
0000
0200
0000
0000
0000
0000
1300
0001
0000
0000
0100
0000
0000
,
0101
0000
0000
0000
0000
0000
1000
0000
0000
0000
0010
0000
0000
0000
0100
0000
0000
0000
0020
0000
0000
0000
0000
1030
,
0001
0000
0000
0010
0000
0000
0001
0000
0100
0000
0000
0000
0020
0000
0000
0000
0000
0031
1000
0000
0000
0010
0000
0000
,
0010
0000
0100
0000
0010
0000
0200
0000
0000
0000
0000
0301
1000
0000
0000
0100
0000
0000
1100
0000
0000
0000
0000
0000
,
0001
0000
0000
0000
0010
0000
0000
0000
0100
0000
0000
0000
1000
0000
0000
0000
0000
1000
0010
0000
0000
1000
0000
0000
,
0010
0000
0000
0100
0000
0000
0001
0000
0000
1000
0001
0000
1000
0000
0000
0001
0000
0000
0010
0000
0000
0100
0000
0000
,
1000
0000
0000
0010
1000
0000
0010
0000
0000
0100
0000
0000
0001
0000
0000
0010
0000
0000
0100
0000
0000
0000
1001
0000
,
0000
0000
1010
0000
0000
0000
1001
0000
0000
0000
0000
0000
1100
0000
0000
0000
0000
0000
0001
0000
0000
0010
0000
0000
,
1001
0000
0101
0000
1000
0010
1001
0000
,
0110
0000
0000
0000
0000
0000
0010
0000
0000
0100
0000
0000
0001
0000
0000
0000
0010
0000
0000
0000
0100
0000
0000
0000
,
0002
0000
0000
1000
0000
0000
0100
0000
,
1000
0000
0000
0010
0000
0000
0100
0003
,
1001
0000
0000
0000
,
0000
0000
0000
0000
,
2001
0000
0010
0000
0100
0000
3001
1000
,
1002
0000
0010
0000
0100
0000
1003
0001
,
2001
0000
0100
0000
0010
0000
3001
1000
,
1002
0000
0100
0000
0010
0000
1003
0001
,
1000
0000
0000
1000
0000
0000
0011
0000
,
0100
0000
0000
0100
0000
0000
0011
0000
,
1100
0000
0000
1100
0000
0000
0011
0000
,
0001
1000
0000
0010
1000
0000
0010
1000
0000
0010
0100
0000
0002
0000
0000
0000
,
1003
0000
0000
0000
0000
0000
0000
0000
0001
0000
0000
0000
0000
0000
0000
0000
0000
0000
0010
0000
0000
0000
0000
0000
0000
0000
0000
0100
0000
0000
0000
0000
0000
0000
0000
0000
0110
0000
0000
0000
0000
0000
0000
0000
0000
0000
0000
0000
,
0001
0000
0000
0000
0000
0000
0000
0000
1000
0000
0000
0000
0000
0000
0000
0000
0000
0000
0010
0000
0000
0000
0000
0000
0000
0000
0000
0100
0000
0000
0000
0000
0000
0000
0000
0000
0110
0000
0000
0000
0000
0000
0000
0000
0000
0000
0000
0000
,
1000
0000
0000
0000
0000
0000
0000
0000
0001
0000
0000
0000
0000
0000
0000
0000
0000
0000
0010
0000
0000
0000
0000
0000
0000
0000
0000
0100
0000
0000
0000
0000
0000
0000
0000
0000
0110
0000
0000
0000
0000
0000
0000
0000
0000
0000
0000
0000
,
1000
0000
0000
0100
0000
0000
0000
0000
0000
0000
0000
0000
0010
0000
0000
0000
0000
0000
0000
0000
0000
0001
0000
0000
0000
0000
0000
0000
0000
0000
0100
0000
0000
0000
0000
0000
0000
0000
0000
0010
0000
0000
0000
0000
1000
0000
0000
0000
,
0000
0000
0000
1001
0000
0000
0000
0000
0000
0000
0000
0000
1001
0000
0000
0000
0000
0000
0000
0000
1001
0000
0000
0000
0000
0000
0000
0000
0000
0000
0000
0100
0000
0000
0000
0000
0000
0110
0000
0000
0000
0000
0000
0000
0000
0000
0000
0000
,
0001
0000
0000
0000
0000
0000
0000
0000
0000
1000
0000
0000
0000
0000
0000
0000
0000
0000
0010
0000
0000
0000
0000
0000
0000
0000
0000
0000
0000
0100
0000
0000
0000
0000
0000
0000
0110
0000
0000
0000
0000
0000
0000
0000
0000
0000
0000
0000
,
0010
0000
0000
1000
0000
0000
0100
0000
0000
1000
0000
0000
1001
0000
0000
0000
,
0010
0001
0000
0000
0010
0000
0000
0001
0000
0000
0001
0000
0000
0100
0000
0000
,
0001
0000
0000
0001
0000
0000
0000
0001
0000
0100
0000
0000
0010
0000
0010
0000
,
0001
0000
0000
0001
0000
0000
0001
0000
0100
0000
0001
0000
0010
0000
0010
0000
,
0001
0000
0000
0001
0000
0000
0001
0000
0100
0000
0010
0000
1000
0000
1000
0000
,
0100
1000
0000
0000
1100
0000
0000
1100
0000
0000
1000
0000
0000
0001
0000
0000
,
1010
0000
0000
1010
0000
0000
1010
0000
1000
0000
1000
0000
0001
0000
0001
0000
,
1000
0000
0000
0001
0000
0000
1000
0000
1000
0000
0100
0000
0010
0000
0010
0000
,
0001
0000
0000
1000
0000
0000
0001
0000
0100
0000
0010
0000
0010
0000
0000
0000
,
1000
0100
1000
0100
1000
0010
1000
1000
,
0010
0000
0100
0000
0100
0010
1000
0010
,
1000
0100
0020
0000
0000
0230
0000
0000
,
1300
0010
0100
0010
1000
0100
1000
0010
,
0100
0000
0000
0000
0000
0000
0010
0000
0000
0000
0000
0000
2000
0000
0000
0000
0000
0000
0000
0000
0000
0000
0000
0000
0000
0000
0000
0000
0000
0000
0002
0000
0000
0000
0000
0000
0000
0000
0000
0000
0000
0000
0000
0000
0000
0003
3000
0000
,
2200
0000
0000
0000
0000
0000
0000
0000
0000
3300
0000
0000
1001
0000
0000
0000
0000
0000
2020
0000
0000
0000
0000
3030
,
2200
0000
0000
0000
0000
0000
0000
0000
0000
3300
0000
0000
1001
0000
0000
0000
0000
0000
2020
0000
0000
0000
0000
3030
,
0100
0001
0010
0001
0100
0010
2000
0000
,
3100
1000
0010
1000
0200
0000
0320
0000
,
0031
0000
0010
0000
0100
0010
0001
0010
,
0001
0100
0020
0000
0000
0230
0000
0000
,
0301
0010
0100
0010
0001
0100
0001
0010
,
0200
0000
0000
0000
0000
0000
0000
0000
2000
0000
0000
0000
0000
0000
3000
0300
,
0202
0000
0000
0000
0000
0000
0000
0000
0000
0303
0000
0000
2002
0000
0000
3003
0000
0000
0022
0000
0000
0000
0000
0033
,
0202
0000
0000
0000
0000
0000
0000
0000
0000
0000
0000
0000
0000
0000
0000
0000
0000
0000
0000
0000
0000
0303
0000
0000
1001
0000
0000
0000
0000
0000
0000
0000
0000
0000
0000
0000
0022
0000
0000
0000
0000
0000
0000
0000
0000
0000
0033
0000
,
0100
1000
0010
1000
0100
0000
2000
0000
,
3100
0001
0010
0001
0200
0000
0320
0030
,
0011
0001
0100
0010
0100
0010
1000
0001
,
0101
1000
0010
1000
0001
0010
0100
1000
,
1100
0100
1000
0001
0010
0100
0010
0001
,
1010
0000
1010
0000
1010
0000
1001
0000
1001
0000
1001
0000
,
1100
1000
0010
0100
0010
0100
0001
1000
,
1010
0001
0100
0001
1000
0100
0010
0001
,
0011
0010
0001
1000
0100
0010
0100
1000
,
0202
0303
0000
0000
0000
0000
0000
0000
0000
0000
0000
0000
0000
0000
0000
0000
0000
0000
0000
0000
0000
0000
0000
0000
;
