#TITLE:El Beeper;
#SUBTITLE:;
#ARTIST:Oro Solido;
#TITLETRANSLIT:The Beeper;
#SUBTITLETRANSLIT:;
#ARTISTTRANSLIT:Solid Gold;
#GENRE:Latin;
#CREDIT:Blood4Fame;
#MUSIC:music.mp3;
#BANNER:banner.png;
#BACKGROUND:bg.png;
#CDTITLE:;
#SAMPLESTART:0.000;
#SAMPLELENGTH:0.000;
#SELECTABLE:YES;
#OFFSET:-0.436;
#BPMS:0.000=170.853;
#STOPS:;
#BGCHANGES:;
#FGCHANGES:;

//--------------- dance-single - Blood4Fame ----------------
#NOTES:
     dance-single:
     Blood4Fame:
     Easy:
     3:
     0,0,0,0,0:
0000
0000
0000
0000
,
0000
0000
0000
0000
,
0000
0000
0000
0000
,
0000
0000
0000
0000
,
1000
0000
0100
0000
,
1000
0000
0100
0000
,
0010
0000
0001
0000
,
0010
0000
0001
0000
,
1000
0100
1000
0100
,
1000
0100
1000
0100
,
0010
0001
0010
0001
,
0010
0001
0010
0001
,
1000
0000
0000
0000
,
0001
0000
0000
0000
,
1000
0000
0000
0000
,
0010
0000
0000
0000
,
0100
0000
0000
0000
,
0100
0000
0000
0000
,
0010
0000
1000
0000
,
0100
0000
0000
0000
,
0001
0000
0000
0000
,
1000
0000
0000
0000
,
0001
0000
0010
0000
,
0100
0000
0000
0000
,
1000
0000
1000
0100
,
0010
0000
0001
0010
,
0100
0000
1000
0100
,
0010
0000
0001
0100
,
0010
0000
1000
0100
,
0010
0000
0001
0010
,
0100
0000
1000
0100
,
0010
0000
0001
0100
,
0010
0000
1000
0100
,
0010
0000
0001
0010
,
0100
0000
1000
0100
,
0010
0000
0001
0010
,
0100
0000
1000
0100
,
0010
0000
0001
0010
,
0100
0000
1000
0100
,
0020
0000
0000
0030
,
0000
1000
1000
0000
,
0000
0001
0001
0000
,
0100
0100
0100
0100
,
0100
0000
0000
0000
,
0000
1000
1000
0000
,
0000
0010
0010
0000
,
0100
0100
0100
0100
,
0100
0000
0000
0010
,
0010
0000
1000
0000
,
0001
0000
0100
0000
,
0010
0000
1000
0000
,
0100
0000
0000
0000
,
0011
0000
0011
0000
,
1100
0000
1100
0000
,
1010
0000
1010
0000
,
0101
0000
0000
0000
,
1000
1000
1000
0000
,
0001
0001
0001
0000
,
1000
1000
1000
0000
,
0100
0100
0100
0000
,
1000
1000
1000
0000
,
0001
0001
0001
0000
,
1000
1000
1000
0000
,
0010
0010
0010
0000
,
1000
0000
0100
0000
,
0010
0000
0001
0000
,
0100
0000
0010
0000
,
2000
0000
3000
0000
,
1000
0000
1000
0000
,
0001
0000
0001
0000
,
0010
0000
0100
0000
,
0020
0000
0000
0030
;

//--------------- dance-single - Blood4Fame ----------------
#NOTES:
     dance-single:
     Blood4Fame:
     Medium:
     7:
     0,0,0,0,0:
0000
0000
0000
0000
,
0000
0000
0000
0000
,
0000
0000
0000
0000
,
0000
0000
0000
0000
,
1000
0000
1000
0100
1000
0000
0010
0000
,
0001
0000
1000
0100
0010
0000
0100
0000
,
0001
0000
0001
0010
0001
0000
0100
0000
,
1000
0000
0001
0100
0001
0000
0100
0000
,
1000
0000
1000
0100
1000
0000
0010
0000
,
0001
0000
1000
0100
0010
0000
0100
0000
,
0001
0000
0001
0010
0001
0000
0100
0000
,
1000
0000
0001
0100
0001
0000
0100
0000
,
1000
0000
1000
0100
1000
0000
0010
0000
,
0001
0000
1000
0100
0010
0000
0100
0000
,
0001
0000
0001
0010
0001
0000
0100
0000
,
1000
0000
0001
0100
0001
0000
0100
0000
,
1000
0000
0000
0000
,
0110
0000
0000
0000
,
0010
0000
0000
1000
0000
0000
0010
0000
1000
0000
0000
0100
0000
0000
1000
0000
,
0100
0000
0000
0000
,
1100
0000
0000
0000
,
0011
0000
0000
0000
,
0010
0000
0000
0001
0000
0000
0010
0000
0100
0000
0000
1000
0000
0000
0100
0000
,
1000
0000
0000
0000
0000
0000
0100
1000
,
0100
0000
1000
0000
0100
0000
1000
0010
,
1000
0000
0010
0000
1000
0000
0100
1000
,
0100
0000
1000
0000
0100
0000
1000
0010
,
1000
0000
0010
0000
1000
0000
0100
1000
,
0100
0000
1000
0000
0100
0000
1000
0010
,
1000
0000
0010
0000
1000
0000
0100
1000
,
0100
0000
1000
0000
0100
0000
1000
0010
,
1000
0000
0100
0000
0100
0000
0010
0001
,
0010
0000
0001
0000
0010
0000
0001
0100
,
0001
0000
0100
0000
0001
0000
0010
0001
,
0010
0000
0001
0000
0010
0000
0001
0100
,
0001
0000
0100
0000
0001
0000
0010
0001
,
0010
0000
0001
0000
0010
0000
0001
0100
,
0001
0000
0100
0000
0001
0000
0010
0001
,
0010
0000
0001
0000
0010
0000
0001
0100
,
0002
0000
0000
0000
0000
0003
0100
0000
,
1000
0000
1000
0100
1000
0000
0100
0000
,
0001
0000
0001
0100
0001
0000
0100
0010
,
1000
0000
1000
0100
1000
0000
0100
0010
,
0001
0000
0001
0100
0001
0000
0100
0000
,
1000
0000
1000
0100
1000
0000
0100
0000
,
0001
0000
0001
0100
0001
0000
0100
0010
,
1000
0000
1000
0100
1000
0000
0100
0010
,
0001
0000
0001
0100
0001
0000
0100
0000
,
1100
0000
0011
0000
,
0110
0000
1100
0000
,
0011
0000
0110
0000
,
1100
0000
0000
1001
,
0001
0100
0000
0000
0000
0000
0000
0000
0010
0100
0000
0000
0000
0000
0000
0000
,
0001
1000
0000
0000
0000
0000
0000
0000
0100
1000
0000
0000
0000
0000
0000
0000
,
0001
0010
0000
0000
0000
0000
0000
0000
0010
0001
0000
0000
0000
0000
0000
0000
,
0100
0000
0000
0000
0000
0000
0100
0010
,
0200
0300
0001
0000
0010
0000
1000
0001
,
0020
0030
0001
0000
0100
0000
1000
0010
,
0200
0300
0001
0000
0010
0000
1000
0001
,
0020
0030
0001
0000
0100
0000
1000
0001
,
0200
0300
0010
0000
0010
0000
1000
0001
,
0020
0030
0001
0000
0100
0000
1000
0001
,
0200
0300
0010
0000
0010
0000
1000
0001
,
0020
0030
0001
0000
0100
0000
1000
0000
,
0100
0000
0000
1000
0000
0000
0100
0000
1000
0000
0000
0100
0000
0000
1000
0000
,
0010
0000
0000
1000
0000
0000
0010
0000
0100
0000
0000
0010
0000
0000
0100
0000
,
0001
0000
0000
1000
0000
0000
0001
0000
1000
0000
0000
0001
0000
0000
1000
0000
,
0002
0000
0000
0003
0000
0000
0000
0000
,
0010
0000
0000
1000
0000
0000
0010
0000
1000
0000
0000
0010
0000
0000
1000
0000
,
0001
0000
0000
0010
0000
0000
0001
0000
0010
0000
0000
0100
0000
0000
0010
0000
,
0100
0000
0000
1000
0000
0000
0100
0000
1000
0000
0000
0001
0000
0000
1000
0000
,
0002
0000
0000
0000
,
0003
0000
0000
0000
;

//--------------- dance-single - Blood4Fame ----------------
#NOTES:
     dance-single:
     Blood4Fame:
     Hard:
     9:
     0,0,0,0,0:
0000
0000
0000
0000
,
0000
0000
0000
0000
,
0000
0000
0000
0000
,
0000
0000
0000
0000
,
1000
0100
0000
0000
1000
0000
0100
0000
1000
0000
0100
0000
0010
0000
0001
0000
,
1000
0100
0000
0000
1000
0000
0100
0000
0010
0000
0001
0000
0100
0000
0100
0000
,
0001
0010
0000
0000
0001
0000
0010
0000
0001
0000
0100
0000
0100
0000
0001
0000
,
0001
0010
0000
0000
0001
0000
0100
0000
0001
0000
0100
0000
0100
0000
0010
0000
,
1000
0100
0000
0000
1000
0000
0100
0000
1000
0000
0100
0000
0010
0000
0001
0000
,
1000
0100
0000
0000
1000
0000
0100
0000
0010
0000
0001
0000
0100
0000
0100
0000
,
0001
0010
0000
0000
0001
0000
0010
0000
0001
0000
0100
0000
0100
0000
0001
0000
,
0001
0010
0000
0000
0001
0000
0100
0000
0001
0000
0100
0000
0100
0000
0010
0000
,
1000
0100
0000
0000
1000
0000
0100
0000
1000
0000
0100
0000
0010
0000
0001
0000
,
1000
0100
0000
0000
1000
0000
0100
0000
0010
0000
0001
0000
0100
0000
0100
0000
,
0001
0010
0000
0000
0001
0000
0010
0000
0001
0000
0100
0000
0100
0000
0001
0000
,
0001
0010
0000
0000
0001
0000
0100
0000
0001
0000
0100
0000
0100
0000
0010
0000
,
1000
0000
0000
0000
,
0110
0000
0000
0000
,
0010
0000
0000
0010
0000
0000
0010
0000
1000
0000
0000
1000
0000
0000
1000
0000
,
0100
0000
0000
0000
,
1000
0100
0000
0000
0000
0000
0000
0000
0000
0000
0000
0000
0000
0000
0000
0000
,
0011
0000
0000
0000
,
0010
0000
0000
0010
0000
0000
0010
0000
0100
0000
0000
0100
0000
0000
0100
0000
,
1000
0000
0000
0000
0000
0000
0100
1000
,
0100
0000
1000
0010
0100
0001
1000
0010
,
1000
0000
0010
0100
0010
1000
0100
1000
,
0100
0000
1000
0010
0100
0001
1000
0010
,
1000
0000
0010
0100
0010
1000
0100
1000
,
0100
0000
1000
0010
0100
0001
1000
0010
,
1000
0000
0010
0100
0010
1000
0100
1000
,
0100
0000
1000
0010
0100
0001
1000
0010
,
1000
0000
0010
0100
0010
1000
0100
1000
,
0100
0000
1000
0010
0100
0001
1000
0010
,
1000
0000
0010
0100
0010
1000
0100
1000
,
0100
0000
1000
0010
0100
0001
1000
0010
,
1000
0000
0010
0100
0010
1000
0100
1000
,
0100
0000
1000
0010
0100
0001
1000
0010
,
1000
0000
0010
0100
0010
1000
0100
1000
,
0100
0000
1000
0010
0100
0001
1000
0010
,
2000
0000
0000
0000
3000
0001
0100
0010
,
1000
0100
0000
0000
1000
0000
0100
0000
1000
0000
0100
0000
0010
0000
0001
0000
,
1000
0100
0000
0000
1000
0000
0100
0000
0010
0000
0001
0000
0100
0000
0100
0000
,
0001
0010
0000
0000
0001
0000
0010
0000
0001
0000
0100
0000
0100
0000
0001
0000
,
0001
0010
0000
0000
0001
0000
0100
0000
0001
0000
0100
0000
0100
0000
0010
0000
,
1000
0100
0000
0000
1000
0000
0100
0000
1000
0000
0100
0000
0010
0000
0001
0000
,
1000
0100
0000
0000
1000
0000
0100
0000
0010
0000
0001
0000
0100
0000
0100
0000
,
0001
0010
0000
0000
0001
0000
0010
0000
0001
0000
0100
0000
0100
0000
0001
0000
,
0001
0010
0000
0000
0001
0000
0100
0000
0001
0000
0100
0000
0100
0000
0010
0000
,
1000
1000
0100
0100
0010
0010
0001
0001
,
0100
0100
0010
0010
1000
1000
0100
0100
,
0010
0010
0001
0001
0100
0100
0010
0010
,
1000
0000
1000
0000
0000
0000
0000
0000
0000
0000
0000
1000
0100
0000
0000
0000
,
0001
0100
0000
0000
0001
1000
0000
0000
0010
0100
0000
0000
0010
1000
0000
0000
,
0001
1000
0000
0000
0100
0010
0000
0000
0100
1000
0000
0000
0001
0100
0000
0000
,
0001
0010
0000
0000
0001
0100
0000
0000
0010
1000
0000
0000
0100
1000
0000
0000
,
0100
0100
0100
0010
0010
0001
0100
0010
,
0200
0300
0001
0100
0010
0000
1000
0001
,
0020
0000
0030
0010
0001
0000
0010
0000
0100
0000
0000
0000
1000
0000
1000
0000
,
0200
0000
0300
0100
1000
0000
0100
0000
0010
0000
0000
0000
0001
0000
0001
0000
,
0020
0000
0030
0010
0001
0000
0010
0000
0100
0000
0000
0000
1000
0000
1000
0000
,
0200
0000
0300
0100
1000
0000
0100
0000
0010
0000
0000
0000
0001
0000
0001
0000
,
0020
0000
0030
0010
0001
0000
0010
0000
0100
0000
0000
0000
1000
0000
1000
0000
,
0200
0000
0300
0100
1000
0000
0100
0000
0010
0000
0000
0000
0001
0000
0001
0000
,
0020
0000
0030
0010
0001
0000
0010
0000
0100
0000
0000
0000
1000
0000
1000
0000
,
0100
0000
0000
0100
0000
0000
0100
0000
1000
0000
0000
1000
0000
0000
1000
0000
,
0010
0000
0000
0010
0000
0000
0010
0000
0100
0000
0000
0100
0000
0000
0100
0000
,
0001
0000
0000
0001
0000
0000
0001
0000
1000
0000
0000
1000
0000
0000
1000
0000
,
2000
0000
0000
3000
0010
0000
0100
0000
0010
0000
0000
0000
1000
0000
0000
0000
,
0010
0000
0000
0010
0000
0000
0010
0000
1000
0000
0000
1000
0000
0000
1000
0000
,
0001
0000
0000
0001
0000
0000
0001
0000
0010
0000
0000
0010
0000
0000
0010
0000
,
0100
0000
0000
0100
0000
0000
0100
0000
1000
0000
0000
1000
0000
0000
1000
0000
,
0002
0000
0000
0000
,
0003
0000
0000
0000
;

//--------------- dance-single - Blood4Fame ----------------
#NOTES:
     dance-single:
     Blood4Fame:
     Challenge:
     11:
     0,0,0,0,0:
0000
0000
0000
0000
,
0000
0000
0000
0000
,
0000
0000
0000
0000
,
0000
0000
0000
0000
,
1000
0100
0010
0000
0001
0000
0100
0000
0001
0000
0100
0000
0010
0000
1000
0000
,
1000
0100
0010
0000
0001
0000
0100
0000
0010
0000
1000
0000
0100
0000
0010
0000
,
0001
0010
0100
0000
1000
0000
0010
0000
1000
0000
0100
0000
0010
0000
0001
0000
,
0001
0010
0100
0000
1000
0000
0100
0000
0010
0000
0001
0000
0100
0000
0010
0000
,
1000
0100
0010
0000
0001
0000
0100
0000
0001
0000
0100
0000
0010
0000
1000
0000
,
1000
0100
0010
0000
0001
0000
0100
0000
0010
0000
1000
0000
0100
0000
0010
0000
,
0001
0010
0100
0000
1000
0000
0010
0000
1000
0000
0100
0000
0010
0000
0001
0000
,
0001
0010
0100
0000
1000
0000
0100
0000
0010
0000
0001
0000
0100
0000
0010
0000
,
1000
0000
0000
0001
1000
0000
0100
0000
0001
0000
0100
0000
1000
0000
0100
0000
,
1000
0001
0000
0000
1000
0000
0100
0000
0001
0000
0100
0000
0010
0000
0001
0000
,
1000
0000
0000
0001
1000
0000
0100
0000
0001
0000
0100
0000
1000
0000
0100
0000
,
1000
0001
0000
0000
1000
0000
0100
0000
0001
0000
0100
0000
0010
0000
0001
0000
,
1000
0001
0000
0000
0000
0000
0000
0000
0000
0000
0000
0000
0000
0000
0000
0000
,
0110
0000
0000
0000
,
1010
0000
0000
0010
0000
0000
0010
0000
0010
0000
0000
0010
0000
0000
0010
0000
,
1000
0000
0000
0000
,
0100
1000
0000
0000
0000
0000
0000
0000
0000
0000
0000
0000
0000
0000
0000
0000
,
0011
0000
0000
0000
,
0101
0000
0000
0100
0000
0000
0100
0000
0100
0000
0000
0100
0000
0000
0100
0000
,
0001
0000
0000
0000
0000
0000
0100
1000
,
0100
0000
0000
0100
1000
0000
0010
0000
0100
0000
0001
0000
1000
0000
0010
0000
,
1000
0000
0000
0001
0010
0000
0100
0000
0010
0000
0001
0000
0100
0000
0001
0000
,
0100
0000
0000
0100
0001
0000
0010
0000
0100
0000
1000
0000
0001
0000
0010
0000
,
0001
0000
0000
1000
0010
0000
0100
0000
0010
0000
1000
0000
0100
0000
1000
0000
,
0100
0000
0000
0100
1000
0000
0010
0000
0100
0000
0001
0000
1000
0000
0010
0000
,
1000
0000
0000
0001
0010
0000
0100
0000
0010
0000
0001
0000
0100
0000
0001
0000
,
0100
0000
0000
0100
0001
0000
0010
0000
0100
0000
1000
0000
0001
0000
0010
0000
,
0001
0000
0000
1000
0010
0000
0100
0000
0010
0000
1000
0000
0100
0000
1000
0000
,
0100
0000
0000
0100
1000
0000
0010
0000
0100
0000
0001
0000
1000
0000
0010
0000
,
1000
0000
0000
0001
0010
0000
0100
0000
0010
0000
0001
0000
0100
0000
0001
0000
,
0100
0000
0000
0100
0001
0000
0010
0000
0100
0000
1000
0000
0001
0000
0010
0000
,
0001
0000
0000
1000
0010
0000
0100
0000
0010
0000
1000
0000
0100
0000
1000
0000
,
0100
0000
0000
0100
1000
0000
0010
0000
0100
0000
0001
0000
1000
0000
0010
0000
,
1000
0000
0000
0001
0010
0000
0100
0000
0010
0000
0001
0000
0100
0000
0001
0000
,
0100
0000
0000
0100
0001
0000
0010
0000
0100
0000
1000
0000
0001
0000
0010
0000
,
0002
0000
0010
0010
0013
0001
0100
0010
,
1000
0100
0010
0000
0001
0000
0100
0000
0001
0000
0100
0000
0010
0000
1000
0000
,
1000
0100
0010
0000
0001
0000
0100
0000
0010
0000
1000
0000
0100
0000
0010
0000
,
0001
0010
0100
0000
1000
0000
0010
0000
1000
0000
0100
0000
0010
0000
0001
0000
,
0001
0010
0100
0000
1000
0000
0100
0000
0010
0000
0001
0000
0100
0000
0010
0000
,
1000
0100
0010
0000
0001
0000
0100
0000
0001
0000
0100
0000
0010
0000
1000
0000
,
1000
0100
0010
0000
0001
0000
0100
0000
0010
0000
1000
0000
0100
0000
0010
0000
,
0001
0010
0100
0000
1000
0000
0010
0000
1000
0000
0100
0000
0010
0000
0001
0000
,
0001
0010
0100
0000
1000
0000
0100
0000
0010
0000
0001
0000
0100
0000
0010
0000
,
1000
0100
1000
0000
0100
0010
0100
0000
0010
0001
0010
0000
0001
0100
0001
0000
,
0100
0010
0100
0000
0010
1000
0010
0000
1000
0100
1000
0000
0100
0010
0100
0000
,
0010
0001
0010
0000
0001
0100
0001
0000
0100
0010
0100
0000
0010
1000
0010
0000
,
1000
0100
1000
0000
0000
0000
0000
0000
0000
0000
0000
1000
0100
0000
0010
0000
,
0001
0100
0000
0000
0001
1000
0000
0000
0010
0100
0000
0000
0010
1000
0000
0000
,
0001
1000
0000
0000
0100
0010
0000
0000
0100
1000
0000
0000
0001
0100
0000
0000
,
0001
0010
0000
0000
0001
0100
0000
0000
0010
1000
0000
0000
0100
1000
0000
0000
,
0100
0010
0100
0000
0100
0000
0010
0000
0010
0000
0001
0000
0100
0010
1000
0000
,
0200
0000
0300
0100
1000
0000
0100
0000
0010
0000
0000
0000
0001
0100
0001
0000
,
0020
0000
0030
0010
0001
0000
0010
0000
0100
0000
0000
0000
1000
0010
1000
0000
,
0200
0000
0300
0100
1000
0000
0100
0000
0010
0000
0000
0000
0001
0100
0001
0000
,
0020
0000
0030
0010
0001
0000
0010
0000
0100
0000
0000
0000
1000
0010
1000
0000
,
0200
0000
0300
0100
1000
0000
0100
0000
0010
0000
0000
0000
0001
0100
0001
0000
,
0020
0000
0030
0010
0001
0000
0010
0000
0100
0000
0000
0000
1000
0010
1000
0000
,
0200
0000
0300
0100
1000
0000
0100
0000
0010
0000
0000
0000
0001
0100
0001
0000
,
0020
0000
0030
0010
0001
0000
0010
0000
0100
0000
0000
0000
1000
0010
1000
0000
,
0100
0000
0000
0100
0000
0000
0100
0000
0100
0000
0000
0100
0000
0000
0100
0000
,
0010
0000
0000
0010
0000
0000
0010
0000
0010
0000
0000
0010
0000
0000
0010
0000
,
0001
0000
0000
0001
0000
0000
0001
0000
0001
0000
0000
0001
0000
0000
0001
0000
,
2000
0000
0000
3100
0010
0000
0100
0000
0010
0000
0000
0000
0001
0100
0001
0000
,
0010
0000
0000
0010
0000
0000
0010
0000
0010
0000
0000
0010
0000
0000
0010
0000
,
0001
0000
0000
0001
0000
0000
0001
0000
0001
0000
0000
0001
0000
0000
0001
0000
,
0100
0000
0000
0100
0000
0000
0100
0000
0100
0000
0000
0100
0000
0000
0100
0000
,
2000
0000
0000
0000
,
3000
0000
0000
0000
;
