#TITLE:Duel of Fates;
#SUBTITLE:(Hardstyle Remix);
#ARTIST:Fallen Superhero;
#TITLETRANSLIT:;
#SUBTITLETRANSLIT:;
#ARTISTTRANSLIT:;
#GENRE:EDM;
#CREDIT:Blood4Fame;
#MUSIC:music.mp3;
#BANNER:banner.png;
#BACKGROUND:bg.png;
#CDTITLE:;
#SAMPLESTART:0.000;
#SAMPLELENGTH:0.000;
#SELECTABLE:YES;
#OFFSET:-0.679;
#BPMS:0.000=150.000
,16.000=75.000
,18.000=150.000
,78.000=75.000
,80.000=150.000
,96.000=75.000
,96.250=230.000
,97.000=150.000
,109.000=75.000
,110.250=220.000
,111.000=150.000
,141.000=300.000
,143.000=150.000
,144.000=300.000
,146.000=150.000
,147.000=300.000
,149.000=150.000
,150.000=300.000
,152.000=150.000
,161.000=18.750
,163.000=150.000
,299.000=300.000
,315.000=600.000
,331.000=75.000
,333.000=150.000
,413.000=300.000
,429.000=600.000
,445.000=150.000
,529.000=300.000
,545.000=600.000
,577.000=150.000
;
#STOPS:124.000=0.800;
#BGCHANGES:-1.279=video.mp4=1.000=1=0=1===CrossFade==,
99999.000=-nosongbg-=1.000=0=0=0=StretchNoLoop====;
#FGCHANGES:;

//--------------- dance-single - Blood4Fame ----------------
#NOTES:
     dance-single:
     Blood4Fame:
     Beginner:
     4:
     0,0,0,0,0:
2000
0000
0000
0000
,
0000
0000
0000
3000
,
0010
0020
0000
0000
,
0000
0000
0000
0000
,
0000
0000
0000
0030
0200
0000
0000
0000
,
0000
0000
0000
0000
,
0000
0300
0001
0001
,
0002
0000
0000
0000
,
0000
0003
2000
0000
,
0000
0000
0000
0000
,
0000
0000
0000
0000
,
0000
0000
0000
0000
,
0000
3000
0100
0000
,
0100
0000
0100
0000
,
0100
0100
0010
0000
,
0010
0000
0010
0000
,
0010
0010
1000
0000
,
1000
0000
1000
0000
,
1000
1000
0001
0000
,
0001
0000
0000
0000
0100
0000
0000
0010
,
0010
0010
0010
0010
,
0010
0010
0010
0010
,
0100
0100
0100
0100
,
0100
0100
0100
0000
0000
0000
0000
0000
,
0000
1000
1000
1000
,
1000
0000
1000
0000
1000
1000
1000
0000
,
0001
0001
0001
0001
,
0002
0000
0000
1003
,
0000
0010
0000
1000
,
0000
0010
0000
0100
,
0000
0000
0001
0000
0000
0000
0100
0100
,
0100
1000
0000
0010
,
0000
1000
0000
0010
,
0000
0000
0001
0000
0100
0100
0100
0000
,
0000
0002
0000
0000
,
0003
0100
0000
0000
,
0100
0000
0000
0100
,
0000
0000
0100
0000
,
0000
1000
0000
0100
,
0000
1000
0000
0001
,
0000
0000
0000
0100
,
0000
0000
0000
0000
,
0000
0100
0000
0100
0000
0000
0001
0000
,
0000
0000
0000
0100
,
0000
0010
0000
0010
0000
0000
2000
0000
,
0000
0000
0000
0000
,
3000
1000
0000
1000
0000
0000
0001
0000
,
0002
0000
0000
0000
0000
0003
0002
0000
,
0003
0001
0000
0001
0000
0000
0020
0000
,
0000
0000
0000
0000
0000
0030
0020
0000
,
0030
0010
0000
0010
0000
0000
0100
0000
,
0100
0000
0200
0000
0000
0300
0200
0000
,
0300
0100
0000
0100
0000
0000
1000
0000
,
0000
0000
0000
0001
,
0000
0000
0000
0010
,
0000
0010
0000
1000
,
0000
1000
0000
0001
,
0000
0001
0000
0100
,
0000
0100
0000
0010
,
0000
0001
0000
1000
,
0000
0010
0000
0100
,
0000
0010
0000
1000
,
0000
0001
0000
0100
,
0000
0100
0000
0100
,
0000
0100
0000
0010
,
0000
0010
0000
0010
,
0000
0010
0000
1000
,
0000
1000
0000
1000
,
0000
1000
0000
0001
,
0000
0001
0000
0001
,
0000
0001
0000
1000
,
0000
0010
0000
1000
,
0000
0100
0000
1000
,
0000
0010
0000
1000
,
0000
0100
0000
0010
,
0000
0000
0000
0010
,
0000
0000
0000
0010
,
0000
0000
0000
0010
,
0000
0000
0000
0200
,
0000
0000
0000
0000
,
0000
0000
0000
0000
,
0000
0000
0000
0000
,
0000
0300
0000
0000
0000
0000
0010
0000
,
0000
0100
0100
0100
,
0100
0100
0100
0100
,
0000
0010
0010
0010
,
0010
0010
0010
0010
,
0000
1000
1000
1000
,
1000
1000
1000
1000
,
0000
0001
0001
0001
,
0001
0001
0000
0000
,
0000
0010
0010
0010
,
0010
0001
0001
0001
,
0001
0001
0100
0000
0100
0000
0100
0000
,
0100
0000
1000
0000
1000
0000
1000
1000
,
0000
1000
1000
0000
0010
0000
0010
0000
,
0010
0100
0100
0100
,
0100
0010
0010
0010
,
0010
0110
0000
0000
,
0000
1000
0000
0001
,
0000
1000
0000
0001
,
0000
1000
0000
0001
,
0000
1000
0000
0001
,
0000
1000
0000
0000
,
0000
1000
0000
0000
,
0000
0100
0000
0000
,
0000
0100
0000
0000
,
0000
0020
0000
0000
,
0000
0000
0000
0000
,
0000
0000
0000
0000
,
0000
0000
0000
0000
,
0000
0130
0000
0000
,
0000
1000
1000
1000
,
0000
0001
0001
0001
,
0000
1000
1000
1000
,
0000
0001
0001
0001
,
0000
0010
0010
0010
,
0000
0100
0100
0100
,
0000
0010
0010
0010
,
0010
0010
0000
0000
,
0000
1000
1000
1000
,
0000
0001
0001
0001
,
0000
1000
1000
1000
,
0000
0001
0001
0001
,
0000
0100
0100
0100
,
0000
0010
0010
0010
,
0000
0100
0100
0100
,
0100
0100
0000
0000
,
0000
1000
0000
0001
,
0000
1000
0000
0001
,
0000
0010
0000
0100
,
0000
0010
0000
0100
,
0000
0001
0000
0000
,
0000
0001
0000
0000
,
0000
1000
0000
0000
,
0000
1000
0000
0000
,
0000
0200
0000
0000
,
0000
0000
0000
0000
,
0000
0000
0000
0000
,
0000
0000
0000
0000
,
0000
0000
0000
0000
,
0000
0000
0000
0000
,
0000
0000
0000
0000
,
0000
0000
0000
0000
,
0000
0310
0000
0110
,
0000
0110
0000
0110
,
0000
1001
0000
1001
,
0000
1001
0000
1001
,
0000
2200
0000
0000
,
0000
0000
0000
0000
0000
0000
0000
3300
,
0000
1100
0000
0000
,
0000
0000
0001
0000
,
0001
0000
0000
0000
,
0010
0010
0100
0000
;

//--------------- dance-single - Blood4Fame ----------------
#NOTES:
     dance-single:
     Blood4Fame:
     Easy:
     5:
     0,0,0,0,0:
2002
0000
0000
0000
,
0000
0000
0000
0000
0000
0000
0000
0000
0000
0000
0000
0000
0000
3003
0000
0000
,
0020
2000
0000
0000
,
0000
0000
0000
0000
,
0000
3030
0000
0000
0000
0000
0000
0000
2002
0000
0000
0000
0000
0000
0000
0000
,
0000
0000
0000
0000
,
0000
0000
0000
0000
3003
0000
0000
0000
0002
0000
0000
0000
0100
0000
0000
0200
,
0000
0000
0000
0000
,
0000
0303
2002
0000
,
0000
0000
0000
0000
,
0000
0000
0000
0000
,
0000
0000
0000
0000
,
0000
0000
3003
0000
1000
0000
0000
0100
,
0001
0000
0000
0100
1000
0000
0000
0100
,
0001
0000
0000
0100
0100
0000
0000
0001
,
0100
0000
0000
1000
0100
0000
0000
0001
,
0100
0000
0000
1000
1000
0000
0100
0000
,
0010
0001
1000
0010
,
0100
0001
0100
0010
,
1000
0000
0100
0000
0020
0000
0000
0030
,
1001
1000
1000
0010
,
1001
1000
1000
0001
,
1001
1000
1000
0010
,
1000
1000
0000
0000
,
0200
0000
0000
0300
1000
0000
0000
0000
1000
0000
0000
0000
1000
0000
0000
0000
,
0001
0000
0001
0000
0002
0003
0000
0001
,
1000
0000
1000
0000
1000
0000
0100
0100
,
1000
0000
0000
0000
0200
0000
0000
0300
0000
0000
0000
0000
1000
0000
0000
0000
,
0000
0100
0010
0000
0000
0001
0010
0000
,
0000
1000
0010
0100
,
0000
0001
0100
0000
0000
0000
0100
0100
,
0100
1001
1001
1001
,
1001
0100
1001
0100
,
1001
0000
0100
0000
1000
1000
1000
0000
,
0000
2020
0000
3030
,
0000
0200
0000
0310
,
0002
0000
1003
0020
,
0000
0130
2000
0000
,
3001
0000
1000
0100
0000
0000
0001
0100
,
0000
0000
1000
0100
0000
0000
0001
0100
,
0000
0000
0000
2000
,
3010
0002
2003
3002
,
0023
0130
0002
0003
,
0010
0002
2003
3002
,
0023
0000
0130
0000
0002
0003
2002
0000
,
0000
0000
0000
0000
,
0000
3000
1000
0000
0000
0003
1000
0000
0000
0000
0000
0000
2020
0000
3030
0000
,
2020
0000
0000
0000
,
3000
0000
1000
0000
0000
0030
1000
0000
0000
0000
0000
0000
2002
0000
0000
0000
,
0000
0000
0000
0000
,
0000
3000
1000
0000
0000
0003
1000
0000
0000
0000
0000
0000
0020
0000
0000
0000
,
0002
0000
0003
0002
0000
0000
0000
0000
0000
0000
0000
0000
0000
0000
0000
0000
,
0000
0003
0002
0000
0003
0000
0031
0000
0000
0000
0000
0000
0020
0000
0000
0000
,
0000
0000
0000
0230
,
0000
0000
0000
0300
0000
0000
0001
0000
,
0010
2000
3002
0203
,
0310
0100
2000
3000
,
0010
2000
3002
0203
,
0320
0130
2000
3000
,
0010
0002
2003
3200
,
0320
0130
0002
0003
,
0100
0002
2003
3020
,
0230
0310
0002
0013
,
1000
0010
0002
2003
,
3002
0013
2000
3000
,
0010
0002
2003
3002
,
0023
0130
0002
0003
,
0010
2000
3002
2003
,
3020
0000
0130
0000
2000
3000
0000
0000
,
0100
2000
3002
2003
,
3200
0000
0310
0000
2000
3000
0001
0000
,
0000
0100
1000
0000
0000
0100
0001
0000
,
0000
0100
1000
0000
0000
0100
0100
0000
,
0000
1000
0100
0000
0000
0001
0100
0000
,
0000
1000
0100
0000
0000
0001
0001
0000
,
0000
0100
0000
0010
,
0000
1000
0000
0001
,
0000
0010
0000
0100
,
0000
1000
0000
0200
,
0000
0000
0000
0000
,
0000
0000
0000
0000
,
0000
0000
0000
0000
,
0000
0300
0000
0020
,
0000
0030
0100
0000
1100
0000
0011
0000
,
0000
1010
0000
0010
,
0200
0300
1100
0011
,
0000
1010
0000
0010
,
0200
0300
0000
0000
0000
0000
0000
0000
0011
0000
0000
0000
1100
0000
0000
0000
,
0000
0101
0000
0100
,
0020
0030
0000
0000
0000
0000
0000
0000
0011
0000
0000
0000
1100
0000
0000
0000
,
0000
0101
0000
0100
,
0020
0030
1100
0011
,
0000
1010
0000
0010
,
0200
0300
0000
0000
0100
0000
0000
0000
1100
0000
0000
0000
0011
0000
0000
0000
,
0000
1010
0000
0010
,
0200
0300
0000
0000
0100
0000
0000
0000
0011
0000
0000
0000
1100
0000
0000
0000
,
0000
0101
0000
0100
,
0020
0030
0010
0000
1100
0000
0011
0000
,
0000
0001
1100
0010
,
0200
0300
0010
0000
0100
0000
0010
0000
,
0100
0000
1000
0000
0000
0100
0010
0000
,
0000
0010
1000
0000
0000
0100
0010
0000
,
0000
0000
0010
0000
1000
0000
0001
0001
0000
0000
0100
0000
0010
0000
0000
0000
,
0000
0010
1000
0000
0000
0000
0100
0000
,
0000
0010
0000
0001
,
0000
1000
0000
0010
,
0000
0100
0000
0001
,
0000
0200
0000
0000
,
0000
0000
0000
0000
,
0000
0000
0000
0000
,
0000
0000
0000
0300
,
0000
0020
0032
1003
,
0200
0300
0100
0000
1100
0000
0011
0000
,
0000
1010
0000
0010
,
0100
0100
0100
0000
1100
0000
0011
0000
,
0000
1010
0000
0011
,
0000
0100
0100
0000
0011
0000
1100
0000
,
0000
0101
0000
0100
,
0020
0030
0010
0000
0010
0000
0000
0000
0011
0000
0000
0000
1100
0000
0000
0000
,
0000
0101
0000
0100
,
0020
0030
1100
0011
,
0000
1010
0000
0010
,
0200
0300
0100
0000
0100
0000
0000
0000
1100
0000
0000
0000
0011
0000
0000
0000
,
0000
1010
0000
0010
,
0000
0100
0100
0000
0011
0000
1100
0000
,
0000
0101
0000
0100
,
0020
0030
0010
0000
1100
0000
0011
0000
,
0000
0010
1100
0010
,
0200
0300
0001
0000
0000
0010
0100
0000
,
0000
0100
0001
0000
0000
0010
0100
0000
,
0000
0100
0001
0000
0000
0010
0100
0000
,
0000
0100
1000
0000
0000
0100
0010
0000
,
0000
0010
1000
0000
0000
0000
0100
0000
,
0000
0010
0000
0001
,
0000
1000
0000
0010
,
0000
0100
0000
0001
,
0000
0200
0000
0000
,
0000
0000
0000
0000
,
0000
0000
0000
0000
,
0000
0000
0000
0000
,
0000
0000
0000
0000
,
0000
0000
0000
0000
,
0000
0000
0000
0000
,
0000
0300
0000
0000
,
0000
0100
0000
0100
,
0000
0000
0100
0000
0000
0000
1000
0001
,
0000
0010
0000
0010
,
0000
0000
0010
0000
0000
0000
1000
0001
,
0000
2002
0000
0000
,
0000
0000
0000
0000
0000
0000
0000
3003
,
0000
0000
0010
0010
0000
0000
0100
0000
,
1000
0000
0020
0030
0010
0000
0010
0000
,
0010
0000
0000
0000
,
1000
0000
0020
2000
3030
0000
0000
0000
;

//--------------- dance-single - Blood4Fame ----------------
#NOTES:
     dance-single:
     Blood4Fame:
     Medium:
     7:
     0,0,0,0,0:
2002
0000
0000
0000
,
0000
0000
0000
0000
0000
0000
0000
0000
0000
0000
0000
0000
0000
3003
0000
0000
,
0020
2000
0000
0000
,
0000
0000
0000
0000
,
0000
3030
0000
0000
0000
0000
0000
0000
2002
0000
0000
0000
0000
0000
0000
0000
,
0000
0000
0000
0000
,
0000
0000
0000
0000
3003
0000
0000
0000
0002
0000
0000
0000
0100
0000
0000
0200
,
0000
0000
0000
0000
,
0000
0000
0303
0000
1000
0010
1000
0000
,
1000
0010
1000
0000
1000
0010
1000
0000
,
1000
0010
1000
0000
1000
0010
1000
0000
,
1000
0010
1000
0000
1000
0010
1000
0000
,
1000
0000
0010
0000
1000
0000
0000
0000
1000
0000
0000
0010
0000
0000
0100
0000
,
0001
0000
0000
0010
0000
0000
0100
0000
1000
0000
0000
0010
0000
0000
0100
0000
,
0001
0000
0000
0010
0000
0000
0100
0000
0100
0000
0000
0010
0000
0000
0001
0000
,
0100
0000
0000
0010
0000
0000
1000
0000
0100
0000
0000
0010
0000
0000
0001
0000
,
0100
0000
0000
0010
0000
0000
1000
0000
1000
0000
0000
0000
0100
0000
0000
0000
,
0010
0001
1000
0010
,
0100
0001
0100
0010
,
1000
0000
0100
0000
0020
0000
0000
0031
,
1001
1100
1001
0010
,
1001
0100
1001
0001
,
1001
0100
1001
0010
,
1000
1000
1000
0000
0000
0000
0000
0000
,
0200
0000
0000
0300
1001
0000
0000
0000
0101
0000
0000
0000
1000
0000
0000
0000
,
1001
0000
0101
0000
0001
0001
0000
0001
,
1001
0101
1001
0100
,
1001
0000
0000
0000
0200
0000
0000
0300
0000
0000
0000
0000
1000
0000
0000
0001
,
0000
0000
0100
0000
0010
0000
0000
1000
0000
0000
0001
0000
0010
0000
0000
0100
,
0000
0000
0000
0000
1000
0000
0010
0000
0010
0000
1000
0000
0100
0000
0000
0010
,
0000
0000
0001
0000
0100
0000
0000
0001
0000
0000
0010
0000
0100
0000
0100
0000
,
0100
1001
1001
1001
,
1001
0100
1001
0100
,
1001
0000
0100
0000
1000
1000
1000
0000
,
1010
2020
0000
3030
,
0000
0200
0000
0310
,
0002
0000
1003
0020
,
0000
0130
2000
0000
,
3001
0000
1000
0100
0000
0000
0001
0100
,
0000
0000
1000
0100
0000
0000
0001
0100
,
0000
0000
0000
0000
0000
0000
0000
0000
0000
0000
0000
0000
0000
0000
0000
0000
1000
0010
1000
0000
1000
0010
1000
0000
1000
0010
1000
0000
1000
0010
1000
0000
1000
0010
1000
0000
1000
0010
1000
0000
1000
0010
1000
0000
1000
0010
1000
0000
2000
0000
0000
0000
0000
0000
0000
0000
0000
0000
0000
0000
0000
0000
0000
0000
,
3010
0100
0002
0000
2003
0000
3002
0000
,
0023
0000
0130
1000
0002
0000
0003
0000
,
0010
0100
0002
0000
2003
0000
3002
0000
,
0023
0000
0130
1000
0002
0003
2002
0000
,
0000
0000
0000
0000
,
0000
3000
2000
0000
0000
0003
0002
0000
0000
0000
3003
0000
2020
0000
3030
0000
,
2020
0000
0000
0000
0000
0000
0000
0000
0000
0000
0000
3000
2000
0000
0000
0000
,
0000
3000
2000
0000
0000
0030
0020
3000
2000
3030
0001
0000
2002
0000
0000
0000
,
0000
0000
0000
0000
,
0000
3000
2000
0000
0000
0003
0002
0000
0000
0000
3003
0000
0022
0000
0033
0000
,
0202
0000
0303
0202
0000
0000
0000
0000
0000
0000
0000
0300
0200
0000
0000
0300
,
0200
0003
0002
0000
0000
0300
0200
0003
0002
0303
0001
0000
0020
0000
0000
0000
,
0000
0000
0000
0230
,
0000
0000
0000
0300
0000
0000
0001
0000
,
0010
0100
2000
0000
3002
0000
0203
0000
,
0310
0000
0100
0002
2000
0000
3003
0000
,
0010
0100
2000
0000
3002
0000
0203
0000
,
0320
0000
0130
0002
2000
0000
3003
0000
,
0010
0100
0002
0000
2003
0000
3200
0000
,
0320
0000
0130
2000
0002
0000
3003
0000
,
0100
0010
0002
0000
2003
0000
3020
0000
,
0230
0000
0310
2000
0002
0000
3013
0001
,
1000
0000
0010
1000
0002
0000
2003
0000
,
3002
0000
0013
0001
2000
0000
3000
0000
,
0010
0100
0002
0000
2003
0000
3002
0000
,
0023
0000
0130
1000
0002
0000
0003
0000
,
0010
0100
2000
0000
3002
0000
2003
0000
,
3020
0000
0130
0001
2000
3000
0000
0000
,
0100
0010
2000
0000
3002
0000
2003
0000
,
3200
0000
0000
0000
0310
0000
0001
0000
2000
0000
3000
0000
0001
0000
0000
0010
,
0000
0000
0100
0000
1000
0000
0000
0010
0000
0000
0100
0000
0001
0000
0000
0010
,
0000
0000
0100
0000
1000
0000
0000
0010
0000
0000
0100
0000
0100
0000
0000
0010
,
0000
0000
1000
0000
0100
0000
0000
0010
0000
0000
0001
0000
0100
0000
0000
0010
,
0000
0000
1000
0000
0100
0000
0000
0010
0000
0000
0001
0000
0001
0000
0000
0000
,
0000
0100
0000
0010
,
0000
1000
0000
0001
,
0000
0010
0000
0100
,
0000
1000
0000
0200
,
0000
0000
0000
0000
,
0000
0000
0000
0000
,
0000
0000
0000
0000
,
0000
0300
0000
0020
,
0000
0000
1030
0010
0100
0000
0000
0000
1100
0000
0000
0000
0011
0000
0000
0000
,
0000
0000
1010
0000
0000
0000
0010
0001
,
0200
0300
1100
0011
,
0000
0000
1010
0000
0000
0000
0010
0001
,
0200
0300
0000
0000
0000
0000
0000
0000
0011
0000
0000
0000
1100
0000
0000
0000
,
0000
0000
0101
0000
0000
0000
0100
1000
,
0020
0030
0000
0000
0000
0000
0000
0000
0011
0000
0000
0000
1100
0000
0000
0000
,
0000
0000
0101
0000
0000
0000
0100
1000
,
0020
0030
1100
0011
,
0000
0000
1010
0000
0000
0000
0010
0001
,
0200
0300
0100
0000
0100
0000
0000
0000
1100
0000
0000
0000
0011
0000
0000
0000
,
0000
0000
1010
0000
0000
0000
0010
0001
,
0200
0300
0100
0000
0100
0000
0000
0000
0011
0000
0000
0000
1100
0000
0000
0000
,
0000
0000
0101
0000
0000
0000
0100
1000
,
0020
0030
0010
0000
1100
0000
0011
0000
,
0000
0001
0001
0000
1100
0000
0010
0001
,
0200
0300
0010
1000
0100
0000
0010
0001
,
0100
0000
0000
0000
1000
0000
0000
0001
0000
0000
0100
0000
0010
0000
0000
0100
,
0000
0000
0010
0000
1000
0000
0000
0001
0000
0000
0100
0000
0010
0000
0000
0100
,
0000
0000
0010
0000
1000
0000
0000
0001
0000
0000
0100
0000
0010
0000
0000
0100
,
0000
0010
1000
0000
0000
0000
0100
0000
,
0000
0010
0000
0001
,
0000
1000
0000
0010
,
0000
0100
0000
0001
,
0000
0200
0000
0000
,
0000
0000
0000
0000
,
0000
0000
0000
0000
,
0000
0000
0000
0300
,
0000
0000
0020
0000
0032
0000
1003
0001
,
0200
0300
0100
0000
1100
0000
0011
0000
,
0000
0000
1010
0000
0000
0000
0010
0001
,
0100
0100
0100
0000
1100
0000
0011
0000
,
0000
1010
0000
0011
,
0000
0100
0100
0000
0011
0000
1100
0000
,
0000
0101
0000
0100
,
0020
0030
0010
0000
0010
0000
0000
0000
0011
0000
0000
0000
1100
0000
0000
0000
,
0000
0000
0101
0000
0000
0000
0100
1000
,
0020
0030
1100
0011
,
0000
0000
1010
0000
0000
0000
0010
0001
,
0200
0300
0100
0000
0100
0000
0000
0000
1100
0000
0000
0000
0011
0000
0000
0000
,
0000
0000
1010
0000
0000
0000
0010
0001
,
0000
0100
0100
0000
0011
0000
1100
0000
,
0000
0000
0101
0000
0000
0000
0100
1000
,
0020
0030
0010
0000
1100
0000
0011
0000
,
0000
0001
0010
0000
1100
0000
0010
0001
,
0200
0000
0300
0000
0001
0000
0000
1000
0000
0000
0010
0000
0100
0000
0000
0010
,
0000
0000
0100
0000
0001
0000
0000
1000
0000
0000
0010
0000
0100
0000
0000
0010
,
0000
0000
0100
0000
0001
0000
0000
1000
0000
0000
0010
0000
0100
0000
0000
0010
,
0000
0000
0100
0000
1000
0000
0000
0001
0000
0000
0100
0000
0010
0000
0000
0100
,
0000
0010
1000
0000
0000
0000
0100
0000
,
0000
0010
0000
0001
,
0000
1000
0000
0010
,
0000
0100
0000
0001
,
0000
0200
0000
0000
,
0000
0000
0000
0000
,
0000
0000
0000
0000
,
0000
0000
0000
0000
,
0000
0000
0000
0000
,
0000
0000
0000
0000
,
0000
0000
0000
0000
,
0000
0300
0000
0000
,
0000
0100
1001
0100
,
0011
0000
0100
0000
1010
0000
1000
0001
,
0000
0010
1001
0010
,
0101
0000
0010
0000
1100
0000
1000
0001
,
0000
2002
0000
0000
,
0000
0000
0000
0000
0000
0000
0000
3003
,
0000
0000
0010
0100
0000
0000
0100
0010
,
1000
0100
0020
0030
0010
0100
0010
0100
,
0010
0100
0000
0000
0011
0000
1000
0010
,
1000
0001
0010
1000
0000
0000
0000
0000
;

//--------------- dance-single - Blood4Fame ----------------
#NOTES:
     dance-single:
     Blood4Fame:
     Hard:
     9:
     0,0,0,0,0:
2002
0000
0000
0000
,
0000
0000
0000
0000
0000
0000
0000
0000
0000
0000
0000
0000
0000
3003
0000
0000
,
1010
2020
0000
0000
,
0000
0000
0000
0000
,
0000
3030
0000
0000
0000
0000
0000
0000
2002
0000
0000
0000
0000
0000
0000
0000
,
0000
0000
0000
0000
,
0000
0000
0000
0000
3003
0000
0000
0000
0011
0000
0000
0000
0101
0000
0000
0202
,
0000
0000
0000
0000
,
0000
0000
0303
0000
1000
0010
1000
0100
,
1000
0010
1000
0100
1000
0010
1000
0100
,
1000
0010
1000
0100
1000
0010
1000
0100
,
1000
0010
1000
0100
1000
0010
1000
0100
,
1000
0000
0010
0000
1000
0000
0100
0000
1000
0000
0000
0010
0000
0000
0100
0000
,
0001
0000
0000
0010
0000
0000
0100
0000
1000
0000
0000
0010
0000
0000
0100
0000
,
0001
0000
0000
0010
0000
0000
0100
1000
0100
0000
0000
0010
0000
0000
0001
0000
,
0100
0000
0000
0010
0000
0000
1000
0000
0100
0000
0000
0010
0000
0000
0001
0000
,
0100
0000
0000
0010
0000
0000
1000
0100
1000
0000
0100
0000
0100
0000
0010
0000
,
0010
0000
0001
0000
0001
0000
1000
0010
1000
0000
0010
0000
0010
0000
0100
0000
,
0100
0000
0001
0000
0001
0000
0100
0010
0100
0000
0010
0000
0010
0000
1000
0000
,
1000
0000
0100
0000
0100
0000
0010
0001
0020
0000
0000
0000
0000
0000
0031
1000
,
1001
0000
0000
0000
1100
0000
0000
0000
1001
0000
0000
0100
0010
0000
0000
0000
,
1001
0000
0000
0010
0100
0000
0000
0000
1001
0000
0000
0000
0001
0000
0100
0000
,
1001
0000
0000
0010
0100
0000
0000
0000
1001
0000
0000
0100
0010
0000
0000
0000
,
1000
0001
0001
0000
0000
0000
0000
0000
,
0200
0000
0000
0300
1001
0000
0000
0000
0101
0000
0000
0010
1000
0000
0000
0000
,
1001
0000
0101
0000
0001
0100
0000
0001
,
1001
0000
0000
0000
0101
0000
0000
0000
1001
0000
0000
0010
0100
0000
0000
0000
,
1001
0000
0000
0000
0200
0000
0000
0310
1000
0000
0000
0000
1000
0000
0000
0001
,
0000
0000
0100
0000
0010
0000
0000
1000
0000
0000
0001
0000
0010
0000
0000
0100
,
0000
0000
0000
0000
1000
0000
0010
0100
0010
0000
1000
0000
0100
0000
0000
0010
,
0000
0000
0001
0000
0100
0000
0000
0001
0000
0000
0010
0000
0100
0000
0100
0000
,
0100
1001
1001
1001
,
1001
0000
0000
0010
0100
0000
0000
0000
1001
0000
0010
0000
0100
0000
0000
0000
,
1001
0010
0100
0000
1000
0001
1000
0000
,
1010
0000
0000
0000
2020
0000
0000
0000
0000
0000
3000
0000
1030
0010
0100
0001
,
0000
1000
0200
0000
0000
0000
0310
0000
,
0002
0000
1003
0020
,
0000
0130
2000
0000
,
3001
0000
0000
0000
1000
0000
0100
0010
0000
0000
0000
0000
0001
0000
0100
0010
,
0000
0000
0000
0000
1000
0000
0100
0010
0000
0000
0000
0000
0001
0000
0100
0010
,
0000
0000
0000
0000
0000
0000
0000
0000
0000
0000
0000
0000
0000
0000
0000
0000
1000
0010
1000
0100
1000
0010
1000
0100
1000
0010
1000
0100
1000
0010
1000
0100
1000
0010
1000
0100
1000
0010
1000
0100
1000
0010
1000
0100
1000
0010
1000
0100
2000
0000
0000
0000
0000
0000
0000
0000
0000
0000
0000
0000
0000
0000
0000
0000
,
3010
0100
0002
0000
2003
0000
3002
0000
,
0023
0000
0130
1000
0002
0000
0003
0000
,
0010
0100
0002
0000
2003
0000
3002
0000
,
0023
0000
0130
1000
0002
0003
2002
0000
,
0000
0000
0000
0000
,
0000
3000
2000
0000
0000
0003
0002
0000
0000
0000
3003
0000
2020
0000
3030
0000
,
2020
0000
0000
0000
0000
0000
0000
0000
0000
0000
0000
3000
2000
0000
0000
0000
,
0000
3000
2000
0000
0000
0030
0020
3000
2000
3030
0001
0000
2002
0000
0000
0000
,
0000
0000
0000
0000
,
0000
3000
2000
0000
0000
0003
0002
0000
0000
0000
3003
0000
0022
0000
0033
0000
,
0202
0000
0303
0202
0000
0000
0000
0000
0000
0000
0000
0300
0200
0000
0000
0300
,
0200
0003
0002
0000
0000
0300
0200
0003
0002
0303
0001
0000
0020
0000
0000
0000
,
0000
0000
0000
0230
,
0000
0000
0000
0301
,
0010
0100
2000
0000
0001
0000
0100
0000
,
3010
0000
0100
0002
2000
0000
3003
0000
,
0010
0100
2000
0000
0001
0000
0100
0000
,
3010
0000
0100
0002
2000
0000
3003
0000
,
0010
0100
0002
0000
1000
0000
0100
0000
,
0013
0000
0100
2000
0002
0000
3003
0000
,
0100
0010
0002
0000
1000
0000
0010
0000
,
0103
0000
0010
2000
0002
0000
3013
1000
,
0001
0000
0010
1000
0002
0000
2003
0000
,
3002
0000
0013
0001
2000
0000
3000
0000
,
0010
0100
0002
0000
2003
0000
3002
0000
,
0023
0000
0130
1000
0002
0000
0003
0000
,
0010
0100
2000
0000
3002
0000
2003
0000
,
3020
0000
0130
0001
2000
3000
0000
0000
,
0100
0010
2000
0000
3002
0000
2003
0000
,
3200
0000
0000
0000
0310
0000
0001
0000
2000
0000
3000
0000
0001
0000
0000
0010
,
0000
0000
0100
0000
1000
0000
0000
0010
0000
0000
0100
0000
0001
0000
0000
0010
,
0000
0000
0100
0000
1000
0000
0000
0010
0000
0000
0100
0000
0100
0000
0000
0010
,
0000
0000
1000
0000
0100
0000
0000
0010
0000
0000
0001
0000
0100
0000
0000
0010
,
0000
0000
1000
0000
0100
0000
0000
0010
0000
0000
0001
0000
0001
0000
0000
0000
,
0100
0100
0010
0010
,
1000
1000
0001
0001
,
0010
0010
0100
0100
,
1000
1000
0100
0100
,
0000
0010
0000
0010
,
0000
0001
0000
0001
,
0000
0100
0000
0100
,
0000
0010
0000
0020
,
0000
0000
1030
0010
0100
0000
0000
0000
1100
0000
0000
0000
0011
0000
0000
0000
,
0101
0000
1010
0000
1100
0000
0010
0001
,
0200
0300
1100
0011
,
0101
0000
1010
0000
1100
0000
0010
0001
,
0200
0300
0000
0000
0100
0000
0000
0000
0011
0000
0000
0000
1100
0000
0000
0000
,
1010
0000
0101
0000
0011
0000
0100
1000
,
0020
0030
0000
0000
0010
0000
0000
0000
0011
0000
0000
0000
1100
0000
0000
0000
,
1010
0000
0101
0000
0011
0000
0100
1000
,
0020
0030
1100
0011
,
0101
0000
1010
0000
1100
0000
0010
0001
,
0200
0300
0100
0000
0100
0000
0000
0000
1100
0000
0000
0000
0011
0000
0000
0000
,
0101
0000
1010
0000
1100
0000
0010
0001
,
0200
0300
0100
0000
0100
0000
0000
0000
0011
0000
0000
0000
1100
0000
0000
0000
,
1010
0000
0101
0000
0011
0000
0100
1000
,
0020
0030
0010
0000
1100
0000
0011
0000
,
0101
0001
0001
0000
1100
0000
0010
0001
,
0200
0300
0010
0001
0100
0000
0010
0001
,
0100
0000
0000
0000
1000
0000
0000
0001
0000
0000
0100
0000
0010
0000
0000
0100
,
0000
0000
0010
0000
1000
0000
0000
0001
0000
0000
0100
0000
0010
0000
0000
0100
,
0000
0000
0010
0000
1000
0000
0000
0001
0000
0000
0100
0000
0010
0000
0000
0100
,
0000
0010
1000
0000
0100
0000
0100
0000
,
0010
0010
0001
0001
,
1000
1000
0010
0010
,
0100
0100
0001
0001
,
0100
0100
0000
0010
,
0000
0010
0000
1000
,
0000
1000
0000
0100
,
0000
0100
0000
0010
,
0000
0000
0020
0000
0032
0000
1003
0001
,
0200
0300
0100
0000
1100
0000
0011
0000
,
0101
0000
1010
0000
1100
0000
0010
0001
,
0100
0100
0100
0000
1100
0000
0011
0000
,
0101
1010
1100
0011
,
0000
0000
0100
0010
0100
0000
0000
0000
0011
0000
0000
0000
1100
0000
0000
0000
,
1010
0101
0011
0100
,
0020
0030
0010
0000
0010
0000
0000
0000
0011
0000
0000
0000
1100
0000
0000
0000
,
1010
0000
0101
0000
0011
0000
0100
1000
,
0020
0030
1100
0011
,
0101
0000
1010
0000
1100
0000
0010
0001
,
0200
0300
0100
0000
0100
0000
0000
0000
1100
0000
0000
0000
0011
0000
0000
0000
,
0101
0000
1010
0000
1100
0000
0010
0001
,
0000
0000
0100
0010
0100
0000
0000
0000
0011
0000
0000
0000
1100
0000
0000
0000
,
1010
0000
0101
0000
0011
0000
0100
1000
,
0020
0030
0010
0000
1100
0000
0011
0000
,
0101
0001
0010
0000
1100
0000
0010
0001
,
0200
0000
0300
0000
0001
0000
0000
1000
0000
0000
0010
0000
0100
0000
0000
0010
,
0000
0000
0100
0000
0001
0000
0000
1000
0000
0000
0010
0000
0100
0000
0000
0010
,
0000
0000
0100
0000
0001
0000
0000
1000
0000
0000
0010
0000
0100
0000
0000
0010
,
0000
0000
0100
0000
1000
0000
0000
0001
0000
0000
0100
0000
0010
0000
0000
0100
,
0000
0010
1000
0000
0100
0000
0100
0000
,
0010
0010
0001
0001
,
1000
1000
0010
0010
,
0100
0100
0001
0001
,
0100
0100
0000
0010
,
0000
0010
0000
1000
,
0000
1000
0000
0100
,
0000
0100
0000
0010
,
0000
0010
0000
0001
,
0000
0001
0000
1000
,
0000
1000
0000
0010
,
0000
0010
0000
0100
,
0000
0100
1001
0100
,
0011
0000
0100
0000
1010
0000
1000
0001
,
0000
0010
1001
0010
,
0101
0000
0010
0000
1100
0000
1000
0001
,
0000
2002
0000
0000
,
0000
0000
0000
0000
0000
0000
0000
3003
,
0000
0000
0010
0100
0000
0000
0100
0010
,
1000
0100
0020
0030
0010
0100
0010
0100
,
0010
0100
0000
0000
0011
0000
1000
0010
,
1000
0000
0001
0000
0010
0100
1000
0000
0000
0000
0000
0000
0000
0000
0000
0000
;

//--------------- dance-single - Blood4Fame ----------------
#NOTES:
     dance-single:
     Blood4Fame:
     Challenge:
     12:
     0,0,0,0,0:
2002
0000
0000
0000
,
0000
0000
0000
0000
0000
0000
0000
0000
0000
0000
0000
0000
0000
3003
0000
0000
,
1010
2020
0000
0000
,
0000
0000
0000
0000
,
0000
3030
0000
0000
0000
0000
0000
0000
2002
0000
0000
0000
0000
0000
0000
0000
,
0000
0000
0000
0000
,
0000
0000
0000
0000
3003
0000
0000
0000
0011
0000
0000
0000
0101
0000
0000
0202
,
0000
0000
0000
0000
,
0000
0000
0000
0000
0303
0000
0000
0000
1000
0000
0010
0000
1000
0100
1000
0000
,
0001
0000
0010
0000
0001
0100
0001
0000
1000
0000
0010
0000
1000
0100
1000
0000
,
0001
0000
0010
0000
0001
0100
0001
0000
1000
0000
0010
0000
1000
0100
1000
0000
,
0001
0000
0010
0000
0001
0100
0001
0000
1000
0000
0010
0000
1000
0100
1000
0000
,
0001
0000
0010
0000
0001
0100
0001
0000
1000
0000
0000
0010
0000
0000
0100
0000
,
0001
0000
0000
0010
0000
0000
0100
0000
1000
0000
0000
0010
0000
0000
0100
0000
,
0001
0000
0000
0010
0000
0000
0100
1000
0100
0000
0000
0010
0000
0000
0001
0000
,
0100
0000
0000
0010
0000
0000
1000
0000
0100
0000
0000
0010
0000
0000
0001
0000
,
0100
0000
0000
0010
0000
0000
1000
0100
1000
0000
0100
0010
0100
0000
0010
0001
,
0010
0000
0001
1000
0001
0000
1000
0010
1000
0000
0010
0100
0010
0000
0100
0001
,
0100
0000
0001
0010
0001
0000
0100
0010
0100
0000
0010
1000
0010
0000
1000
0100
,
1000
0000
0100
0010
0100
0000
0010
0001
0020
0000
0000
0000
0000
0000
0031
1000
,
1001
0000
0000
0000
1100
0000
0000
0000
1001
0000
0000
0100
0010
0000
1000
0000
,
1001
0000
0000
0010
0100
0000
0010
0000
1001
0000
0001
0010
0001
0000
0100
0000
,
1001
0000
0000
0010
0100
0000
0001
0000
1001
0000
0000
0100
0010
0000
0100
0000
,
1000
0000
0001
0000
0001
0000
0000
0000
0010
0001
0010
0100
0000
0000
0110
0000
,
0200
0000
0000
0300
1001
0000
0000
0000
0101
0000
0000
0010
1000
0000
0010
0000
,
1001
0000
0000
0000
0101
0000
0000
0000
0001
0010
0100
1000
0000
0000
0001
0000
,
1001
0000
0000
0000
0101
0000
0000
0000
1001
0000
0000
0010
0100
0000
0001
0000
,
1001
0000
0000
0000
0200
0000
0000
0310
1000
0000
0000
0000
1001
0000
0000
0001
,
0000
0000
0100
0000
0010
0000
0000
1000
0000
0000
0001
0000
0010
0000
0000
0100
,
0000
0000
0000
0100
1000
0000
0010
0100
0010
0000
1000
0000
0100
0000
0000
0010
,
0000
0000
0001
0000
0100
0000
0000
0001
0000
0000
0010
0000
0100
0000
0100
0000
,
0100
1001
1001
1001
,
1001
0000
0000
0010
0100
0000
0000
0000
1001
0000
0010
0000
0100
0000
0000
0000
,
1001
0010
0100
0000
1000
0001
1000
0000
,
1010
0000
0000
0000
2020
0000
0000
0000
0000
0000
3000
0000
1030
0010
0100
0001
,
0000
1000
0200
0000
0000
0000
0310
0000
,
0002
0000
1003
0020
,
0000
0130
2000
0000
,
3001
0000
0000
0000
1000
0000
0100
0010
0000
0000
0000
0000
0001
0000
0100
0010
,
0000
0000
0000
0000
1000
0000
0100
0010
0000
0000
0000
0000
0001
0000
0100
0010
,
0000
0000
0000
0000
0000
0000
0000
0000
0000
0000
0000
0000
0000
0000
0000
0000
0000
0000
0000
0000
0000
0000
0000
0000
0000
0000
0000
0000
0000
0000
0000
0000
0000
0000
0000
0000
0000
0000
0000
0000
0000
0000
0000
0000
0000
0000
0000
0000
1000
0000
0000
0010
0000
0000
1000
0100
0000
1000
0000
0000
0001
0000
0000
0010
0000
0000
0001
0100
0000
0001
0000
0000
1000
0000
0000
0010
0000
0000
1000
0100
0000
1000
0000
0000
0001
0000
0000
0010
0000
0000
0001
0100
0000
0001
0000
0000
1000
0000
0000
0010
0000
0000
1000
0100
0000
1000
0000
0000
0001
0000
0000
0010
0000
0000
0001
0100
0000
0001
0000
0000
1000
0000
0000
0010
0000
0000
1000
0100
0000
1000
0000
0000
0001
0000
0000
0010
0000
0000
0001
0100
0000
0001
0000
0000
2000
0000
0000
0000
0000
0000
0000
0000
0000
0000
0000
0000
0000
0000
0000
0000
0000
0000
0000
0000
0000
0000
0000
0000
0000
0000
0000
0000
0000
0000
0000
0000
0000
0000
0000
0000
0000
0000
0000
0000
0000
0000
0000
0000
0000
0000
0000
0000
,
3010
0100
0002
0000
2003
0000
3002
0000
,
0023
0000
0130
1000
0002
0000
0003
0000
,
0010
0100
0002
0000
2003
0000
3002
0000
,
0023
0000
0130
1000
0002
0003
2002
0000
,
0000
0000
0000
0000
,
0000
3000
2000
0000
0000
0003
0002
0000
0000
0000
3003
0000
2020
0000
3030
0000
,
2020
0000
0000
0000
0000
0000
0000
0000
0000
0000
0000
3000
2000
0000
0000
0000
,
0000
3000
2000
0000
0000
0030
0020
3000
2000
3030
0001
0000
2002
0000
0000
0000
,
0000
0000
0000
0000
,
0000
3000
2000
0000
0000
0003
0002
0000
0000
0000
3003
0000
0022
0000
0033
0000
,
0202
0000
0303
0202
0000
0000
0000
0000
0000
0000
0000
0300
0200
0000
0000
0300
,
0200
0003
0002
0000
0000
0300
0200
0003
0002
0303
0001
1000
0020
0000
0000
0000
,
0000
0000
0000
0230
,
0000
0000
0000
0301
,
0010
0100
2000
0000
0001
0000
0100
0000
,
3010
0000
0100
0002
2000
0000
3003
0000
,
0010
0100
2000
0000
0001
0000
0100
0000
,
3010
0000
0100
0002
2000
0000
3003
0000
,
0010
0100
0002
0000
1000
0000
0100
0000
,
0013
0000
0100
2000
0002
0000
3003
0000
,
0100
0010
0002
0000
1000
0000
0010
0000
,
0103
0000
0010
2000
0002
0000
3013
1000
,
0001
0000
0010
1000
0002
0000
2003
0000
,
3002
0000
0013
0001
2000
0000
3000
0000
,
0010
0100
0002
0000
2003
0000
3002
0000
,
0023
0000
0130
1000
0002
0000
0003
0000
,
0010
0100
2000
0000
3002
0000
2003
0000
,
3020
0000
0130
0001
2000
3000
0000
0000
,
0100
0010
2000
0000
3002
0000
2003
0000
,
3200
0000
0000
0000
0310
0000
0001
0000
2000
0000
3000
0000
0001
0000
0000
0010
,
0000
0000
0100
0000
1000
0000
0000
0010
0000
0000
0100
0000
0001
0000
0000
0010
,
0000
0000
0100
0000
1000
0000
0000
0010
0000
0000
0100
0001
0100
0000
0000
0010
,
0000
0000
1000
0000
0100
0000
0000
0010
0000
0000
0001
0000
0100
0000
0000
0010
,
0000
0000
1000
0000
0100
0000
0000
0010
0000
0000
0001
0100
0001
0000
0000
0000
,
0100
0010
0100
0000
0010
1000
0010
0000
,
1000
0001
1000
0000
0001
0010
0001
0000
,
0010
0100
0010
0000
0100
1000
0100
0000
,
1000
0010
1000
0000
0100
0010
0100
0000
,
0000
0010
0001
0010
,
0000
0001
0100
0001
,
0000
0100
0010
0100
,
0000
0010
1000
0020
,
0000
0000
1030
0010
0100
0000
0000
0000
1100
0000
0000
0000
0011
0000
0000
0000
,
0101
0000
1010
0000
1100
0000
0010
0001
,
0200
0300
1100
0011
,
0101
0000
1010
0000
1100
0000
0010
0001
,
0200
0300
0100
0010
0100
0000
0000
0000
0011
0000
0000
0000
1100
0000
0000
0000
,
1010
0000
0101
0000
0011
0000
0100
1000
,
0020
0030
0010
0100
0010
0000
0000
0000
0011
0000
0000
0000
1100
0000
0000
0000
,
1010
0000
0101
0000
0011
0000
0100
1000
,
0020
0030
1100
0011
,
0101
0000
1010
0000
1100
0000
0010
0001
,
0200
0300
0100
0000
0100
0000
0000
0000
1100
0000
0000
0000
0011
0000
0000
0000
,
0101
0000
1010
0000
1100
0000
0010
0001
,
0200
0300
0100
0010
0100
0000
0000
0000
0011
0000
0000
0000
1100
0000
0000
0000
,
1010
0000
0101
0000
0011
0000
0100
1000
,
0020
0030
1100
0011
,
0101
0000
1010
0000
1100
0000
0010
0001
,
0200
0300
0010
0001
0100
0000
0010
0001
,
0100
0000
0000
0000
1000
0000
0000
0001
0000
0000
0100
0000
0010
0000
0000
0100
,
0000
0000
0010
0000
1000
0000
0000
0001
0000
0000
0100
0000
0010
0000
0000
0100
,
0000
0000
0010
0000
1000
0000
0000
0001
0000
0000
0100
0000
0010
0000
0000
0100
,
0000
0010
1000
0000
0100
0010
0100
0000
,
0010
0001
0010
0000
0001
1000
0001
0000
,
1000
0010
1000
0000
0010
0100
0010
0000
,
0100
0001
0100
0000
0001
0010
0001
0000
,
0100
0010
0100
0000
0000
0000
0010
0000
,
1000
0010
0000
1000
,
0100
1000
0000
0100
,
0010
0100
0000
0010
,
0001
0000
0020
0000
0032
0000
1003
0001
,
0200
0300
0100
0000
1100
0000
0011
0000
,
0101
0000
1010
0000
1100
0000
0010
0001
,
0100
0100
0100
0000
1100
0000
0011
0000
,
0101
1010
1100
0011
,
0000
0000
0100
0010
0100
0000
0000
0000
0011
0000
0000
0000
1100
0000
0000
0000
,
1010
0101
0011
0100
,
0020
0030
0010
0100
0010
0000
0000
0000
0011
0000
0000
0000
1100
0000
0000
0000
,
1010
0000
0101
0000
0011
0000
0100
1000
,
0020
0030
1100
0011
,
0101
0000
1010
0000
1100
0000
0010
0001
,
0200
0300
0100
0000
0100
0000
0000
0000
1100
0000
0000
0000
0011
0000
0000
0000
,
0101
0000
1010
0000
1100
0000
0010
0001
,
0000
0000
0100
0010
0100
0000
0000
0000
0011
0000
0000
0000
1100
0000
0000
0000
,
1010
0000
0101
0000
0011
0000
0100
1000
,
0020
0030
0010
0000
1100
0000
0011
0000
,
0101
0000
0001
0100
0010
0000
0000
0000
1100
0000
0000
0000
0010
0000
0001
0000
,
0200
0000
0300
0000
0001
0000
0000
1000
0000
0000
0010
0000
0100
0000
0000
0010
,
0000
0000
0100
0000
0001
0000
0000
1000
0000
0000
0010
0000
0100
0000
0000
0010
,
0000
0000
0100
0000
1001
0000
0000
1000
0000
0000
0010
0000
0100
0000
0000
0010
,
0000
0000
0100
0000
1000
0000
0000
0001
0000
0000
0100
0000
0010
0000
0000
0100
,
0000
0010
1000
0000
0100
0010
0100
0000
,
0010
0001
0010
0000
0001
1000
0001
0000
,
1000
0010
1000
0000
0010
0100
0010
0000
,
0100
0001
0100
0000
0001
0010
0001
0000
,
0100
0010
0100
0000
0000
0000
0010
0000
,
1000
0010
0000
1000
,
0100
1000
0000
0100
,
0010
0100
0000
0010
,
0001
0010
0000
0001
,
1000
0001
0000
1000
,
0010
1000
0000
0010
,
0100
0010
0000
0100
,
0010
0000
0100
0100
1001
0000
0100
0100
,
0011
0000
0100
0100
1010
0000
1000
0001
,
0000
0000
0010
0010
1001
0000
0010
0010
,
0101
0000
0010
0010
1100
0000
1000
0001
,
0000
2002
0000
0000
,
0000
0000
0000
0000
0000
0000
0000
3003
,
0000
0000
0000
0000
0010
0001
0100
0000
0000
0000
0000
0000
0100
0000
0010
0000
,
1000
0100
0020
0030
0010
0100
0010
0100
,
0010
0100
0000
0000
0011
0000
1000
0010
,
1000
0000
0001
0000
0010
0100
1000
0000
0000
0000
0000
0000
0000
0000
0000
0000
;
