#TITLE:Doo Wa Ditty;
#SUBTITLE:;
#ARTIST:Zapp;
#TITLETRANSLIT:;
#SUBTITLETRANSLIT:;
#ARTISTTRANSLIT:;
#GENRE:Groove;
#CREDIT:Blood4Fame;
#MUSIC:music.mp3;
#BANNER:banner.png;
#BACKGROUND:bg.png;
#CDTITLE:;
#SAMPLESTART:25.449;
#SAMPLELENGTH:25.190;
#SELECTABLE:YES;
#OFFSET:-0.164;
#BPMS:0.000=114.172
,32.000=113.172
,36.000=115.172
,40.000=113.172
,52.000=114.172
,61.000=117.172
,64.000=114.172
,72.000=114.000
,74.000=116.000
,78.000=115.000
,80.000=114.000
,82.000=112.000
,88.000=116.000
,94.000=114.000
,108.000=115.000
,112.000=116.000
,114.000=114.000
;
#STOPS:;
#BGCHANGES:;
#FGCHANGES:;

//--------------- dance-single - Blood4Fame ----------------
#NOTES:
     dance-single:
     Blood4Fame:
     Beginner:
     2:
     0,0,0,0,0:
0000
0000
0000
0000
,
0000
0000
0000
0000
,
0000
0000
0000
0000
,
0000
0000
0000
0000
,
0100
0000
0100
0000
,
0001
0000
0100
0000
,
1000
0000
0100
0000
,
0010
0000
0100
0000
,
1000
0000
0100
0000
,
0001
0000
0100
0000
,
1000
0000
0100
0000
,
0010
0000
0100
0000
,
0001
0000
0100
0000
,
0010
0000
0100
0000
,
0001
0000
0100
0000
,
1000
0000
0100
0000
,
1000
0000
0001
0000
,
1000
0001
0000
0100
,
0000
0010
0000
0001
,
0000
0100
0000
0010
,
0000
1000
0000
0001
,
0000
1000
0000
0100
,
0000
0010
0000
1000
,
0000
0001
0000
0010
,
0000
0100
0000
0100
,
0000
0100
0000
1000
,
0000
0001
0000
0010
,
0000
0100
0000
0001
,
0200
0000
0000
0000
0000
0300
0000
0000
,
0020
0000
0000
0000
0000
0030
0000
0000
,
2000
0000
0000
0000
0000
3000
0000
0000
,
0200
0000
0000
0000
0000
0300
0000
0000
,
0010
0000
0100
0000
,
0001
0000
0100
0000
,
1000
0000
0100
0000
,
0010
0000
0100
0000
,
1000
0000
0100
0000
,
0001
0000
0100
0000
,
1000
0000
0100
0000
,
0010
0000
0100
0000
,
0001
0000
0100
0000
,
0001
0000
0100
0000
,
1000
0000
0100
0000
,
1000
0000
0001
0000
,
0100
0000
0100
0000
,
0010
0000
0100
0000
,
1000
0000
0100
0000
,
0001
0000
0100
0000
,
1000
0000
0100
0000
,
0010
0000
0100
0000
,
0001
0000
0100
0000
,
1000
0000
0010
0000
,
1000
0000
0100
0000
,
0010
0000
0100
0000
,
0001
0000
0100
0000
,
1000
0000
0001
0000
,
0100
0000
0100
0000
,
0010
0000
0010
0000
,
0100
0000
0100
0000
,
0010
0000
0010
0000
,
0001
0000
0100
0000
,
0001
0000
1000
0000
,
0001
0000
0000
0000
;

//--------------- dance-single - Blood4Fame ----------------
#NOTES:
     dance-single:
     Blood4Fame:
     Easy:
     3:
     0,0,0,0,0:
0000
0000
0000
0000
,
0000
0000
0000
0000
,
0000
0000
0000
0000
,
0000
0000
0000
0000
,
0100
0000
0100
0100
,
0001
0000
0100
0100
,
1000
0000
0100
0100
,
0010
0000
0100
0001
,
1000
0000
0100
0100
,
0001
0000
0100
0100
,
1000
0000
0100
0100
,
0010
0000
0100
1000
,
0001
0000
0100
0100
,
0010
0000
0100
0100
,
0001
0000
0100
0100
,
1000
0000
0100
0010
,
1000
0100
0001
0100
,
1000
0001
0010
0100
,
0001
0010
1000
0001
,
0010
0100
0001
0010
,
0100
1000
0010
0001
,
0100
1000
0010
0100
,
1000
0010
0100
1000
,
0010
0001
1000
0010
,
0100
0100
0001
0100
,
1000
0100
0100
1000
,
0100
0001
0100
0010
,
1000
0100
0010
0001
,
0200
0000
0000
0000
,
0320
0000
0000
0000
,
2030
0000
0000
0000
,
3200
0000
0000
0000
,
0310
0000
0100
0100
,
0001
0000
0100
0100
,
1000
0000
0100
0100
,
0010
0000
0100
0010
,
1000
0000
0100
0100
,
0001
0000
0100
0100
,
1000
0000
0100
0100
,
0010
0000
0100
0010
,
0001
0000
0100
0100
,
0001
0000
0100
0100
,
1000
0000
0100
0010
,
1000
0000
0001
0010
,
0100
0000
0100
0100
,
0010
0000
0100
0100
,
1000
0000
0100
0100
,
0001
0000
0100
0001
,
1000
0000
0100
0100
,
0010
0000
0100
0100
,
0001
0000
0100
0100
,
1000
0000
0010
0100
,
1000
0000
0100
0100
,
0010
0000
0100
0100
,
0001
0000
0100
0100
,
1000
0000
0001
1000
,
0100
0000
0100
0000
,
0010
0000
0010
0000
,
0100
0000
0100
0000
,
0010
0000
0010
0000
,
0001
0000
0100
0000
,
0001
0000
1000
1000
,
0001
0000
0000
0000
;

//--------------- dance-single - Blood4Fame ----------------
#NOTES:
     dance-single:
     Blood4Fame:
     Medium:
     5:
     0,0,0,0,0:
0000
0000
0000
0000
,
0000
0000
0000
0000
,
0000
0000
0000
0000
,
0000
0000
0000
0000
,
0100
0000
0000
0000
0100
0010
0100
0001
,
0100
0000
0000
0000
0010
0100
0010
1000
,
0010
0000
0000
0000
0100
0010
0100
1000
,
0001
0000
0000
0000
0001
1000
0001
0010
,
0100
0000
1000
0000
0100
0000
0010
0001
,
0100
0000
0010
1000
0000
0000
0200
0000
,
0002
0000
0000
0303
,
0101
0000
0000
0000
,
1000
0000
0010
0000
0100
0000
1000
0001
,
0100
0000
0010
0100
0000
0000
2000
0000
,
0200
0000
0000
3300
,
1100
0000
0000
0000
0000
0000
1000
0001
,
0100
0000
0001
1000
0100
0000
1000
0001
,
0100
0000
0001
1000
0100
0000
1000
0001
,
0010
0000
0001
1000
0010
0000
1000
0001
,
0010
0000
0001
1000
0010
0100
0001
1000
,
0100
0000
0001
1000
0100
0000
1000
0001
,
0100
0000
0001
1000
0100
0000
1000
0001
,
0010
0000
0001
1000
0010
0000
1000
0001
,
0010
0000
0001
1000
0010
0100
0001
1000
,
0100
0000
0001
1000
0100
0000
1000
0001
,
0100
0000
0001
1000
0100
0000
1000
0001
,
0010
0000
0001
1000
0010
0000
1000
0001
,
0010
0000
0001
1000
0010
0100
0001
1000
,
0200
0000
0000
0000
,
0320
0000
0000
0000
,
0230
0000
0000
0000
,
1300
1000
1000
1000
2000
0000
3000
0001
,
0100
0020
2030
0000
,
3000
0002
0203
0000
,
0320
0200
0000
0000
0000
0000
0000
0000
,
0330
0000
0001
0100
0002
0000
0000
0000
,
0003
2000
3020
0000
,
0030
2000
3020
0000
,
1030
0002
0200
0000
0000
0000
0000
0000
,
0303
0000
0002
0000
0000
0000
2003
0000
3001
1000
0200
0000
0000
0000
0300
0000
,
1100
0101
0011
0011
,
0010
0200
0000
0300
0000
0000
0011
0000
,
0202
0000
0000
0303
,
1001
0000
0000
0000
0000
0000
1000
0001
,
0100
0000
0001
1000
0100
0000
1000
0001
,
0100
0000
0001
1000
0100
0000
1000
0001
,
0010
0000
0001
1000
0010
0000
1000
0001
,
0010
0000
0001
1000
0010
0100
0001
1000
,
0100
0000
1000
0001
0100
0000
0001
1000
,
0100
0000
1000
0001
0100
0000
0001
1000
,
0010
0000
1000
0001
0010
0000
0001
1000
,
0010
0000
1000
0001
0010
0100
1000
0001
,
0100
0000
0001
1000
0100
0000
1000
0001
,
0100
0000
0001
1000
0100
0000
1000
0001
,
0010
0000
0001
1000
0010
0000
1000
0001
,
0010
0000
0001
1000
0010
0100
0001
1000
,
0100
0000
0100
0000
0100
0000
1000
0100
,
1100
0000
0100
0000
0100
0000
0010
0001
,
0101
0000
0001
0000
0001
0000
0001
0100
,
0011
0000
1000
0000
1000
0000
0010
0100
,
0101
0000
0100
0000
0010
0000
1000
0010
,
1100
0000
0100
0000
0010
0000
0010
0001
,
0011
0000
0000
0000
;

//--------------- dance-single - Blood4Fame ----------------
#NOTES:
     dance-single:
     Blood4Fame:
     Hard:
     7:
     0,0,0,0,0:
0000
0000
0000
0000
,
0000
0000
0000
0000
,
0000
0000
0000
0000
,
0000
0000
0000
0000
,
0100
0000
0000
0000
0100
0010
1000
0100
,
0010
0000
0000
0000
0000
0000
0000
0000
0001
1000
0100
0000
1000
0000
0010
0000
,
0100
0000
0000
0000
0001
1000
0100
0010
,
0100
0000
0000
0000
0000
0000
0000
0000
0100
1000
0001
0000
0100
0000
0010
0000
,
0110
0000
1010
0000
1100
0000
0011
0001
,
0200
0000
0302
0020
0033
0000
0011
0000
,
2002
0000
0000
0000
0000
0000
0000
3003
,
1100
0000
0000
0000
,
0110
0000
0011
0000
0101
0000
1010
1000
,
0200
0000
2300
0020
3030
0000
1010
0000
,
2002
0000
0000
0000
0000
0000
0000
3003
,
0101
0000
0000
0000
0000
0000
0001
0010
,
0100
0000
2000
0000
3010
0100
0001
0010
,
0200
0300
1000
0010
0100
0100
0001
0010
,
0200
0000
0310
0001
0100
0000
0010
1000
,
0200
0000
0310
0000
0001
0100
0001
0010
,
0010
0000
0002
0000
0013
0100
1000
0010
,
0200
0300
0001
0010
0100
0100
1000
0010
,
0200
0000
0310
1000
0100
0000
0010
0001
,
0100
0000
0020
0000
1030
0100
1000
0010
,
0010
0000
2000
0000
3010
0100
0001
0010
,
0200
0300
1000
0010
0100
0100
0001
0010
,
0200
0000
0310
0001
0100
0000
0010
1000
,
0200
0000
0310
0000
0001
0100
0001
0010
,
0200
0000
1000
0000
0000
0000
1000
0300
,
0020
0000
1000
0000
0000
0000
1000
0030
,
0200
0000
1000
0000
0000
0000
1000
0300
,
0010
0010
1010
0010
0002
0000
1000
0003
,
0100
0000
0000
0000
0100
0010
0001
0100
,
0010
0000
0000
0000
0000
0000
0000
0000
1000
0001
0100
0000
0001
0000
0010
0000
,
0100
0000
0000
0000
1000
0001
0100
0010
,
0100
0000
0000
0000
0000
0000
0000
0000
0100
0001
1000
0000
0100
0000
0010
0000
,
0100
0000
0000
0000
0100
0010
1000
0100
,
0010
0000
0000
0000
0000
0000
0000
0000
0001
1000
0100
0000
1000
0000
0010
0000
,
0100
0000
0000
0000
0001
1000
0100
0010
,
0100
0000
0000
0000
0000
0000
0000
0000
0100
1000
0001
0000
0100
0000
0010
0000
,
1000
0000
1010
0000
0010
0001
0010
0001
,
1000
0000
0000
0000
1100
0000
0000
0000
0001
0010
0100
0000
2000
0000
0010
0000
,
0200
0000
0000
0000
0000
0000
0000
3300
,
1001
0000
0000
0000
0010
0010
0100
0100
,
0100
0000
0000
0000
0100
0010
1000
0100
,
0010
0000
0000
0000
0000
0000
0000
0000
0001
1000
0100
0000
1000
0000
0010
0000
,
0100
0000
0000
0000
0001
1000
0100
0010
,
0100
0000
0000
0000
0000
0000
0000
0000
0100
1000
0001
0000
0100
0000
0010
0000
,
0100
0000
0000
0000
0100
0010
0001
0100
,
0010
0000
0000
0000
0000
0000
0000
0000
1000
0001
0100
0000
0001
0000
0010
0000
,
0100
0000
0000
0000
1000
0001
0100
0010
,
0100
0000
0000
0000
0000
0000
0000
0000
0100
0001
1000
0000
0100
0000
0010
0000
,
0100
0000
0000
0000
0100
0010
1000
0100
,
0010
0000
0000
0000
0000
0000
0000
0000
0001
1000
0100
0000
1000
0000
0010
0000
,
0100
0000
0000
0000
0001
1000
0100
0010
,
0100
0000
0000
0000
0000
0000
0000
0000
0100
1000
0001
0000
0100
0000
0010
0000
,
1000
0000
0000
1000
0010
0000
0000
0000
0100
0000
0100
0000
0001
0000
0000
0000
,
0010
0000
0000
0010
0100
0000
0000
0000
1000
0000
1000
0000
0001
0000
0100
0000
,
0110
0000
0000
0000
0000
0000
0000
0000
2000
0000
3100
0000
0010
0001
0010
0000
,
0100
0000
0000
0000
0010
0000
0010
0100
0010
0000
0001
0000
0100
0000
0010
0000
,
1000
0000
0000
0000
0000
0000
0000
0000
2000
0000
3000
0011
0000
0000
0011
0000
,
0011
0000
0000
0000
2000
0000
0000
3001
0100
0000
0010
0000
1000
0000
0001
0000
,
0200
0300
0000
0000
;
