#TITLE:Despacito;
#SUBTITLE:;
#ARTIST:Luis Fonsi ft. Daddy Yankee;
#TITLETRANSLIT:;
#SUBTITLETRANSLIT:;
#ARTISTTRANSLIT:;
#GENRE:Latin;
#CREDIT:Blood4Fame;
#MUSIC:music.mp3;
#BANNER:banner.png;
#BACKGROUND:bg.png;
#CDTITLE:;
#SAMPLESTART:0.000;
#SAMPLELENGTH:0.000;
#SELECTABLE:YES;
#OFFSET:0.934;
#BPMS:0.000=128.000
,4.000=101.000
,5.000=86.000
,7.000=102.000
,8.000=100.000
,12.000=99.000
,16.000=80.000
,18.000=89.000
,96.000=65.000
,98.000=89.000
,140.000=90.000
,146.000=89.000
,156.000=178.000
,157.000=89.000
,160.000=178.000
,161.000=89.000
;
#STOPS:156.000=0.169
,156.500=0.169
,160.000=0.169
,160.500=0.169
;
#BGCHANGES:1.634=video.avi=1.000=1=0=1===CrossFade==,
99999.000=-nosongbg-=1.000=0=0=0=StretchNoLoop====;
#FGCHANGES:;

//--------------- dance-single - Blood4Fame ----------------
#NOTES:
     dance-single:
     Blood4Fame:
     Beginner:
     2:
     0,0,0,0,0:
0000
0000
0000
0000
,
0000
0000
0000
0000
,
0000
0000
0000
0000
,
0000
0000
0000
0000
,
0000
0000
1000
0000
,
1000
0000
0001
0000
,
0001
0000
1000
0000
,
0001
0000
0000
0000
0000
0000
0000
0000
1002
0000
0000
0000
0000
0003
0000
0000
,
0000
0000
0000
0000
0020
0030
0000
0010
,
0000
0010
0000
0000
0000
1000
0000
0000
,
0000
1000
0000
0000
0000
0100
0000
0000
,
0000
0100
0000
0000
0000
0010
0000
0000
,
0000
0000
1001
0000
,
0100
0000
0100
0000
,
0001
0000
0001
0000
,
0001
0000
0010
0000
,
0010
0000
0002
0000
,
0100
0000
0010
0000
,
0100
0000
0010
0000
,
0100
0000
0010
0000
,
0103
0000
2000
0000
,
0100
0000
0010
0000
,
0100
0000
0010
0000
,
0100
0000
0010
0000
,
0000
3000
1001
0000
,
0100
0000
1001
0000
,
0100
0000
0101
0000
,
0001
0000
0011
0000
,
0001
0000
1000
0000
,
0001
0000
1000
0000
,
0010
0000
0010
0000
,
1000
0000
0100
0000
,
0001
0001
0110
0000
,
0100
0000
0110
0000
,
1000
0000
1010
0000
,
1000
0000
1100
0000
,
0000
0000
0000
0000
0100
0000
0000
1000
,
1000
0000
0000
0010
0010
0000
0000
0001
,
0001
0000
1000
0010
,
2000
3000
0000
0000
0001
0000
0100
0000
,
0002
0003
0000
0000
0010
0000
0000
0000
,
0010
0000
1000
0000
,
0100
0000
0010
0000
,
0100
0000
0001
0000
,
0220
0000
0330
0000
,
1000
1000
0001
0001
,
1000
1000
0001
0001
,
1000
0001
0000
0100
,
0000
0000
2000
0000
0000
3000
0000
0000
,
0001
0100
0001
0000
,
1000
0100
1000
0000
,
0010
1000
0100
0000
,
0010
0001
0100
0000
,
1000
0000
1000
0000
,
0001
0000
0010
0000
,
1000
0000
1000
0000
,
0001
0000
0200
0000
,
0000
0300
0000
0000
0000
0000
0000
0000
;

//--------------- dance-single - Blood4Fame ----------------
#NOTES:
     dance-single:
     Blood4Fame:
     Easy:
     3:
     0,0,0,0,0:
0000
0000
0000
0000
,
0000
0000
0000
0000
,
0000
0000
0000
0000
,
0000
0000
0000
0000
,
0000
0000
1000
0000
,
1000
0000
0001
0000
,
0001
0000
1000
0000
,
0001
0000
0000
0000
0000
0000
0000
0000
1002
0000
0000
0000
0000
0003
0100
0000
,
0000
0000
0000
0000
0020
0030
0000
0010
,
0000
0010
0000
0000
0000
1000
0000
1000
,
0000
1000
0000
0000
0000
0100
0000
0100
,
0000
0100
0000
0000
0000
0010
0000
0010
,
0000
0000
1001
0000
,
0100
0000
0100
0000
,
0001
0000
0001
0100
,
0001
0100
0010
0000
,
0010
1000
0001
0001
,
0100
0001
0010
0001
,
0100
0001
0010
0001
,
0100
0001
0010
0001
,
0100
0010
1000
1000
,
0100
1000
0010
1000
,
0100
1000
0010
1000
,
0100
1000
0010
2000
,
0000
0000
0000
3000
1001
0000
1000
0000
,
0100
1000
0001
1000
,
0100
1000
0001
0100
,
0001
1000
0001
0010
,
0001
0000
1000
1000
,
0001
0001
1000
0100
,
1000
0100
0010
0100
,
0010
1000
0100
0001
,
0001
0001
0100
0010
,
0100
0001
0100
0010
,
1000
0100
0010
0100
,
1000
0001
0100
0010
,
0000
0000
0000
0000
0100
0100
0000
0000
,
1000
1000
0000
0000
0010
0010
0000
0000
,
0001
0001
0000
0000
1000
0000
0010
0000
,
1000
1000
0000
0000
0001
0000
0100
0000
,
0001
0001
0000
0000
0010
0000
0000
0000
,
0010
0000
1000
0000
,
0100
0000
0010
0000
,
0100
0000
0001
0000
,
0010
0100
0000
0000
,
1000
1000
0001
0001
,
1000
1000
0001
0001
,
1000
0001
0010
0100
,
0010
1000
0100
0000
,
0001
0100
0001
0000
,
1000
0100
1000
0000
,
0010
1000
0100
0000
,
0010
0001
0100
0000
,
1000
0100
1000
0000
,
0001
0100
0010
0000
,
1000
0010
1000
0000
,
0001
0010
0100
0000
;

//--------------- dance-single - Blood4Fame ----------------
#NOTES:
     dance-single:
     Blood4Fame:
     Medium:
     5:
     0,0,0,0,0:
0000
0000
0000
0000
,
0000
0000
0000
0000
,
0000
0000
0000
0000
,
0000
0000
0000
0000
,
0000
0000
0000
0000
0000
0000
0000
0000
1000
0000
0000
0010
0000
0000
0000
0000
,
1000
0000
0000
0100
0000
0000
0000
0000
0001
0000
0000
0010
0000
0000
0000
0000
,
0001
0000
0000
0100
0000
0000
0000
0000
1000
0010
0000
0100
0000
0000
0000
0000
,
0001
0000
0010
0000
0000
0000
0100
0000
0000
0000
0000
0000
0000
0000
0000
0000
1000
0000
0000
0001
0000
0000
1000
0000
0000
0001
0000
0000
2000
0000
3000
0000
,
0000
0000
0000
0000
0020
0130
0000
0100
,
0000
0001
0000
0002
0000
1000
0000
1000
,
0000
0100
0000
0103
0000
0010
0000
0010
,
0000
0100
0000
0200
0000
0010
0000
0010
,
0000
0000
0300
0000
1001
0010
0000
0001
,
0100
0010
0000
0010
0100
0001
0000
0010
,
0001
0100
0000
1000
0001
0010
0100
0010
,
0001
0000
0010
0000
0100
0000
0002
0200
0000
0000
0303
0000
0000
0000
0000
0000
,
0010
0000
1000
0000
0001
0000
0001
0100
,
0020
0030
1000
0100
0020
0030
0001
0100
,
0020
0030
1000
0100
0020
0000
0130
1000
,
0002
0003
0100
0010
2000
3000
0001
0000
,
0000
0000
0011
0000
0022
0000
0033
0000
1000
0000
0000
0100
1000
0000
0000
0000
,
0200
0000
0300
0100
0001
0000
0000
0000
0200
0000
0300
0100
1000
0000
0000
0000
,
0200
0000
0300
0100
0001
0000
0000
0000
0200
0000
0300
1000
0010
0000
0000
0000
,
0002
0000
0003
0001
0010
0000
0000
0000
2000
0000
3000
1000
0100
0000
0000
0000
,
0000
0000
0000
0000
0000
0000
0000
0000
0010
0000
0000
0000
0100
0000
0000
0100
,
1000
0000
0010
0000
0100
0000
0000
0000
0010
0000
0000
0001
0100
0000
0001
0000
,
0010
0000
0000
0000
1000
0000
0000
0000
0100
0000
0000
0001
1000
0000
0010
0000
,
0100
0000
1000
0001
0010
0000
0100
1000
,
0010
0000
0000
1000
0100
0000
0000
0000
0000
0000
0100
0000
1000
0000
0100
0000
,
0010
0000
0100
0010
2000
0000
0000
0000
,
3002
0000
0000
0000
0100
0000
0000
0003
0001
0000
0001
0000
0001
0000
0000
0000
,
1000
0100
1000
0000
0010
0000
1010
0000
,
0110
0000
0000
0000
0101
0000
0102
0000
0003
0000
0000
0100
1000
0000
0010
0000
,
0100
0000
0000
0001
0010
0000
0100
0000
2000
0000
0000
0000
0010
0000
0000
0000
,
3010
0100
0001
0001
,
0100
0000
0100
0000
0000
0000
0100
0020
0000
0000
2000
0000
0000
0000
3030
0000
,
0000
0100
1010
0100
,
0011
0010
1100
0010
,
1010
0000
1000
0100
0010
0001
0100
0001
,
1001
1001
0000
0100
0010
1000
0100
0010
,
1001
1001
0000
0000
0100
0000
0100
0000
,
1000
1000
0001
0001
,
0100
0100
0010
0010
,
1000
1000
0001
0001
,
0100
0000
1010
0110
,
0101
0000
0010
1000
0100
0000
1000
0010
,
0100
0000
0010
0000
0100
0001
0010
0000
,
1000
0010
0100
0000
1000
0010
0100
0000
,
1000
0001
0010
0000
0100
1000
0010
0000
,
0010
1000
0100
0000
1000
0010
0100
0000
,
0002
0000
0000
0000
0000
0000
0000
0000
2003
0000
0000
0000
0010
0000
0000
3000
,
1000
1000
1000
0000
0001
0010
0001
0000
,
0100
0000
0101
0000
0110
0000
1010
2010
,
3000
0000
0001
0100
0010
0000
0100
0010
,
0002
0000
0100
0000
0103
0100
0010
0000
,
1000
0000
1000
0000
0010
0010
0000
0010
,
1000
2000
0000
3000
2002
0000
0000
3003
,
0010
0100
0000
0000
0000
0000
0000
0000
;

//--------------- dance-single - Blood4Fame ----------------
#NOTES:
     dance-single:
     Blood4Fame:
     Hard:
     7:
     0,0,0,0,0:
0000
0000
0000
0000
,
0000
0000
0000
0000
,
0000
0000
0000
0000
,
0000
0000
0000
0000
,
0000
0000
0000
0000
0000
0000
0000
0000
1000
0000
0100
0010
0000
0000
0000
0000
,
1000
0000
0001
0100
0000
0000
0000
0000
0001
0000
1000
0010
0000
0000
0000
0000
,
0001
0000
0010
0100
0000
0000
0000
0000
1000
0010
1000
0100
0000
0000
0000
0000
,
0001
0000
0010
0000
0001
0000
0100
0000
0000
0000
0000
0000
0000
0000
0000
0000
1000
0100
0000
1000
0100
0000
1000
0100
0000
1000
0100
0000
2000
0000
3000
0000
,
0000
0000
0000
0000
0020
0130
0000
0100
,
0000
0001
0000
0002
0000
1000
0000
1000
,
0000
0100
0000
0103
0000
0010
0000
0010
,
0000
0100
0000
0200
0000
0010
0000
0010
,
0000
0000
0001
0000
0300
0000
0000
0000
1001
0000
0010
0100
0000
0000
0001
0000
,
0100
0000
0010
1000
0000
0000
0010
0000
0101
0000
1000
0100
0000
0000
0010
0000
,
0001
0000
0100
0010
0000
0000
1000
0000
1001
0000
0010
0000
0100
0000
0010
0000
,
1000
0000
0010
0000
0100
0000
0002
0200
0300
0000
0103
0000
0000
0000
0100
0000
,
0010
0000
1000
0000
0001
0010
0001
0100
,
0020
0030
1000
0100
0020
0030
0001
0100
,
0020
0030
1000
0100
0020
0001
0130
1000
,
0002
0003
0100
0010
2000
3000
0001
0010
,
0100
0000
0011
0000
0022
0000
0033
0000
1000
0000
0000
0100
1000
0000
0010
0000
,
0200
0000
0300
0100
0001
0000
0010
0000
0200
0000
0300
0100
1000
0000
0010
0000
,
0200
0000
0300
0100
0001
0000
0010
0000
0200
0000
0300
1000
0010
0000
1000
0000
,
0002
0000
0003
0001
0010
0000
0100
0000
2000
0000
3000
1000
0100
0000
0010
0000
,
0000
0000
0000
0000
0001
0000
0000
0000
0000
0000
0000
0000
0000
0000
0000
0000
0000
1000
0000
0000
0000
0000
0000
0000
0000
0000
0000
0000
0000
0000
0000
0000
0010
0000
0000
0000
0000
0000
0000
0000
1000
0000
0000
0000
0000
0000
0000
0000
0100
0000
0000
0000
0000
0000
0000
0000
0000
0000
0000
0000
0100
0000
0000
0000
,
1000
0000
0010
0000
0100
0000
0001
0000
0010
0000
0000
0001
0100
0000
0001
0000
,
0010
0000
0100
0000
1000
0000
0010
0000
0100
0000
0000
0001
1000
0000
0010
0000
,
0100
0000
0000
0010
1000
0000
0001
0000
0010
0000
0000
0010
0100
0000
1000
0000
,
0010
0000
0000
0000
0000
0000
0000
0000
0000
1000
0000
0000
0100
0000
0000
0000
0000
0000
0000
0000
0000
0000
0000
1000
0000
0000
0010
0000
0000
0000
0100
0000
0000
0001
0000
0000
1000
0000
0000
0000
0000
0000
0100
0000
0000
0000
0000
0000
,
0010
0000
0000
0001
0100
0000
0010
0000
2000
0000
0000
0000
0000
0000
0000
0000
,
3002
0000
0000
0000
0100
0000
0000
0013
0001
0000
0001
0000
0001
0000
0000
0000
,
1000
0100
1000
0000
0010
0000
1010
1010
,
0110
0000
0110
0000
0101
0000
0102
0000
1003
0000
0000
0100
1000
0000
0010
0000
,
0100
0000
0000
0001
0010
0000
0100
0000
2000
0000
0000
0000
0010
0000
0000
0010
,
3000
0100
0010
1000
0100
0010
0000
0100
0000
2000
0000
0000
3001
0000
0000
0000
,
0100
0010
0100
0001
0000
1000
0100
0020
0000
0000
0002
0000
0000
0000
0033
0000
,
0000
0000
0100
0000
1010
0000
0100
0010
,
0011
0000
0010
0100
1100
0000
0010
0100
,
1010
0000
1100
0100
0110
0001
0110
1000
,
1001
1001
0000
0100
0010
1000
0100
0010
,
1001
0000
1001
0000
0000
0000
0000
0000
0100
0000
0000
0000
0100
0000
0000
1000
,
0100
0000
0000
0000
0100
0000
0000
0001
0100
0000
0000
0000
0100
0000
0000
0000
,
0100
0000
0000
1000
0100
0000
0000
0000
0010
0000
0000
0000
0010
0000
0000
0001
,
0100
0010
1000
0001
,
0100
0000
1010
0011
,
0110
0000
0000
1000
0010
0000
1000
0000
0100
0000
0000
0100
1000
0000
0010
0000
,
0100
0000
0001
0000
0010
0000
0000
0001
0100
0000
0001
0000
0010
0000
0100
0000
,
1000
0000
0010
0000
0100
0000
0000
0001
1000
0000
0010
0000
0100
0000
0000
0010
,
1000
0000
0001
0000
0010
0000
0000
0010
0100
0000
1000
0000
0010
0000
0000
1000
,
0010
0000
1000
0000
0100
0000
0000
0100
1000
0000
0010
0000
0100
0000
0001
0000
,
0002
0000
0000
0000
0000
0000
0000
0000
2003
0000
0000
0000
0010
0000
0000
3100
,
1000
1000
1000
0000
0001
0010
0001
0000
,
0100
0000
0101
0101
0110
0110
1010
2010
,
3001
0000
0000
0010
0001
0000
0100
0000
0010
0000
0000
1000
0100
0000
0010
0000
,
0002
0000
0000
0000
0100
0000
0000
0100
0003
0010
0100
0001
0010
0100
0000
0010
,
0000
0002
0000
0000
1003
0000
0000
0000
0010
0100
0010
1000
0000
0001
0010
0200
,
0000
2000
0000
3300
2002
0000
0000
3003
,
0010
0100
0000
0000
0000
0000
0000
0000
;
