#TITLE:Darte un Beso;
#SUBTITLE:;
#ARTIST:Prince Royce;
#TITLETRANSLIT:Give You a Kiss;
#SUBTITLETRANSLIT:;
#ARTISTTRANSLIT:;
#GENRE:Latin;
#CREDIT:Blood4Fame;
#MUSIC:music.mp3;
#BANNER:banner.png;
#BACKGROUND:bg.png;
#CDTITLE:;
#SAMPLESTART:42.119;
#SAMPLELENGTH:19.599;
#SELECTABLE:YES;
#OFFSET:-1.158;
#BPMS:0.000=70.090
,20.000=68.090
,21.500=75.090
,22.000=70.090
,23.000=141.090
,24.000=133.180
,25.000=142.180
,29.000=140.180
,59.500=280.360
,61.000=140.180
,63.500=280.360
,65.000=140.180
,81.000=280.360
,82.000=280.360
,82.250=140.180
,82.500=280.360
,83.000=140.180
,84.000=92.180
,85.000=71.090
,87.000=70.090
,107.000=140.180
,110.000=61.090
,110.396=80.090
,111.000=70.090
,116.500=67.090
,117.000=70.090
,117.250=75.090
,117.500=80.090
,117.750=90.090
,118.000=110.090
,118.250=120.090
,118.500=126.090
,119.000=140.180
,167.000=139.180
,171.000=140.180
,185.500=280.360
,187.000=140.180
,189.500=280.360
,191.000=140.180
,207.000=280.360
,208.000=280.360
,210.000=140.180
,212.000=130.180
,213.000=115.180
,214.000=70.090
,226.000=56.045
,227.000=93.045
,228.000=140.180
,256.000=95.180
,257.000=90.180
,258.000=95.180
,260.000=140.180
,262.000=280.360
,264.500=280.360
,266.000=70.090
;
#STOPS:59.500=0.107
,60.000=0.214
,63.500=0.107
,64.000=0.214
,81.000=0.107
,81.500=0.107
,82.000=1.353
,82.500=0.107
,83.000=0.204
,185.500=0.107
,186.000=0.214
,189.500=0.107
,190.000=0.214
,207.000=0.107
,207.500=0.107
,208.000=0.428
,211.500=0.316
,262.000=0.161
,262.750=0.161
,263.500=0.214
,264.500=0.321
,266.000=0.856
;
#DISPLAYBPM:56.000:142.000;
#BGCHANGES:-1.358=video.avi=1.000=1=0=1===CrossFade==,
99999.000=-nosongbg-=1.000=0=0=0=StretchNoLoop====;
#FGCHANGES:;

//--------------- dance-single - Blood4Fame ----------------
#NOTES:
     dance-single:
     Blood4Fame:
     Easy:
     3:
     0,0,0,0,0:
0000
0000
0000
0000
,
0000
0000
0000
0000
,
1000
0000
0100
1000
0001
0000
0100
0001
,
1000
0000
0010
1000
0001
0000
0010
0001
,
1000
0000
1000
0100
0010
0000
0010
0001
,
0100
1000
0100
0010
,
0002
0103
0000
0100
,
0010
0000
2000
0000
0000
3000
0100
0000
,
0010
0000
2000
0000
0000
3002
0000
0000
,
0203
0000
0000
0320
0000
0030
0200
0000
,
0320
0000
0030
0100
0000
0020
0000
1030
,
0000
0000
0000
0200
0000
0300
0000
0002
,
0000
0000
0023
0000
0000
0032
0000
0000
,
2003
0000
0000
3200
0000
0300
0001
0000
,
0100
0010
1000
0002
,
0003
0001
0010
2000
,
3000
0000
0100
0000
0000
0000
0000
0002
,
0000
0000
2000
0003
0000
0000
0000
0000
0000
0000
0020
3000
0000
0000
0000
0000
,
0030
0100
0010
0001
,
0000
0100
0010
1000
,
0000
0000
0100
0000
0100
0010
0000
0001
,
0000
0000
1000
0000
0010
0001
0000
0000
,
0001
0000
0100
0000
0001
1000
0000
0000
,
1000
0000
0010
0000
0010
0100
0000
0000
,
0100
0010
0001
0000
1000
0100
0000
0000
,
0010
0000
1000
0000
0010
0001
0000
0000
,
0001
0000
0100
0000
0001
1000
0001
0000
,
0000
0000
0100
0011
,
0010
1100
0100
1010
,
1000
0101
0020
1030
,
1000
0100
0000
0001
,
0010
0100
0000
2000
,
3000
0010
0010
0002
,
0003
0100
0100
2000
,
3000
0010
0010
0200
,
0300
0010
0010
0002
,
0003
0010
0010
2000
,
3000
0000
0010
0000
0010
0000
0200
0300
,
2000
3000
0200
0300
0020
0030
0002
0003
,
0200
0000
0300
0000
0020
0000
0000
0030
2000
0000
0000
3000
0200
0000
0000
0000
,
0000
0320
0000
0000
0032
0000
0000
0203
,
0000
0310
1000
0100
,
0002
0203
0320
0030
,
0020
0000
2030
0000
3020
0030
0010
0000
,
1000
0001
0010
0000
,
0100
0010
0000
1000
,
0100
0002
0003
0001
,
0010
0200
0300
0001
,
0000
0200
0000
0302
0000
0023
0000
0000
,
0000
0230
0000
0300
0000
0000
0010
0000
,
0001
0100
0000
0010
,
1000
1000
0000
0100
,
0200
0000
0000
0000
0000
0000
0000
0310
,
0000
0000
0000
0000
1000
0000
0010
0002
,
0003
0000
0001
0000
0100
0000
0001
2000
,
3000
0000
1000
0000
0010
0000
0010
0200
,
0300
0000
0000
0000
0000
0000
0100
0000
0000
0010
0000
0000
0002
0000
0000
0000
0000
0000
0003
0000
0200
0000
0000
0000
,
0300
1000
0100
0001
,
0000
0010
0100
1000
,
2000
3000
0010
0010
,
0002
0003
0100
0100
,
2000
3200
0300
0020
,
0230
2300
3000
0010
,
0002
0003
0010
0010
,
2000
0000
0000
0000
3200
0000
0000
0000
0320
0000
0000
0030
0020
0000
0000
0030
,
0020
0030
0002
0003
0001
0000
0000
0001
,
0000
0000
0100
0000
0000
0000
0000
0000
0020
0030
0000
0000
0000
0000
0000
0000
;

//--------------- dance-single - Blood4Fame ----------------
#NOTES:
     dance-single:
     Blood4Fame:
     Medium:
     6:
     0,0,0,0,0:
0000
0000
0000
0000
,
0000
0000
0000
0000
,
1000
0000
0000
1000
0100
0000
1000
0000
0001
0000
0000
0001
0100
0000
0001
0000
,
1000
0000
0000
1000
0010
0000
1000
0000
0001
0000
0000
0001
0010
0000
0001
0000
,
1000
0000
0000
0100
1000
0000
0100
0000
0010
0000
0000
0001
0010
0000
0001
0000
,
0100
0010
1000
0000
0100
0000
0010
0000
,
0002
0000
0103
0000
0000
1000
0100
0000
,
0010
0000
2000
0000
0000
3001
0100
0000
,
0010
0000
2000
0000
0000
3002
0000
0000
,
0203
0000
0000
0320
0000
1030
0200
0000
,
0320
0000
0031
0100
0000
0020
0000
1030
,
0000
0000
1000
0200
0000
0310
0000
0002
,
0000
0000
0023
0000
0000
0032
0000
0000
,
2003
0000
0000
3200
0000
0310
0001
0000
,
0100
0000
0010
0000
1000
0000
0001
0100
,
0100
0000
0001
0000
0010
0000
1000
0100
,
0100
0000
0100
0000
0010
0000
0010
0002
,
0000
0000
2000
0003
0000
0000
0000
0000
0000
0000
0020
3000
0000
0000
0000
0000
,
1030
0100
0010
0001
,
0001
0100
0010
1000
,
0000
0000
0100
0000
0100
0010
0000
0001
,
0000
0100
0000
0000
1000
0000
0100
0000
0010
0000
0001
0000
0000
0000
0000
0000
,
0001
0010
0100
0010
0001
1000
0000
0000
,
1000
0100
0010
0001
0010
0100
0000
0000
,
0100
0010
0001
0000
1000
0100
0000
0000
,
0010
0100
1000
0100
0010
0001
0000
0000
,
0001
0010
0100
0010
0001
1000
0001
0001
,
0000
0001
0000
0000
0000
0000
1000
0000
0100
0000
0010
0000
0011
0000
0000
0000
,
0011
1100
1100
1010
,
1010
0000
0101
0200
0020
0300
1030
0000
,
1000
0000
0100
0010
0001
0000
0001
0000
,
0010
0000
0100
0100
1000
0000
2000
0000
,
3010
0000
0010
0100
0010
0000
0002
0000
,
1003
0000
0100
0010
0100
0000
2000
0000
,
3100
0000
0010
0001
0010
0000
0200
0000
,
1300
0000
0010
0100
0010
0000
0002
0000
,
0103
0000
0010
0001
0010
0000
2000
0000
,
3100
0000
0010
1000
0010
0000
0200
0300
,
2000
3000
0200
0300
0020
0030
0002
0003
,
0200
0000
0300
0000
0020
0000
0000
0030
2000
0000
0000
3000
0200
0000
0000
0000
,
0000
0320
0000
0000
0032
0000
0000
0203
,
0000
0000
0310
0000
1000
0000
0100
0010
,
0002
0000
0203
0000
0320
0000
1030
0100
,
0020
0000
2030
0000
3020
0030
0010
0100
,
1000
0000
0001
0000
0010
0000
0001
0100
,
0100
0000
0010
0001
0001
0000
1000
0000
,
0100
0000
0001
1000
1000
0000
0001
0000
,
0010
0000
0100
1000
1000
0000
0001
0000
,
0000
0200
0000
0302
0000
0023
0000
0000
,
0000
0230
0000
1300
0100
0000
0010
0000
,
0001
0100
0100
0010
,
1000
0000
1000
0000
0001
0000
0100
0100
,
0200
0000
0000
0000
0000
0000
0000
0310
,
0000
0010
0000
0000
0000
0001
0000
0000
1000
0000
0100
0000
0010
0000
0002
0000
,
0003
0000
0001
0010
0100
0010
0001
2000
,
3000
0000
1000
0100
0010
0001
0010
0200
,
0300
0000
0000
0000
0000
0000
0100
0000
0000
0010
0000
0000
0002
0000
0000
0000
0000
0000
1003
0000
0200
0000
0000
0000
,
1300
0000
1000
0000
0100
0010
0001
0000
,
0001
0000
0010
0000
0100
0100
1000
0000
,
2000
0000
3010
0000
0010
0100
0010
0000
,
0002
0000
1003
0000
0100
0010
0100
0000
,
2000
0000
3200
0000
0310
0001
0020
0000
,
0230
0000
2300
0000
3010
0100
0010
0000
,
0002
0000
0103
0000
0010
0001
0010
0000
,
2000
0000
0000
0000
3200
0000
0000
0000
0320
0000
0000
0030
0020
0000
0000
0030
,
0020
0000
0030
0000
0002
0000
0003
0000
0001
0000
0000
0001
0000
0000
0001
0000
,
0000
0000
1100
0000
0000
0000
0000
0000
2020
3030
0000
0000
0000
0000
0000
0000
;

//--------------- dance-single - Blood4Fame ----------------
#NOTES:
     dance-single:
     Blood4Fame:
     Hard:
     9:
     0,0,0,0,0:
0000
0000
0000
0000
,
0000
0000
0000
0000
,
0000
0000
0000
1000
0000
1000
0000
0000
0000
1100
0000
1000
0000
0000
0000
0001
0000
0001
0000
0000
0000
0101
0000
0001
,
0000
0000
0000
0011
0000
0001
0000
0000
0000
0001
0000
0000
0000
0000
0000
1010
0000
1000
0000
0000
0000
1000
0000
0000
,
0000
0000
0000
1000
0000
1000
0000
0000
0000
1100
0000
0000
0000
0000
0000
0001
0000
0001
0000
0000
0000
0101
0000
0000
,
0000
0000
0000
0000
0000
0000
0011
0000
0000
0000
0001
0000
0000
0000
0000
0000
0000
0000
0001
0000
0000
0000
0000
0000
0020
0000
0000
0000
0000
0000
0032
0000
0000
0000
0000
0000
0203
0000
0000
0000
0000
0000
0000
0000
0000
0300
0000
0000
,
2020
0000
0000
3030
2200
0000
0000
3300
0000
0000
1000
0000
0100
0000
0001
0000
,
0100
1000
0001
0020
0030
2002
3003
0100
,
0010
0000
0001
0000
0022
0000
0000
0033
0000
0000
0202
0000
0000
0000
0303
0000
,
2020
0000
0000
3030
0000
0000
2200
0000
0000
3300
0010
0000
1000
0000
0010
0000
,
0100
0001
0100
0002
0000
1003
0100
0010
,
0100
1000
0010
0200
0000
0302
0000
0013
,
0200
0000
0020
0000
0330
0022
0000
0033
,
0220
0330
2020
0000
0000
3030
1000
0100
,
1000
0100
0010
0000
0001
0000
0200
0010
,
0310
0000
1000
0000
0001
0000
2000
0100
,
3100
0000
0010
0000
0001
0000
0100
0010
,
0100
0000
1000
0100
1000
0000
0002
0003
,
0100
0000
0010
1000
0010
0100
0002
0000
,
1003
0100
0010
0001
0010
0100
2000
0000
,
3001
0000
0000
0000
0100
0000
0010
0000
2000
3000
2000
0000
3100
0000
0010
0000
,
0001
0000
0000
0000
0100
0000
0000
0000
0010
0000
0000
0000
2000
0000
0000
0000
0000
0000
3200
0000
0000
0000
0000
0000
2300
0000
0000
3000
0000
0000
2002
0000
0000
3003
0000
0000
0010
0000
0000
0000
0000
0000
0100
0000
0000
1000
0000
0000
,
0001
0000
0110
0000
0001
0000
0020
0000
0230
0300
2200
3300
0100
0000
0010
0100
,
0001
0000
0101
0000
0010
0000
2000
0000
3200
0300
0022
0033
0010
0000
0100
1000
,
0010
0000
1100
0000
0010
0000
0001
0000
1010
0000
0020
0000
1030
0100
0010
0002
,
0003
0001
0010
0100
2000
0000
3020
0000
2030
3000
2002
3003
0100
0000
0010
1000
,
0001
0000
0110
0000
0002
0000
0103
0000
0010
0000
1010
0000
0010
0000
0100
0010
,
0000
0000
1000
0000
0010
0000
0000
0000
1000
0000
0100
0000
0010
0000
0000
0001
0000
0000
1000
0100
0000
0000
0020
0000
0000
0000
0000
0000
0030
0000
0001
0010
,
0000
0000
0000
0002
0000
0000
0000
0000
0003
0000
1000
0000
0010
0100
0001
0000
0001
0000
0010
0000
0010
0000
0001
0000
0200
0000
0300
0000
0000
0000
0010
1000
,
0000
0000
0000
0000
0000
0000
0000
0000
0000
0200
0000
0000
0000
0000
0000
0000
0000
0000
0300
0000
0000
0000
0000
0000
0100
0000
0000
0000
0000
0000
0000
0000
0010
0000
0000
0000
0200
0000
0000
0000
0000
0000
0000
0000
0000
0000
0000
0000
2300
0000
0000
0000
0000
0000
0000
0000
0000
0000
0000
0000
0000
0000
0000
0000
0000
0000
0000
0000
0000
0000
0000
0000
3100
0000
0000
0000
0000
0000
0000
0000
0000
0000
0000
0000
0010
0000
0000
0000
0000
0000
0000
0000
0000
0000
0000
0000
,
0100
0000
0001
0010
0001
0000
1000
0000
0100
0000
0010
0000
0001
0000
0100
0000
,
0010
0000
1000
0010
1000
0000
0100
0000
1000
0000
0001
0000
0200
0000
0000
0000
,
0310
0000
2000
0000
0000
3000
2000
0000
0000
3000
0200
0000
0000
0300
0010
0000
,
0001
0000
0100
0010
0100
0000
0001
0000
1000
0000
0100
0000
0010
0000
0100
0000
,
0001
0000
1000
0100
1000
0000
0010
0000
0100
0000
0001
0000
1000
0000
0100
0000
,
1000
0000
0010
0100
0010
0000
1000
0000
0001
0000
0010
0000
0100
0000
2200
0000
,
3300
0220
0330
0022
0033
0001
0100
2020
,
3030
0100
2020
3030
0100
0001
0020
0000
,
0230
0000
0300
0100
0010
0000
0000
0001
0000
0000
1000
0000
0001
0000
0000
1000
,
0000
0000
0020
0000
0000
0000
0130
0000
0010
0000
2000
0000
0000
3000
1000
0000
,
0100
0000
0010
0001
0010
0000
0100
0000
0010
0000
0001
0000
0100
0000
0001
0000
,
0010
0000
0001
0000
0100
0000
0001
0000
1000
0000
0100
0010
0001
0000
0100
0000
,
0020
0000
0230
0000
0302
0000
1003
0001
,
0010
0000
0001
0010
0001
0000
1000
0000
0100
0000
0000
0000
0022
0000
0000
0033
,
1000
0000
0100
0010
0001
0000
1000
0000
0010
0000
0100
0000
0001
1000
0001
0000
,
1000
1000
0010
0010
0100
0100
0100
0000
,
0001
0000
0000
0000
0200
0000
0010
0000
0020
0330
0000
0000
1000
0000
0000
0000
,
0001
0000
0000
0000
2000
0000
0100
0000
0200
3300
0000
0000
0010
0000
0000
0000
,
0001
0000
0100
0020
0000
0230
0000
0000
,
0000
0302
0000
2003
0010
0000
3010
1000
,
0010
0100
0002
0000
1003
0100
0010
0001
,
0010
0100
2000
0000
3001
0000
0100
0010
,
2000
0000
0000
0000
3200
0000
0000
0000
0000
0000
0000
0000
0300
0000
0011
0001
,
0000
0000
0010
0000
0000
0000
0001
0000
0000
0100
0000
0000
0000
0010
0000
0000
2000
0000
0000
0000
3200
0000
0000
0000
2300
0000
3000
0000
2002
0000
3003
0000
,
0010
0000
0100
1000
0001
0000
0110
0000
0001
0000
0020
0000
0230
0300
2200
0300
,
3100
0000
0010
0100
0001
0000
0101
0000
0020
0000
2030
0000
3200
0300
0022
0033
,
0010
0000
0000
0000
0000
0000
0100
0000
0000
1000
0000
0000
0010
0000
0000
0000
0000
0000
1100
0000
0000
0000
0000
0000
0020
0000
0000
0000
0000
0000
0000
0000
0000
0030
0000
0000
0010
0000
0000
0000
0002
0000
0000
0000
0000
0000
0000
0000
,
0013
0000
0100
0000
0010
0000
1000
0100
1000
0000
0001
0000
0010
0000
0100
0000
,
1000
0000
0010
0000
0100
0000
0001
0100
0001
0000
0010
0000
0001
0000
1000
0000
,
0010
1000
0100
0020
0030
0202
0303
0022
,
0033
0000
0100
0000
1000
0000
0010
0000
0010
0000
1000
0000
0001
0000
0010
0001
,
0100
0010
1000
0002
0000
0203
0000
0320
,
0000
0000
0000
0000
0000
0000
0130
0010
0100
0000
0001
0000
1000
0000
0100
0000
,
0010
0000
0001
0000
0010
0000
0220
0000
0000
0330
1000
0000
0100
0000
1000
0000
,
0220
0000
0000
0330
0202
0000
0000
0303
2020
0000
0000
3030
1000
0000
1000
0000
,
0100
0000
1000
0000
0100
0010
0000
0010
0001
0000
0000
0101
0000
0000
1010
0000
,
0000
0000
1100
0000
0000
0000
0000
0000
2020
0000
0000
3030
0000
0000
0000
0000
;
