#TITLE:Dancing in the Moonlight;
#SUBTITLE:;
#ARTIST:Toploader;
#TITLETRANSLIT:;
#SUBTITLETRANSLIT:;
#ARTISTTRANSLIT:;
#GENRE:Groove;
#CREDIT:Blood4Fame;
#MUSIC:Dancing in the Moonlight.ogg;
#BANNER:Banner.png;
#BACKGROUND:BG.png;
#CDTITLE:;
#SAMPLESTART:55.934;
#SAMPLELENGTH:16.294;
#SELECTABLE:YES;
#OFFSET:-0.271;
#BPMS:0.000=119.447;
#STOPS:;
#BGCHANGES:;
#FGCHANGES:;

//--------------- dance-single - Blood4Fame ----------------
#NOTES:
     dance-single:
     Blood4Fame:
     Beginner:
     3:
     0,0,0,0,0:
0002
0000
0000
0000
,
0203
0000
0000
0000
0000
0300
0000
0000
,
0020
0000
2030
0000
,
3200
0000
0000
0000
2000
0000
0000
3300
,
0200
0000
0000
0000
0000
0300
1000
0000
,
0002
0000
0003
0000
,
0020
0000
0230
0000
,
0320
0000
0030
2000
,
3000
1000
0000
0100
,
0000
0010
0010
0010
,
0000
1000
0000
0001
,
0000
0010
0010
0010
,
0000
1001
0000
0100
,
0000
0010
0100
0010
,
0000
1000
0000
0001
,
0000
1000
1000
1000
,
0000
0100
0000
0001
,
0000
1000
1000
1000
,
0000
0010
0000
0001
,
0000
0100
0100
0100
,
0000
0001
0000
1000
,
0000
0010
0000
0010
,
0000
1000
0000
0100
,
0000
0001
0000
0010
,
0000
1001
0000
0010
,
0000
1000
0000
0100
,
0000
0100
0000
0001
,
0000
0010
0000
0100
,
0100
0100
0000
1000
,
1000
0000
1000
0001
,
0000
1000
0000
0010
,
0000
0010
0000
0101
,
0000
0001
0100
0010
,
0000
0010
0010
0100
,
0000
1000
0000
0010
,
0000
1000
0000
0101
,
2000
0000
0000
0000
,
0000
0000
3000
0001
,
0020
0030
0000
0000
0200
0300
0000
0000
,
0020
0030
0000
0000
0002
0003
0000
0000
,
0200
0000
0000
0000
,
0000
0300
0001
0000
1000
0000
0000
0000
,
0001
0000
1000
0000
,
0010
0000
0100
0000
,
1000
1000
1000
0000
,
0010
0010
0010
0000
,
0001
0000
0100
0000
,
0010
0000
0001
0000
,
1000
1000
1000
0000
,
0100
0100
0100
0000
,
0010
0000
0100
0000
,
0001
0000
0010
0000
,
0100
0100
0100
0000
,
0001
0001
0000
0001
,
0001
0000
0000
0010
,
0000
0100
0000
0001
,
0000
1000
1000
0100
,
0000
0010
0010
0100
,
0000
1000
0000
0100
,
0000
0010
0000
0100
,
0100
0100
0000
0010
,
0010
0010
0000
0001
,
0000
1001
0000
1010
,
0000
0110
0000
0101
,
2000
0000
0000
0000
0000
0000
0000
3000
;

//--------------- dance-single - Blood4Fame ----------------
#NOTES:
     dance-single:
     Blood4Fame:
     Easy:
     4:
     0,0,0,0,0:
0002
0000
0000
0000
,
0203
0000
0000
0000
0000
0300
0100
0000
,
0020
0000
2030
0000
,
3200
0000
0000
0000
2000
0000
0000
3300
,
2200
0000
0000
0000
0000
3300
1000
0000
,
0002
0000
0000
0000
0003
0000
0000
2020
,
0000
3030
0000
0101
0000
0001
0000
0022
,
0000
0033
0000
2000
0000
3000
0100
0000
,
1000
0000
1000
0000
0000
0001
0000
0001
,
0000
0000
0000
0000
0010
0000
0000
0100
,
0000
0000
0000
0100
0000
0000
0000
0010
,
0000
0000
0000
1000
0000
0001
0000
0000
,
0001
0000
1001
0000
0000
1000
0000
1000
,
0000
0000
0100
1000
,
0010
0000
0000
0001
0000
0000
0000
0010
,
0000
0000
0000
0100
0000
0000
1000
0000
,
1000
0000
0100
0000
0000
0010
0000
0100
,
0000
1000
0000
0001
,
0100
0000
0000
0001
0000
0000
0000
1000
,
0000
0000
0000
0010
0000
0000
0000
0000
,
0100
0000
0001
0000
0000
1000
0000
0100
,
0000
0000
0000
0000
0001
0000
0000
0010
,
0000
0000
0000
0100
0000
0000
0000
1000
,
0000
0000
0000
0100
0000
0000
0000
0010
,
0000
0000
1001
0000
0000
0100
0000
1000
,
0000
0000
0010
0000
0000
0000
0000
0100
,
0000
0000
0000
0010
0000
0000
0000
1000
,
0000
0000
0000
0100
0000
0001
0000
0100
,
0000
0000
0100
0000
0000
0100
0000
0010
,
0000
0000
1000
0001
,
0000
1001
0000
1010
,
0000
0110
0000
0101
,
1000
0000
0000
0001
0000
0100
0000
0010
,
0000
0000
0010
0100
,
0000
1001
0000
0110
,
0000
1010
0000
0101
,
2000
0000
0000
0000
,
0000
0000
3000
0001
,
0020
0030
0000
0000
0200
0300
0000
0000
,
0020
0030
0000
0000
0002
0003
0000
0000
,
0200
0000
0000
0000
,
0000
0300
0001
0000
1000
0000
0100
0000
,
0001
0000
0000
0020
0030
0000
0000
0200
,
0300
0000
0000
2000
3000
0000
0000
0000
,
1000
0000
1000
0000
0000
0001
0000
0001
,
0000
0000
0000
0000
0010
0000
0000
0100
,
0000
0000
0000
0100
0000
0000
0000
0010
,
0000
0000
0000
1000
0000
0001
0000
0000
,
0001
0000
1001
0000
0000
1000
0000
1000
,
0000
0000
0100
1000
,
0010
0000
0000
0001
0000
0000
0000
0010
,
0000
0000
0000
0100
0000
1000
0000
0100
,
0000
0000
0100
0000
0000
0100
0000
0010
,
0000
0000
1000
0001
,
0000
1001
0000
1010
,
0000
0110
0000
0101
,
1000
0000
0000
0001
0000
0100
0000
0010
,
0000
0000
0010
0100
,
0000
1001
0000
0110
,
0000
0000
1010
0000
0000
0000
0000
0100
,
0000
0000
0100
0000
0000
0100
0000
0010
,
0000
0000
1000
0001
,
0000
1001
0000
1010
,
0000
0110
0000
0101
,
2000
0000
0000
0000
0000
0000
0000
3000
;

//--------------- dance-single - Blood4Fame ----------------
#NOTES:
     dance-single:
     Blood4Fame:
     Medium:
     6:
     0,0,0,0,0:
1000
0001
0200
0010
0000
0310
0000
2000
,
0000
0000
3000
0000
0100
1000
0100
0002
,
0000
0000
1003
0200
0000
0310
0001
2000
,
0000
0000
0000
3200
0000
0020
0300
0031
,
2002
0000
0000
0000
3003
0010
1000
0002
,
0200
0000
0303
0000
0100
0010
0100
0002
,
0000
0000
0013
0200
0000
0310
0001
0200
,
0000
0300
0101
0000
0001
0010
0000
0011
,
0000
0000
0100
0010
0000
0100
0010
0001
,
0000
1000
0100
0000
1000
0010
0100
0002
,
0000
0203
0000
0320
0000
2030
0000
3002
,
0000
0103
0010
2000
0000
3020
0000
0230
,
0000
0302
0000
0023
0000
0031
1000
0000
,
0001
0100
0010
0000
1000
0100
1000
0020
,
0000
1030
0000
0020
0000
2030
0000
3200
,
0000
0300
0011
0000
0000
1000
0100
0000
,
1000
0001
0200
0010
0000
0310
0000
0002
,
0000
0000
0003
0000
0100
1000
0100
0002
,
0000
0000
0013
0200
0000
0310
0001
2000
,
0000
3100
0001
2000
0000
0100
0000
3010
,
0100
0000
0001
0100
0000
0010
1000
0200
,
0000
0000
0000
0000
0310
1000
0100
0020
,
0000
0032
0000
0203
0000
2300
0000
3200
,
0000
0302
0000
0023
0000
0230
0000
2300
,
0000
3000
1001
0000
0000
0100
0000
0200
,
0000
1300
0100
0000
0010
0001
0100
0020
,
0000
2030
0000
3002
0000
2003
0000
3200
,
0000
0300
0010
0100
0000
0010
0001
0000
,
1000
0001
0200
0010
0000
0310
0000
0002
,
0000
0000
0003
0000
0100
1000
0100
0002
,
0000
0000
0013
0200
0000
0310
0001
2000
,
0000
0000
0000
3200
0000
0020
0300
1031
,
0001
1000
0200
0010
0000
0310
0000
2000
,
0000
0000
3000
0000
0100
0001
0100
2000
,
0000
0000
3010
0200
0000
0310
1000
0002
,
0000
0000
0000
0203
0000
0020
0300
0031
,
0100
0000
0000
0000
0000
0110
0000
0011
,
0000
0101
0101
0000
0000
0000
0010
0000
,
1100
0000
0000
0010
0100
0000
0000
0001
,
0100
0000
0000
0010
1000
0000
0000
0000
,
2002
0000
0000
3003
0000
0110
0000
1100
,
0000
1000
0100
0000
1000
0010
0100
0000
,
0101
0000
0000
0101
0110
0000
0000
0110
,
1010
0000
0000
1010
1001
0000
0000
0000
,
0000
0000
1001
0000
0000
0001
0000
0020
,
0000
0000
0000
0000
0031
0100
1000
0100
,
0000
0100
0010
1000
0000
1000
0010
0100
,
0000
0000
0100
0010
1000
1000
0000
0010
,
0000
1000
0000
0001
0000
1000
0100
0100
,
0010
0000
0001
0001
0100
0100
0000
1010
,
0000
1010
0000
0110
0000
0110
0000
0101
,
0000
0000
0101
0000
0000
1000
0100
0010
,
0001
1000
0200
0010
0000
0310
0000
0002
,
0000
0000
0003
0000
0100
1000
0100
0002
,
0000
0000
0013
0200
0000
0310
0001
2000
,
0000
0000
0000
3200
0000
0020
0300
0031
,
1000
0001
0020
0100
0000
0130
0000
0002
,
0000
0000
0003
0000
0010
1000
0010
2000
,
0000
0000
3100
0020
0000
0130
1000
0002
,
0000
0000
0000
0023
0000
0200
0030
1301
,
1000
0001
0200
0010
0000
0310
0000
2000
,
0000
0000
3000
0000
0100
1000
0100
0020
,
0000
0000
0031
0200
0000
0310
1000
0002
,
0000
0000
0000
0203
0000
0020
0300
1030
,
0200
0000
0000
0000
,
0300
0000
0000
0000
;

//--------------- dance-single - Blood4Fame ----------------
#NOTES:
     dance-single:
     Blood4Fame:
     Hard:
     7:
     0,0,0,0,0:
0001
1000
0200
0010
0000
0010
0000
2000
,
0000
0000
3300
0000
0100
0001
0100
2000
,
0000
0000
3010
0200
0000
0010
0301
2000
,
0000
0000
0000
3200
0000
0020
0300
0031
,
1001
1000
0200
0010
0000
0010
0000
2000
,
0000
0000
3300
0000
0100
0010
0100
2000
,
0000
0000
3010
0200
0000
0310
1000
0200
,
0000
0300
1100
0000
1100
0110
0000
0011
,
0000
1000
0100
0010
0000
0100
0010
1000
,
0000
0001
0100
0000
0001
0010
0100
0000
,
0001
1000
0100
0000
0010
0001
0100
0000
,
1000
0100
0010
0000
0001
0010
0100
1000
,
0000
0001
0100
0010
0000
0001
1000
0000
,
1000
0100
0010
0000
0001
0100
0001
0000
,
0010
1000
0010
0000
0100
0001
0100
0000
,
0010
0001
0100
1010
0000
0001
0100
0000
,
0001
1000
0200
0010
0000
0010
0000
2000
,
0000
0000
3300
0000
0100
0001
0100
2000
,
0000
0000
3010
0200
0000
0010
0301
2000
,
0000
3100
1000
0002
0000
0100
0000
0013
,
0100
0000
0001
0100
0000
0010
1000
0100
,
0000
0001
0100
0000
0010
1000
0100
1000
,
0000
0001
0100
0010
0000
0001
1000
0100
,
0000
0100
1000
0010
0000
0010
1000
1000
,
0100
1000
0001
0110
0000
0100
1000
0100
,
0000
0001
0100
0000
0010
1000
0100
0010
,
0000
0001
0100
1000
0000
0001
0100
0010
,
0000
0010
1000
0100
0000
0010
0001
0000
,
1000
0000
1000
0000
1000
0000
0001
0010
0100
1000
0100
0000
0010
0000
0000
0000
,
0001
0100
0100
0000
0001
0100
0010
0000
,
1000
1000
0100
0000
0001
0001
0010
0000
,
1000
0001
0100
0000
0001
0001
0100
1000
,
0100
0000
0010
0000
0010
0000
1000
0100
0001
0100
1000
0000
0001
0000
0000
0000
,
1000
0100
0011
0000
0100
0010
1000
0000
,
0001
0100
0010
0000
0001
1000
0100
0000
,
0001
0100
0001
0000
1000
0100
0010
0001
,
0100
0000
0100
0000
0001
0100
0100
0010
,
0000
1000
1000
0000
0000
1000
0010
0000
,
0001
0100
0000
0000
0010
0100
0000
0000
,
1000
0100
0000
0000
0010
0001
0000
0000
,
2002
0000
0000
3003
0000
0110
0000
0101
,
0000
1000
0100
0000
0001
0010
0100
0000
,
1100
0000
0000
1100
0101
0000
0000
0101
,
1010
0000
1000
0000
0001
0100
0000
2000
,
0000
0000
3001
0100
0010
1000
0100
0010
,
0000
0001
0100
0000
1000
0100
0001
0100
,
0000
0100
0010
0001
0000
0001
0010
0100
,
0000
1000
0100
0000
0001
0001
0100
0010
,
0000
1000
0100
1000
0000
0001
0100
0100
,
0010
0000
1000
1000
0100
0100
0000
0011
,
0000
0011
0000
0110
0000
0110
0000
1100
,
0000
0000
1100
0000
0000
0001
0100
0010
,
0001
0000
0001
0000
0001
0000
1000
0100
0010
0001
0010
0000
0100
0000
0000
0000
,
1000
0010
0010
0000
1000
0010
0100
0000
,
0001
0001
0010
0000
1000
1000
0100
0000
,
0001
1000
0010
0000
1000
1000
0010
0001
,
0010
0000
0100
0000
0100
0000
0001
0010
1000
0010
0001
0000
1000
0000
0000
0000
,
0001
0010
1100
0000
0010
0100
0001
0000
,
1000
0010
0100
0000
1000
0001
0010
0000
,
1000
0010
1000
0000
0001
0010
0100
1000
,
0001
0000
0001
1000
0100
0000
0010
0000
,
1000
0000
0000
0000
1000
0100
0010
0000
,
0001
0000
1000
0000
,
0001
0000
1000
0100
,
0200
0000
0000
0000
,
0300
0000
0000
0000
;
