#TITLE:Dance Monkey;
#SUBTITLE:;
#ARTIST:TONES AND I;
#TITLETRANSLIT:;
#SUBTITLETRANSLIT:;
#ARTISTTRANSLIT:;
#GENRE:Pop;
#CREDIT:Blood4Fame;
#MUSIC:music.mp3;
#BANNER:banner.png;
#BACKGROUND:bg.png;
#CDTITLE:;
#SAMPLESTART:47.473;
#SAMPLELENGTH:20.071;
#SELECTABLE:YES;
#OFFSET:-0.232;
#BPMS:0.000=98.000
,44.000=94.000
,48.000=98.000
,76.000=99.000
,80.000=98.000
;
#STOPS:;
#BGCHANGES:-0.232=video.avi=1.000=1=0=1;
#FGCHANGES:;

//--------------- dance-single - Blood4Fame ----------------
#NOTES:
     dance-single:
     Blood4Fame:
     Easy:
     3:
     0,0,0,0,0:
0000
0000
0000
0000
,
0000
0000
0000
0000
,
0000
0000
0000
0000
,
0000
0000
0000
0000
,
0010
0000
0000
0010
,
0100
0000
0000
0100
,
0010
0000
0000
0010
,
1000
0000
0000
1000
,
0010
0000
0000
0010
,
0001
0000
0000
0001
,
0020
0000
0000
0000
,
0230
0000
0000
0300
,
1000
1000
1000
0000
,
0100
0100
0100
0000
,
1000
1000
1000
0000
,
0001
0001
0001
0000
,
1000
0100
1000
0000
,
1000
0010
1000
0000
,
1001
0000
1001
0000
,
0100
0000
0000
0000
,
0010
0010
0010
0010
,
0001
0001
0001
0001
,
1000
1000
1000
1000
,
0100
0100
0100
0100
,
0001
0001
0001
0001
,
1000
1000
1000
1000
,
0010
0010
0010
0010
,
0100
0100
0100
0100
,
1000
0100
1000
0000
,
0001
0100
0001
0000
,
1000
0010
1000
0000
,
0001
0010
0001
0000
,
0100
0010
0100
0000
,
0100
0001
0100
0000
,
0100
1000
0100
0000
,
0010
0100
0010
0000
,
1000
0000
0001
0000
,
0100
0000
0010
0000
,
1000
0000
0001
0000
,
0100
0000
0100
0100
,
0010
0000
1000
0000
,
0001
0000
0010
0000
,
0001
0000
1000
0000
,
0100
0100
0010
0100
,
1000
1000
1000
1000
,
0001
0001
0001
0001
,
0100
0100
0100
0100
,
0010
0010
0010
0010
,
1000
1000
1000
1000
,
0100
0100
0100
0100
,
0010
0010
0010
0010
,
0001
0001
0001
0001
,
1000
0100
1000
0000
,
0001
0100
0001
0000
,
0010
1000
0010
0000
,
0100
0001
0100
0000
,
0010
0001
0010
0000
,
0100
1000
0100
0000
,
1001
0000
0000
0000
,
0110
0000
0000
0000
,
0100
0000
0000
0000
;

//--------------- dance-single - Blood4Fame ----------------
#NOTES:
     dance-single:
     Blood4Fame:
     Medium:
     4:
     0,0,0,0,0:
0000
0000
0000
0000
,
0000
0000
0000
0000
,
0000
0000
0000
0000
,
0000
0000
0000
0000
,
1001
0000
0000
0100
0000
0000
0010
0000
,
0011
0000
0000
0100
0000
0000
1000
0000
,
0110
0000
0000
1000
0000
0000
0010
0000
,
1100
0000
0000
0010
0000
0000
0001
0000
,
0101
0000
0000
1000
0000
0000
0100
0000
,
1010
0000
0000
0100
0000
0000
0010
0000
,
2002
0000
0000
3003
,
0220
0000
0000
0330
,
1000
0000
0000
1000
0100
0000
0000
0000
,
0001
0000
0000
0001
0100
0000
0000
0000
,
0010
0000
0000
0100
0010
0000
0010
0000
,
1000
0000
0000
1000
0100
0000
0100
0000
,
0010
0000
0000
0010
0001
0000
0000
0000
,
0001
0000
0000
0100
0100
0000
0000
0000
,
0100
0000
0000
0010
1000
0000
0000
0000
,
0000
0000
0000
0000
,
1000
0100
1000
0010
,
1000
0000
0100
0000
1000
0000
0010
0100
,
0001
0100
0001
0010
,
0001
0100
0001
0010
,
0100
1000
0100
0001
,
0100
0000
1000
0000
0100
0000
1000
0010
,
0100
0010
0001
0010
,
1000
0010
0001
1000
,
0001
0100
0001
0010
,
0001
0000
0100
0000
0001
0000
0010
0100
,
1000
0100
1000
0010
,
1000
0100
1000
0010
,
0100
0001
0100
1000
,
0100
0000
0001
0000
0100
0000
0001
0010
,
0100
0010
1000
0010
,
0001
0010
1000
1001
,
0200
0000
0320
0000
,
0032
0000
0000
0000
0203
0000
0000
2300
,
3000
0000
0000
0000
,
0000
0000
0000
0000
,
0020
0000
2030
0000
,
3002
0000
0000
0000
0023
0000
0000
0230
,
0000
0020
0000
0330
0000
0000
0000
0000
,
0000
0000
0000
0000
,
1000
0010
1000
0100
,
1000
0000
0010
0000
1000
0000
0100
0010
,
0001
0010
0001
0100
,
0001
0010
0001
0100
,
0010
1000
0010
0001
,
0010
0000
1000
0000
0010
0000
1000
0100
,
0010
0100
0001
0100
,
1000
0100
0001
1000
,
0001
0010
0001
0100
,
0001
0000
0010
0000
0001
0000
0100
0010
,
1000
0010
1000
0100
,
1000
0010
1000
0100
,
0010
0001
0010
1000
,
0010
0000
0001
0000
0010
0000
0001
0100
,
0010
0100
0001
1000
,
0001
0100
0010
1000
,
0200
0000
0000
0300
0000
0000
0000
0000
;

//--------------- dance-single - Blood4Fame ----------------
#NOTES:
     dance-single:
     Blood4Fame:
     Hard:
     6:
     0,0,0,0,0:
0000
0000
0000
0000
,
0000
0000
0000
0000
,
0000
0000
0000
0000
,
0000
0000
0000
0000
0000
0000
0001
0010
,
0001
0000
0001
0000
0100
0000
0001
0000
0010
0001
0000
0100
0000
0010
0000
2000
,
0000
0000
0000
3000
0000
0000
0000
0000
0000
0000
0000
0000
1000
0100
0000
0010
,
0000
0000
0010
0001
0000
0000
0001
0100
0000
0001
0000
1000
0000
0001
0000
0200
,
0000
0000
0000
0300
0000
0000
0000
0000
0000
0000
1000
0000
0001
0000
1000
0000
,
1001
0000
0100
0000
0010
0000
0001
0000
0010
0100
0000
0100
0000
0010
0000
0002
,
0000
0000
0000
0003
0000
0000
0101
0000
0000
0000
0000
0000
1000
0010
0000
0000
,
0200
0000
0000
0000
0000
0000
0000
0300
,
0220
0000
0000
0000
0000
0000
0000
0330
,
1100
0000
1000
0000
0100
0000
1000
0000
0100
0000
1000
0000
0001
0100
0000
0000
,
1010
0000
0010
0000
1000
0000
0010
0000
1000
0000
0010
0000
1000
0010
0000
0000
,
1001
0000
1000
0000
0001
0000
1000
0000
0100
0000
0010
0001
0000
0001
0000
0000
,
0110
0100
0010
0100
2001
0000
0200
3300
,
0011
0000
0001
0000
0010
0000
0001
0000
0010
0000
0001
0000
0010
0001
0000
0000
,
0101
0000
0100
0000
0001
0000
0100
0000
0001
0000
0100
0000
0001
1000
0000
0000
,
1001
0010
0100
0010
0010
0100
0100
0010
,
1001
0000
0000
0000
,
1000
0000
0001
0000
1000
0000
0010
0000
0100
0000
0001
0000
0010
0001
0000
0100
,
0000
0000
0010
0000
1000
0000
0100
0000
0010
0000
0000
0100
1000
0100
0000
0010
,
0000
0000
0001
0100
0010
0000
1000
0100
0000
1000
0000
1000
0100
0000
0010
0000
,
0001
0002
0000
0000
0100
0000
0103
0000
,
0001
0000
1000
0000
0001
0000
0010
0000
0100
0000
1000
0000
0010
1000
0000
0100
,
0000
0000
0010
0000
0001
0000
0100
0000
0010
0000
0000
0000
0100
0001
0000
1000
,
0000
0000
0010
0000
0010
0000
1000
0000
0100
1000
0000
0002
0000
0000
0013
0000
,
0100
2000
0000
0000
0100
0000
3100
0000
,
1000
0000
0001
0000
1000
0000
0010
0000
0100
0000
0001
0000
0010
0001
0000
0200
,
0000
0000
0302
0000
0203
0000
2300
0000
3100
0000
0000
0100
0010
1000
0000
0001
,
0000
0000
0010
0100
0010
0000
0001
0100
0000
0001
0000
1000
0100
0000
0010
0000
,
0001
0002
0000
0000
0100
0000
0103
0000
,
0001
0000
1000
0000
0001
0000
0010
0000
0100
0000
1000
0000
0010
1000
0000
0100
,
0000
0000
0010
0000
0001
0000
0100
0000
0010
0000
0000
0000
0100
0001
0000
1000
,
0000
0000
0001
0000
0010
0000
0100
0000
1000
0100
0000
0010
0000
0000
0010
0000
,
0001
0000
2000
0000
0000
0000
3000
0000
0200
0000
0000
0300
0020
0000
0000
0030
,
0220
0000
0000
0330
0022
0000
0000
0033
,
0202
0000
0000
0303
0022
0000
0033
2100
,
0000
0010
0000
3010
0000
1000
0100
0102
,
0000
0010
0000
0013
0000
0001
1001
0000
,
0101
0100
0010
1000
0100
0010
0001
0000
,
0011
0010
0100
1000
0010
0100
0001
0000
,
1010
0010
0100
0001
0010
0100
1000
0000
,
2000
0000
0100
3100
,
0001
0000
1000
0000
0001
0000
0100
0000
0010
0000
1000
0000
0100
1000
0000
0010
,
0000
0000
0100
0000
0001
0000
0010
0000
0100
0000
0000
0010
0001
0010
0000
0100
,
0000
0000
1000
0010
0100
0000
0001
0010
0000
0001
0000
0001
0010
0000
0100
0000
,
1000
2000
0000
0000
0010
0000
3010
0000
,
1000
0000
0001
0000
1000
0000
0100
0000
0010
0000
0001
0000
0100
0001
0000
0010
,
0000
0000
0100
0000
1000
0000
0010
0000
0100
0000
0000
0000
0010
1000
0000
0001
,
0000
0000
0100
0000
0100
0000
0001
0000
0010
0001
0000
2000
0000
0000
3100
0000
,
0010
0002
0000
0000
0010
0000
0013
0000
,
0001
0000
1000
0000
0001
0000
0100
0000
0010
0000
1000
0000
0100
1000
0000
0020
,
0000
0000
2030
0000
3020
0000
0032
0000
0013
0000
0000
0010
0100
0001
0000
1000
,
0000
0000
0100
0010
0100
0000
1000
0010
0000
1000
0000
0001
0010
0000
0100
0000
,
1000
2000
0000
0000
0010
0000
3010
0000
,
1000
0000
0001
0000
1000
0000
0100
0000
0010
0000
0001
0000
0100
0001
0000
0010
,
0000
0000
0100
0000
1000
0000
0010
0000
0100
0000
0000
0000
0010
1000
0000
0001
,
0000
0000
1000
0000
0100
0000
0010
0000
0001
0010
0000
0100
0000
0000
0100
0000
,
1000
0002
0000
0003
0000
0000
0000
0000
;
