#TITLE:Corazón Sin Cara;
#SUBTITLE:;
#ARTIST:Prince Royce;
#TITLETRANSLIT:Love is Blind;
#SUBTITLETRANSLIT:;
#ARTISTTRANSLIT:;
#GENRE:Latin;
#CREDIT:Blood4Fame;
#MUSIC:music.mp3;
#BANNER:banner.png;
#BACKGROUND:bg.png;
#CDTITLE:;
#SAMPLESTART:0.000;
#SAMPLELENGTH:0.000;
#SELECTABLE:YES;
#OFFSET:-0.788;
#BPMS:0.000=126.878;
#STOPS:;
#BGCHANGES:-1.288=video.avi=1.000=1=0=1;
#FGCHANGES:;

//--------------- dance-single - Blood4Fame ----------------
#NOTES:
     dance-single:
     Blood4Fame:
     Beginner:
     2:
     0,0,0,0,0:
0000
0000
0000
0000
,
0000
0000
0000
0000
,
0000
0000
0000
0000
,
0000
0000
0000
0000
,
1000
0000
0000
0000
,
1000
0000
0000
0000
,
0001
0000
0000
0000
,
0001
0000
0000
0000
,
0110
0100
0000
0000
,
0110
0010
0000
0000
,
1000
0000
0100
0000
,
0001
0000
0100
0000
,
0110
0010
0000
0000
,
0110
0100
0000
0000
,
0001
0000
0100
0000
,
1000
0000
0100
0000
,
0010
0000
0010
0000
,
0100
0000
0100
0000
,
0001
0000
0001
0000
,
1000
0000
1000
0000
,
0100
0000
0100
0000
,
1000
0000
1000
0000
,
0001
0000
0001
0000
,
0100
0000
0100
0000
,
0110
0000
0000
0000
,
0110
0000
0000
0000
,
0010
0000
0010
0000
,
0100
0000
0100
0000
,
1001
0000
0000
0000
,
1001
0000
0000
0000
,
0001
0000
0001
0000
,
1000
0000
1000
0000
,
1100
0000
0000
0000
,
1100
0000
0000
0000
,
0100
0000
0100
0000
,
1000
0000
1000
0000
,
0011
0000
0000
0000
,
0011
0000
0000
0000
,
0001
0000
0001
0000
,
0010
0000
0010
0000
,
1000
0000
0000
0000
,
0001
0000
0000
0000
,
0100
0000
0100
0000
,
0010
0000
0010
0000
,
1000
0000
0000
0000
,
0010
0000
0000
0000
,
0100
0000
0100
0000
,
0001
0000
0001
0000
,
2000
3000
0000
1000
,
0002
0003
0000
0100
,
0020
0030
0000
0010
,
0200
0300
0000
0001
,
2000
3000
0000
1000
,
0002
0003
0000
0001
,
0020
0030
0000
0010
,
0002
0003
0000
0001
,
0100
0000
0100
0000
,
0010
0000
0010
0000
,
2000
0000
3000
0000
,
0002
0000
0003
0000
,
0010
0000
0010
0000
,
0100
0000
0100
0000
,
2000
0000
3000
0000
,
0002
0000
0003
0000
,
0200
0000
0000
0000
,
0000
0000
0000
0000
,
0300
0000
0000
0000
;

//--------------- dance-single - Blood4Fame ----------------
#NOTES:
     dance-single:
     Blood4Fame:
     Easy:
     3:
     0,0,0,0,0:
0000
0000
0000
0000
,
0000
0000
0000
0000
,
0000
0000
0000
0000
,
0000
0000
0000
0000
,
1000
0000
1000
0001
0000
0001
1000
0000
,
1000
0001
0000
0001
0000
0000
0100
0000
,
0001
0000
0001
1000
0000
1000
0001
0000
,
0010
0100
0000
0000
0001
0000
0001
0000
,
1000
0000
0001
0001
,
0010
0000
0001
0001
,
0010
0000
0001
1000
,
0010
0000
0100
0010
,
1000
0100
0000
0100
,
0001
0010
0000
0100
,
0100
0000
0000
0010
0000
0000
0010
0000
,
1000
0000
0000
0100
0000
0000
0001
0000
,
0200
0302
1003
2000
,
3010
0010
0100
0100
,
2000
0000
0000
3000
0020
0000
0230
0000
,
0300
0002
0000
0003
0001
0000
0002
0000
,
0000
2003
3001
0002
,
0103
0100
0010
0010
,
0002
0000
0000
0003
0200
0000
0320
0000
,
0030
2000
0000
3000
1000
0000
1000
0000
,
0000
1000
0000
0000
0100
0000
0001
0000
,
0000
0001
0000
0000
0100
0000
0100
0000
,
0010
0010
0100
0100
,
0010
0020
1030
2000
,
0000
3001
0000
0000
0100
0000
1000
0000
,
0000
1000
0000
0000
0100
0000
0100
0000
,
0010
0010
0100
0100
,
0010
0020
0031
0002
,
0000
1003
0000
0000
0100
0000
0001
0000
,
0000
0001
0000
0000
0100
0000
0100
0000
,
0010
0010
0100
0100
,
0010
0020
1030
2000
,
0000
3001
0000
0000
0100
0000
1000
0000
,
0000
1000
0000
0000
0100
0000
0100
0000
,
0010
0010
0100
0100
,
0010
0020
0031
0001
,
0200
0302
1003
2000
,
3010
0010
0100
0100
,
2000
0000
0000
3000
0020
0000
0230
0000
,
0300
0002
0000
0003
0001
0000
0002
0000
,
0000
2003
3001
0002
,
0103
0100
0010
0010
,
0002
0000
0000
0003
0200
0000
0320
0000
,
0030
2000
0000
3000
2000
0000
0000
0000
,
3020
0000
0030
1000
,
1000
0001
0001
1000
,
0020
0000
0030
0010
,
0010
1000
1000
0001
,
0000
1000
0001
0010
,
0000
0001
1000
0001
,
1000
0100
1000
0001
,
0001
0100
0001
0001
,
0200
0302
1003
2000
,
3010
0010
0100
0100
,
2000
0000
0000
3000
0020
0000
0230
0000
,
0300
0002
0000
0003
0001
0000
0002
0000
,
0000
2003
3001
0002
,
0103
0100
0010
0010
,
0002
0000
0000
0003
0200
0000
0320
0000
,
0030
2000
0000
3000
1000
0000
1000
0000
,
0001
0000
1000
0100
,
0000
0100
0000
0000
0010
0000
0000
0000
;

//--------------- dance-single - Blood4Fame ----------------
#NOTES:
     dance-single:
     Blood4Fame:
     Medium:
     4:
     0,0,0,0,0:
0000
0000
0000
0000
,
0000
0000
0000
0000
,
0000
0000
0000
0000
,
0000
0000
0000
0000
,
1000
0100
1000
0001
0000
0000
1000
0100
,
1000
0001
0000
0000
0100
0000
0100
0000
,
0001
0100
0001
1000
0000
0000
0001
1000
,
0010
0100
0000
0000
0001
0000
0001
0000
,
1000
0000
0100
0000
0001
0100
0001
0000
,
0010
0000
1000
0000
0001
0100
0001
0000
,
0010
0100
0001
1000
,
0010
0100
0000
0001
0100
0000
0010
0000
,
1000
0100
0001
0100
,
0001
0010
1000
0100
,
0100
0000
0000
0010
1000
0000
0010
0000
,
1000
0100
0000
0100
0010
0000
0001
0000
,
0200
0000
0302
0000
1003
0100
1000
0000
,
0010
0000
0010
0000
0100
0001
0100
0000
,
0001
0000
0000
0100
0020
0000
0230
0000
,
0301
0000
0000
0100
0001
0000
0001
0000
,
0010
0000
2000
0000
3001
0010
0002
0000
,
0103
0000
0100
0000
0010
1000
0010
0000
,
1000
0000
0000
0010
0200
0000
0320
0000
,
0030
2000
0000
3010
1000
0000
1000
0000
,
0100
1000
0000
0001
0100
0000
0001
0000
,
0100
0001
0000
1000
0100
0000
0100
0000
,
0010
0001
0010
0000
0100
1000
0100
0000
,
0010
0100
0010
0000
0001
0100
0001
0000
,
0000
0001
0000
1000
0100
0000
1000
0000
,
0100
1000
0000
0001
0100
0000
0100
0000
,
0010
1000
0010
0000
0100
0001
0100
0000
,
0010
0100
0020
0000
1030
0100
1000
0000
,
0000
1000
0000
0001
0100
0000
0001
0000
,
0100
0001
0000
1000
0100
0000
0100
0000
,
0010
0001
0010
0000
0100
1000
0100
0000
,
0010
0100
0020
0000
0031
0100
0001
0000
,
0000
0001
0000
1000
0100
0000
1000
0000
,
0100
1000
0000
0001
0100
0000
0100
0000
,
0010
1000
0010
0000
0100
0001
0100
0000
,
0010
0100
0020
0000
1030
0100
1000
0000
,
0001
0000
0002
0000
1003
0100
2000
0000
,
3010
0000
0010
0000
0100
0001
0100
0000
,
0001
0000
0000
0100
0020
0000
0230
0000
,
0301
0002
0000
0103
0001
0000
0001
0000
,
1000
0000
2000
0000
3001
0010
0002
0000
,
0103
0000
0100
0000
0010
1000
0010
0000
,
1000
0000
0000
0010
0200
0000
0320
0000
,
1030
0010
1000
0100
,
2000
0000
0000
0000
3000
0000
1000
0100
,
1000
0000
0001
0100
0001
0000
1000
0001
,
0020
0000
0000
0000
0030
0000
0010
0001
,
0010
0000
1000
0010
1000
0000
0001
1000
,
0100
1000
0001
0010
,
0001
0001
1000
0001
,
1000
0100
0100
0000
1000
0000
0001
0000
,
0001
0100
0100
0000
0001
0010
0001
0100
,
0200
0000
0302
0000
1003
0100
2000
0000
,
3010
0000
0010
0000
0100
0001
0100
0000
,
0001
0000
0000
0100
0020
0000
0230
0000
,
0301
0002
0000
0103
0001
0000
0001
0000
,
0010
0000
0001
0000
0001
0010
0002
0000
,
0103
0000
0100
0000
0010
1000
0010
0000
,
1000
0000
0000
0010
0200
0000
0320
0000
,
1030
2000
0000
3010
1000
0000
1000
0000
,
0001
0000
0000
1000
0100
0000
0100
0000
,
0000
0010
0000
0000
0110
0000
0000
0010
,
0001
0000
0000
0000
;

//--------------- dance-single - Blood4Fame ----------------
#NOTES:
     dance-single:
     Blood4Fame:
     Hard:
     5:
     0,0,0,0,0:
0000
0000
0000
0000
,
0000
0000
0000
0000
,
0000
0000
0000
0000
,
0000
0000
0000
0000
,
1000
0100
1000
0001
0000
0001
1000
0100
,
1000
0001
0000
0001
0100
0000
0100
0000
,
0001
0100
0001
1000
0000
1000
0001
1000
,
0010
0100
0000
0100
0001
0000
0001
0000
,
1000
0100
0000
0000
0000
0000
0010
0000
0001
0000
0100
0000
0001
0000
0000
0000
,
0010
0100
0000
0000
0000
0000
1000
0000
0001
0000
0100
0000
0001
0000
0000
0000
,
0010
0000
0100
0000
0010
0000
0001
0000
0000
1000
0000
0000
,
0010
0000
0000
0100
0000
0000
0000
0000
0000
0000
0000
0000
0000
0000
0000
0000
0001
0000
0000
0000
0000
0000
0000
0000
0100
0000
0000
0000
0000
0000
0000
0000
0000
0000
0000
0000
0010
0000
0000
0000
0000
0000
0000
0000
0000
0000
0000
0000
,
1000
0000
0000
0001
0000
0000
0000
0000
0000
0000
0000
0000
0100
0000
0000
0000
0000
0000
0000
0000
0001
0000
0000
0000
0000
0000
0000
0000
0010
0000
0000
0000
0000
0000
0000
0000
0100
0000
0000
0000
0000
0000
0010
0000
0000
0000
0000
0000
,
0001
0000
0000
0100
0000
0000
0000
0000
0000
0000
0000
0000
0010
0000
0000
0000
0000
0000
0000
0000
1000
0000
0000
0000
0000
0000
0000
0000
0010
0000
0000
0000
0000
0000
0000
0000
0100
0000
0000
0000
0000
0000
0001
0000
0000
0000
0000
0000
,
0100
0100
0000
0010
1000
0000
0010
0000
,
1000
0100
0000
0100
0010
0010
0001
0100
,
0200
0000
0302
0000
1003
0100
2000
0000
,
3010
0000
0010
0000
0100
0002
0100
0000
,
2003
0000
0000
3100
0020
0000
0230
0000
,
1300
0002
0000
0103
0001
0000
0002
0000
,
0010
0000
2003
0000
3001
0010
0002
0000
,
0103
0000
0100
0000
0010
2000
0010
0000
,
3002
0000
0000
0013
0200
0000
0320
0000
,
0031
2000
0000
3010
1000
0000
1000
0000
,
0100
1000
0000
0001
0100
0000
0001
0000
,
0100
0001
0000
1000
0100
0000
0100
0000
,
0010
0001
0010
0000
0100
2000
0100
0000
,
3010
0100
0020
0000
1030
0100
2000
0000
,
0000
3001
0000
1000
0100
0000
1000
0000
,
0100
1000
0000
0001
0100
0000
0100
0000
,
0010
1000
0010
0000
0100
0002
0100
0000
,
0013
0100
0020
0000
0031
0100
0002
0000
,
0000
1003
0000
0001
0100
0000
0001
0000
,
0100
0001
0000
1000
0100
0000
0100
0000
,
0010
0001
0010
0000
0100
2000
0100
0000
,
3010
0100
0020
0000
1030
0100
2000
0000
,
0000
3001
0000
1000
0100
0000
1000
0000
,
0100
1000
0000
0001
0100
0000
0100
0000
,
0010
1000
0010
0000
0100
0002
0100
0000
,
0013
0100
0020
0000
0031
0100
0001
0100
,
0200
0000
0302
0000
1003
0100
2000
0000
,
3010
0000
0010
0000
0100
0002
0100
0000
,
2003
0000
0000
3100
0020
0000
0230
0000
,
1300
0002
0000
0103
0001
0000
0002
0000
,
0010
0000
2003
0000
3001
0010
0002
0000
,
0103
0000
0100
0000
0010
2000
0010
0000
,
3002
0000
0000
0013
0200
0000
0320
0000
,
0031
0000
2000
0000
0000
0010
3000
0000
2000
0000
0000
0000
0100
0000
0000
0000
,
3020
0000
0000
0000
0030
0000
1000
0100
,
1000
0000
0001
0100
0001
0000
1000
0001
,
0020
0000
0000
0000
0030
0000
0010
0001
,
0010
0000
1000
0010
1000
0000
0001
1000
,
0200
1000
0001
0310
,
0201
0001
1000
0301
,
1000
0100
0100
0000
1000
0000
0001
0000
,
0001
0100
0100
0000
0001
0010
0001
0100
,
0200
0000
0302
0000
1003
0100
2000
0000
,
3010
0000
0010
0000
0100
0002
0100
0000
,
2003
0000
0000
3100
0020
0000
0230
0000
,
1300
0002
0000
0103
0001
0000
0002
0000
,
0010
0000
2003
0000
3001
0010
0002
0000
,
0103
0000
0100
0000
0010
2000
0010
0000
,
3002
0000
0000
0013
0200
0000
0320
0000
,
0031
2000
0000
3010
1000
0000
1000
0000
,
0001
0000
0000
1000
1100
0000
0100
0000
,
0000
0100
0000
0000
0110
0000
0000
0010
,
0010
0000
0000
0000
;
