#TITLE:Comin'at ya, My girl;
#SUBTITLE:;
#ARTIST:SEGA SOUND TEAM, NEXT DESIGN;
#TITLETRANSLIT:;
#SUBTITLETRANSLIT:;
#ARTISTTRANSLIT:;
#GENRE:Hip Hop;
#CREDIT:Blood4Fame;
#MUSIC:COMIN'AT YA, MY GIRL [Yakuza 5 OST].mp3;
#BANNER:Banner.png;
#BACKGROUND:BG.png;
#CDTITLE:;
#SAMPLESTART:0.000;
#SAMPLELENGTH:0.000;
#SELECTABLE:YES;
#OFFSET:-0.453;
#BPMS:0.000=130.000;
#STOPS:;
#BGCHANGES:;
#FGCHANGES:;

//--------------- dance-single - Blood4Fame ----------------
#NOTES:
     dance-single:
     Blood4Fame:
     Beginner:
     3:
     0,0,0,0,0:
0000
0000
0000
0000
,
0000
0000
0000
0000
,
1000
0000
0100
0000
,
0010
0000
0000
0000
0000
0000
0000
0000
0000
0000
0000
0000
0000
0000
0000
0000
0000
0000
0000
0000
0000
0000
0000
0000
0000
0000
0000
0000
0000
0000
0000
0000
0000
0000
0000
0000
0000
0000
0000
0000
0000
0000
0000
0000
0000
0000
0000
0000
0000
0000
0000
0000
0000
0000
0000
0000
0000
0000
0000
0000
0000
0000
0000
0000
0000
0000
0000
0000
0000
0000
0000
0000
0000
0000
0000
0000
0000
0000
0000
0000
0000
0000
0000
0000
0000
0000
0000
0000
0000
0000
0000
0000
0000
0000
0000
0100
0100
0000
0000
0000
0000
0000
0000
0000
0000
0000
0000
0000
0000
0000
0000
0000
0000
0000
0000
0000
0000
0000
0000
0000
0000
0000
0000
0000
0000
0000
0000
0000
0000
0000
0000
0000
0000
0000
0000
0000
0000
0000
0000
0000
0000
0000
0000
0000
0000
0000
0000
0000
0000
0000
0000
0000
0000
0000
0000
0000
0000
0000
0000
0000
0000
0000
0000
0000
0000
0000
0000
0000
0000
0000
0000
0000
0000
0000
0000
0000
0000
0000
0000
0000
0000
0000
0000
0000
0000
0000
0000
0000
0000
0000
0000
0000
,
1000
0000
0010
0000
,
0110
0000
0010
0000
,
0011
0000
0100
0000
,
1000
0000
0100
0000
,
0001
0000
0010
0000
,
0101
0000
0100
0000
,
0010
0000
0100
0000
,
0010
1000
0010
0000
,
0010
0010
0010
0000
,
0100
0100
0100
0000
,
0010
0010
0000
0100
,
0000
0001
0000
0001
,
0001
0000
0100
0000
,
1000
0000
0010
0000
,
0100
0100
0100
0000
,
0001
0001
0001
0000
,
1000
0000
0010
0000
,
0100
0000
0010
0010
,
0010
0000
0100
0100
,
0100
0000
0001
0001
,
0001
0000
0010
0000
,
1000
0000
0010
0000
,
2200
0000
0000
0000
,
0000
3300
0001
0001
,
1001
1001
1001
0000
,
0011
0011
0011
0000
,
1001
1001
1001
0000
,
0100
0000
0100
0000
,
1100
1100
1100
0000
,
0101
0101
0101
0000
,
0110
0110
0110
0000
,
0010
0000
1000
0000
,
1010
1010
1010
0000
,
0011
0011
0011
0000
,
1001
1001
1001
0000
,
0010
0000
1000
0000
,
2000
3000
0002
0003
,
0020
0030
0200
0300
,
2000
3000
0200
0300
,
0200
0300
0001
0000
,
0200
0000
0300
0001
,
0200
0300
1000
0000
,
0202
0000
0303
0000
,
2200
0000
3300
0000
,
2002
0000
3003
0000
,
2020
0000
3030
0001
,
0001
0000
1100
0000
,
0011
0000
0220
0330
,
0000
0001
0000
1001
,
1001
0000
1001
1001
,
1001
0000
0010
0000
,
0010
0000
0100
0000
,
0001
0000
1000
0000
,
0100
0000
0001
0000
,
2002
0000
0000
3003
0000
0000
0000
0000
;

//--------------- dance-single - Blood4Fame ----------------
#NOTES:
     dance-single:
     Blood4Fame:
     Easy:
     4:
     0,0,0,0,0:
0000
0000
0000
0000
,
0000
0000
0000
0000
,
1010
0000
0100
0000
,
0011
0000
0000
0000
0000
0000
0000
0000
0000
0000
0000
0000
0000
0000
0000
0000
0000
0000
0000
0000
0000
0000
0000
0000
0000
0000
0000
0000
0000
0000
0000
0000
0000
0000
0000
0000
0000
0000
0000
0000
0000
0000
0000
0000
0000
0000
0000
0000
0000
0000
0000
0000
0000
0000
0000
0000
0000
0000
0000
0000
0000
0000
0000
0000
0000
0000
0000
0000
0000
0000
0000
0000
0000
0000
0000
0000
0000
0000
0000
0000
0000
0000
0000
0000
0000
0000
0000
0000
0000
0000
0000
0000
0000
0000
0000
1100
0100
0000
0000
0000
0000
0000
0000
0000
0000
0000
0000
0000
0000
0000
0000
0000
0000
0000
0000
0000
0000
0000
0000
0000
0000
0000
0000
0000
0000
0000
0000
0000
0000
0000
0000
0000
0000
0000
0000
0000
0000
0000
0000
0000
0000
0000
0000
0000
0000
0000
0000
0000
0000
0000
0000
0000
0000
0000
0000
0000
0000
0000
0000
0000
0000
0000
0000
0000
0000
0000
0000
0000
0000
0000
0000
0000
0000
0000
0000
0000
0000
0000
0000
0000
0000
0000
0000
0000
0000
0000
0000
0000
0000
0000
0000
0000
,
1001
0000
0010
0000
,
0100
0000
0010
0000
,
0011
0000
0100
0000
,
1010
0000
0100
0000
,
1001
0000
0010
0000
,
0001
0100
0100
0100
,
0010
0010
0100
0100
,
0010
1000
0001
1000
,
1100
0000
1010
0000
,
0101
0000
0110
0000
,
0010
0010
0100
0100
,
0010
0001
1000
0001
,
0011
0000
0101
0000
,
1010
0000
0110
0000
,
0100
0100
0010
0010
,
0100
0001
1000
0001
,
1100
0000
1010
0000
,
0101
0000
0110
0010
,
0100
0100
0010
0010
,
0100
1000
0001
1000
,
0101
0000
0011
0000
,
1100
0000
0110
0010
,
1000
0100
0010
0001
,
0100
0010
1000
0001
,
1001
1001
1001
0000
,
0011
0011
0011
0000
,
1001
1001
1001
0000
,
0100
0001
0100
1000
,
1100
1100
1100
0000
,
0101
0101
0101
0000
,
0110
0110
0110
0000
,
0010
0000
1000
0000
,
1010
0010
0100
0000
,
0011
0010
0100
0000
,
1001
0000
0110
0000
,
0010
1000
1000
0001
,
2000
3000
0002
0003
,
0020
0030
0200
0300
,
2000
3000
0200
0300
,
0200
0300
0001
0001
,
0200
0000
0300
0020
0030
0000
0001
0000
,
0200
0000
0300
2000
3000
0000
0001
0000
,
0202
0300
0013
0000
,
2200
3000
0310
0000
,
1000
0000
0000
0002
0000
0003
1000
0000
,
0010
0000
0000
2000
0000
3000
0001
0000
,
1010
0000
1100
0000
,
0011
0000
0220
0330
,
0000
0001
0000
1001
,
1001
0000
1001
1001
,
0100
1000
0010
0001
,
0010
0100
0100
0001
,
0001
0100
1000
0001
,
0100
1000
0001
1000
,
2002
0000
0000
3003
0000
0000
0000
0000
;

//--------------- dance-single - Blood4Fame ----------------
#NOTES:
     dance-single:
     Blood4Fame:
     Medium:
     6:
     0,0,0,0,0:
0000
0000
0000
0000
,
0000
0000
0000
0000
,
1010
0000
0000
0000
0110
0000
0000
0000
0202
0000
0000
0303
0000
0000
0000
0000
,
0011
0000
0000
0000
0000
0000
0000
0000
0000
0000
0000
0000
0000
0000
0000
0000
0000
0000
0000
0000
0000
0000
0000
0000
0000
0000
0000
0000
0000
0000
0000
0000
0000
0000
0000
0000
0000
0000
0000
0000
0000
0000
0000
0000
0000
0000
0000
0000
0110
0000
0000
0000
0000
0000
0000
0000
0000
0000
0000
0000
0000
0000
0000
0000
0000
0000
0000
0000
0000
0000
0000
0000
0000
0000
0000
0000
0000
0000
0000
0000
0000
0000
0000
0000
0000
0000
0000
0000
0000
0000
0000
0000
0000
0000
0000
1100
2200
0000
0000
0000
0000
0000
0000
0000
0000
0000
0000
0000
0000
0000
0000
0000
0000
0000
0000
0000
0000
0000
0000
0000
0000
0000
0000
0000
0000
0000
0000
0000
0000
0000
0000
0000
3300
0000
0000
0000
0000
0000
0000
0000
0000
0000
0000
0000
0000
0000
0000
0000
0000
0000
0000
0000
0000
0000
0000
0000
0000
0000
0000
0000
0000
0000
0000
0000
0000
0000
0000
0000
0000
0000
0000
0000
0000
0000
0000
0000
0000
0000
0000
0000
0000
0000
0000
0000
0000
0000
0000
0000
0000
0000
0000
0000
,
1001
0110
0220
0330
,
0100
0100
0000
0010
0010
0001
0000
0100
,
0011
0110
2200
3300
,
1010
0110
0202
0303
,
1001
0110
0220
0330
,
0001
0010
0100
1000
1100
0000
2200
3300
,
0010
0001
0010
0000
0100
0010
0100
0000
,
0010
0100
1000
0000
0001
0100
1000
0000
,
2200
3300
2020
3030
,
0202
0000
0000
0000
0303
0000
0000
0000
0220
0000
0000
0000
0300
0030
0000
0000
,
0010
1000
0010
0000
0100
0010
0100
0000
,
0010
0100
0001
0000
1000
0100
0001
0000
,
0022
0033
0202
0303
,
2020
0000
0000
0000
0000
3030
0000
0000
0220
0000
0330
0000
2200
0000
3300
0000
,
0100
1000
0100
0000
0010
0100
0010
0000
,
0100
0010
0001
0000
1000
0010
0001
0000
,
2200
3300
2020
3030
,
0202
0000
0303
0000
0220
0330
0022
0033
,
0100
0001
0100
0000
0010
0100
0010
0000
,
0100
0010
1000
0000
0001
0010
1000
0000
,
0202
0303
0022
0033
,
2200
0000
0000
3300
0220
0330
2020
3030
,
1000
1000
0100
0100
0010
0010
0001
0001
,
0100
0100
0010
0010
1001
0000
1001
0000
,
2020
3030
0220
0330
0202
0000
0000
0303
,
0022
0033
0220
0330
2200
0000
0000
3300
,
2002
0000
0000
3003
0220
0000
0000
0000
2332
0000
0000
0000
0000
0000
3003
0000
,
0100
0100
0001
0000
0100
0010
1000
0000
,
2200
3300
0220
0330
0022
0000
0000
0033
,
0202
0303
0220
0330
2020
0000
0000
3030
,
2002
3003
0220
0330
2002
0000
0000
3003
,
0010
0000
2000
0000
0000
0000
3020
0000
1000
0000
2000
0000
0000
3030
0000
0000
,
1010
0000
0110
0000
0100
0100
0000
0000
,
0011
0000
0110
0000
0100
0100
0000
0000
,
1001
0000
0110
0000
0010
0010
0000
0000
,
0010
0010
1000
0000
1000
0100
0001
0000
,
0000
2200
3300
0220
0330
0022
0000
0033
,
0000
0000
0022
0000
0033
0000
0220
0000
0330
0000
2200
0000
0000
3300
0000
0000
,
0000
2200
3300
0220
0330
0022
0033
0000
,
0100
0000
0002
0000
0000
0000
0203
0000
0001
0000
0001
0000
0300
0001
0000
0000
,
0100
0000
0000
0100
0000
0000
0010
0000
0000
1000
0000
0000
0001
0000
0000
0000
,
0100
0000
0000
0100
0000
0000
1000
0000
0000
0001
0000
0000
0001
0000
0000
0000
,
0202
0303
0022
0033
,
2200
0000
0000
0000
3300
0000
0000
0000
0220
0000
0000
0000
0300
0030
0000
0000
,
1000
0000
0000
0010
0000
0000
0100
0000
0000
0001
0000
0000
1000
0000
0100
0000
,
0010
0000
0000
0100
0000
0000
0001
0000
0000
1000
0000
0000
1000
0000
0000
0000
,
2020
3030
2200
3300
,
0022
0000
0033
0000
0220
0030
0002
0300
,
0000
0003
0000
0000
0002
0000
0000
0000
0003
0000
0000
0000
1001
0000
0000
0000
,
2002
0000
0000
0000
0000
0000
0000
3003
0000
0000
2002
0000
0000
3003
0000
0000
,
0100
0100
1000
0100
0010
0001
0001
0100
,
0010
0001
0100
0001
0100
0100
0001
0000
,
0001
0100
1000
0001
,
0100
0100
1000
1000
0001
0001
1000
1000
,
2002
0000
0000
0000
0000
0000
0000
3003
0000
0000
0000
0000
0000
0000
0000
0000
;

//--------------- dance-single - Blood4Fame ----------------
#NOTES:
     dance-single:
     Blood4Fame:
     Hard:
     9:
     0,0,0,0,0:
0000
0000
0000
0000
,
0000
0000
0000
0000
,
1010
0000
0000
0000
0110
0000
0000
0000
0100
0001
0100
0000
0000
0000
0000
0000
,
0011
0000
0000
0000
0110
0000
0000
0000
0100
1000
0100
0000
0000
0000
0000
0000
,
1001
0000
0000
0000
0110
0000
0000
0000
0010
0100
0010
0000
0000
0000
0000
0000
,
0100
0010
0100
0010
0000
1000
0010
0000
0010
0100
0001
0100
0000
0001
0100
0000
,
0011
0000
0000
0000
0110
0000
0000
0000
0100
1000
0100
0000
0000
0000
0000
0000
,
1010
0000
0000
0000
0110
0000
0000
0000
0100
0001
0100
0000
0000
0000
0000
0000
,
1001
0000
0000
0000
0110
0000
0000
0000
0010
0100
0010
0000
0000
0000
0000
0000
,
0001
0000
0010
0000
0100
0000
1000
0000
0100
1000
0000
1000
0000
1000
0000
0100
,
0010
0001
0010
0000
0100
0010
0100
0000
,
0010
0100
1000
0000
0001
0100
1000
0000
,
1100
0100
1100
1000
1010
0010
0110
0100
,
0101
0000
0001
0000
0011
0000
0010
0000
0110
0000
0010
0000
0001
0010
0000
0000
,
0010
1000
0010
0000
0100
0010
0100
0000
,
0010
0100
0001
0000
1000
0100
0001
0000
,
0011
0010
0011
0001
0101
0100
0110
0010
,
1010
1000
1100
0100
0110
0100
2200
3300
,
0100
1000
0100
0000
0010
0100
0010
0000
,
0100
0010
0001
0000
1000
0010
0001
0000
,
1100
0100
1100
1000
1010
0010
0110
0100
,
0101
0001
0011
0010
0110
0010
0022
0033
,
0100
0001
0100
0000
0010
0100
0010
0000
,
0100
0010
1000
0000
0001
0010
1000
0000
,
0101
0100
0101
0001
0011
0010
0110
0100
,
1100
1000
1010
0010
0110
0010
2020
3030
,
1100
1100
0110
0110
0011
0011
0101
0101
,
0110
0110
1010
1010
1001
0000
1001
0000
,
2020
3030
0220
0330
0202
0000
0000
0303
,
0022
0033
0220
0330
2200
0000
0000
3300
,
2002
0000
0000
3003
0220
0000
0000
0000
2332
0000
0000
0000
0000
0000
3003
0000
,
0100
0100
0001
0001
0100
0010
1000
1000
,
2200
3300
0220
0330
0022
0000
0000
0033
,
0202
0303
0220
0330
2020
0000
0000
3030
,
2002
3003
0220
0330
2002
0000
0000
3003
,
0010
0000
2000
0000
0000
0000
3020
0000
1000
0000
1000
0000
0000
1030
0000
0000
,
1010
0000
0000
0000
0110
0000
0000
0001
0100
0001
0100
0000
0000
0000
0000
0000
,
0011
0000
0000
0000
0110
0000
0000
1000
0100
1000
0100
0000
0000
0000
0000
0000
,
1001
0000
0000
0000
0110
0000
0000
0100
0010
0100
0010
0000
0000
0000
0000
0000
,
0010
0001
0010
0000
1000
0000
1000
0100
0000
0000
0000
0010
0001
0000
0001
0000
,
0000
1200
0000
0020
0300
0001
0000
0030
,
0000
0021
0000
0200
0030
1000
0000
1300
,
1000
0000
0200
0000
0000
0000
0020
0000
0000
0300
0002
0000
0033
0000
0010
0000
,
0100
0000
0002
0000
0000
0000
0203
0000
0001
0000
0001
0000
0300
0001
0000
0000
,
0101
0000
0000
0110
0000
0000
1010
0000
0000
1001
0000
0000
0001
0100
0010
1000
,
0100
0000
0000
0110
0000
0000
1010
0000
0000
1001
0000
0000
0001
0100
0010
1000
,
0101
0100
0101
0001
0011
0010
0110
0100
,
1100
0000
1000
0000
1010
0000
0010
0000
0110
0000
0010
0000
1000
0010
0000
0000
,
1010
0000
0000
0110
0000
0000
0101
0000
0000
1001
0000
0000
1000
0000
0100
0000
,
0010
0000
0000
0110
0000
0000
0101
0000
0000
1001
0000
0000
1000
0000
0100
0000
,
1010
0010
1010
1000
1100
0100
0110
0010
,
0011
0000
0001
0000
0101
0000
0100
0000
0110
0000
0100
0000
0202
0000
0000
0003
,
0000
0002
0003
0000
0002
0000
0303
0000
0000
0000
1001
0000
1001
0000
0000
0000
,
2002
0000
0000
0000
0000
0000
0000
3003
0000
0000
1001
0000
1001
0000
0000
0000
,
0100
0000
0200
0000
2300
0000
0200
3000
0020
0000
0301
0000
0032
0000
0100
0000
,
0013
0000
0000
0000
0000
0000
0001
0000
0000
0000
0000
0000
0100
0000
0000
0000
0000
0000
0001
0000
0000
0000
0000
0000
0100
0000
0000
0100
0000
0000
0100
0000
0000
0000
0000
0000
0001
0000
0000
0000
0020
0000
0000
0000
0000
0000
0000
0000
,
0001
0001
0100
0100
1000
1000
0001
0001
,
0100
0100
1000
1000
0001
0001
1000
1000
,
0030
0000
0000
0000
;

//--------------- dance-single - Blood4Fame ----------------
#NOTES:
     dance-single:
     Blood4Fame:
     Challenge:
     10:
     0,0,0,0,0:
0000
0000
0000
0000
,
0000
0000
0000
0000
,
1010
0000
0000
0000
0110
0000
0000
0001
0100
0001
0100
0000
0000
0000
0000
0000
,
0011
0000
0000
0000
0110
0000
0000
1000
0100
1000
0100
0000
0000
0000
0000
0000
,
1001
0000
0000
0000
0110
0000
0000
0100
0010
0100
0010
0000
0000
0000
0000
0000
,
0100
0010
0100
0010
0000
1000
0010
1000
0010
0100
0001
0100
0000
0001
0100
0001
,
0011
0000
0000
0000
0110
0000
0000
1000
0100
1000
0100
0000
0000
0000
0000
0000
,
1010
0000
0000
0000
0110
0000
0000
0001
0100
0001
0100
0000
0000
0000
0000
0000
,
1001
0000
0000
0000
0110
0000
0000
0100
0010
0100
0010
0000
0000
0000
0000
0000
,
0001
0000
0010
0000
0100
0000
1000
0000
0100
1000
0000
1000
0000
1000
0000
0100
,
0010
0001
0010
0000
0100
0010
0100
0000
,
0010
0100
1000
0000
0001
0100
0001
0000
,
1100
0100
1100
1000
1010
0010
0110
0100
,
0101
0000
0001
0000
0011
0000
0010
0000
0110
0000
0010
0000
0001
0010
0000
0000
,
0010
0001
0010
0000
0100
0010
0100
0000
,
0010
0100
1000
0000
1000
0100
1000
0000
,
0011
0010
0011
0001
0101
0100
0110
0010
,
1010
1000
1100
0100
0110
0100
2200
3300
,
0100
1000
0100
0000
0010
0100
0010
0000
,
0100
0010
0001
0000
1000
0010
1000
0000
,
0010
0000
0000
0000
0000
0000
0100
0000
0000
0000
0000
0000
0001
0000
0000
0000
0010
0000
0000
0000
0001
0000
0000
0000
0100
0000
0000
0010
0000
0000
1000
0000
0000
0000
0000
0000
1000
0000
0000
0000
0100
0000
0000
0000
0010
0000
0000
0000
,
0100
0000
0000
0000
0000
0000
1000
0000
0000
0000
0000
0000
0010
0000
0000
0000
0000
0000
1000
0000
0000
0000
0000
0000
0010
0000
0000
0100
0000
0000
0010
0000
0000
0000
0000
0000
1000
0000
0000
0000
0100
0000
0000
0000
0000
0000
0000
0000
,
0100
0001
0100
0000
0010
0100
0010
0000
,
0100
0010
0001
0000
0001
0010
0001
0000
,
1000
0000
0000
0100
0000
0000
2000
0000
0000
0000
0000
0000
3010
0000
0000
0000
0000
0000
1000
0000
0000
0000
0000
0000
0001
0000
0000
0000
0000
0000
1000
0000
0000
0200
0000
0000
0300
0000
1000
0000
0000
0000
0000
0000
0000
0000
0000
0000
,
0001
0000
0000
0010
0000
0000
0002
0000
0000
0000
0000
0000
1003
0000
0000
0010
0000
0000
1000
0000
0000
0010
0000
0000
1000
0000
0000
0000
0000
0000
0100
0000
0000
0000
0010
0000
0000
0000
0000
0000
0100
0000
0000
0000
0000
0000
0000
0000
,
1100
1100
0110
0110
0011
0011
0101
0101
,
0110
0110
1010
1010
1001
0000
1001
0000
,
1020
0000
1030
0000
0210
0000
0310
0000
0100
0002
0200
0000
0000
0000
0303
0000
,
0012
0000
0013
0000
0120
0000
0130
0000
0100
2000
0200
0000
0000
0000
3300
0000
,
2001
0000
3001
0000
1002
0000
1003
0000
0010
0100
0020
0000
0000
0000
1030
0000
,
0100
1000
0100
0010
0001
0000
0001
0010
0000
0001
0010
0100
1000
0000
1000
0000
,
2100
0000
3100
0000
0210
0000
0310
0000
0010
0002
0020
0000
0000
0000
0033
0000
,
0201
0000
0301
0000
0120
0000
0130
0000
0010
2000
0020
0000
0000
0000
3030
0000
,
1002
0000
1003
0000
2001
0000
3001
0000
0010
0100
0020
0000
0000
0000
0030
0000
,
0010
0000
0002
0000
0000
0000
0023
0000
0001
0000
0001
0000
0000
0031
0000
0000
,
1010
0000
0000
0000
0110
0000
0000
0001
0100
0001
0100
0000
0000
0000
0000
0000
,
0011
0000
0000
0000
0110
0000
0000
1000
0100
1000
0100
0000
0000
0000
0000
0000
,
1001
0000
0000
0000
0110
0000
0000
0100
0010
0100
0010
0000
0000
0000
0001
0000
,
0010
0001
0010
0100
1000
0000
1000
0100
0000
1000
0100
0010
0001
0000
0001
0000
,
2000
0200
0300
0020
0030
0002
3003
0000
,
0002
0020
0030
0200
0300
2000
3000
1003
,
2000
0200
0300
0020
0030
0002
3003
0010
,
0100
0000
0002
0000
0000
0000
0203
0000
0001
0000
0001
0000
0300
0001
0000
0000
,
0101
0000
0000
0110
0000
0000
1010
0000
0000
1001
0000
0000
0001
0100
0010
1000
,
0100
0000
0000
0110
0000
0000
0011
0000
0000
1001
0000
0000
0001
0100
0010
1000
,
0101
0100
0101
0001
0011
0010
0110
0100
,
1100
0000
1000
0000
1010
0000
0010
0000
0110
0000
0010
0000
1000
0010
0000
0000
,
1010
0000
0000
0110
0000
0000
0101
0000
0000
1001
0000
0000
1000
0010
0100
0001
,
0010
0000
0000
0110
0000
0000
1100
0000
0000
1001
0000
0000
1000
0010
0100
0001
,
1010
0010
1010
1000
1100
0100
0110
0010
,
0011
0000
0001
0000
0101
0000
0100
0000
0110
0000
0100
0000
0202
0000
0000
0303
,
0000
0202
0303
0000
0202
0000
0303
0000
0000
0000
1001
0000
1001
0000
0000
0000
,
2002
0000
0000
0000
0000
0000
0000
3003
0000
0000
1001
0000
1001
0000
0000
0000
,
0100
0000
0000
0000
0000
0000
0100
0000
0000
0000
0000
0000
1000
0000
0000
0000
0100
0000
0000
0000
1000
0000
0000
0000
0010
0000
0000
0100
0000
0000
0001
0000
0000
0000
0000
0000
0001
0000
0000
0000
0010
0000
0000
0000
0100
0000
0000
0000
,
0010
0000
0000
0000
0000
0000
0001
0000
0000
0000
0000
0000
0100
0000
0000
0000
0000
0000
0001
0000
0000
0000
0000
0000
0100
0000
0000
0010
0000
0000
0100
0000
0000
0000
0000
0000
0001
0000
0000
0000
0020
0000
0000
0000
0000
0000
0000
0000
,
0001
0001
0100
0100
1000
1000
0001
0001
,
0100
0100
1000
1000
0001
0001
0100
0100
,
0030
0000
0000
0000
;
