#TITLE:Carita de Inocente;
#SUBTITLE:*Remix*;
#ARTIST:Prince Royce & Myke Towers;
#TITLETRANSLIT:;
#SUBTITLETRANSLIT:;
#ARTISTTRANSLIT:;
#GENRE:Latin;
#CREDIT:Blood4Fame;
#MUSIC:music.mp3;
#BANNER:banner.png;
#BACKGROUND:bg.png;
#CDTITLE:;
#SAMPLESTART:28.326;
#SAMPLELENGTH:22.250;
#SELECTABLE:YES;
#OFFSET:-0.124;
#BPMS:0.000=130.000
,256.000=20.000
,256.417=42.000
,257.000=113.000
,258.000=115.000
,270.000=113.000
,271.000=114.000
,274.000=115.000
,287.000=118.000
,288.000=115.000
,294.000=113.000
,295.000=114.000
,298.000=120.000
,299.000=115.000
;
#STOPS:;
#DISPLAYBPM:115.000:130.000;
#BGCHANGES:;
#FGCHANGES:;

//--------------- dance-single - Blood4Fame ----------------
#NOTES:
     dance-single:
     Blood4Fame:
     Beginner:
     2:
     0,0,0,0,0:
0000
0000
0000
0000
,
0000
0000
0000
0000
,
0000
0000
0000
0000
,
0000
0000
0000
0000
,
0000
0000
0000
0000
,
0000
0000
0000
0000
,
0000
0000
0000
0000
,
0000
0000
0000
0000
,
1000
0000
1000
0001
,
0001
0000
0001
1000
,
1000
0000
0100
1000
,
1000
0000
0010
0001
,
0001
0000
0100
0010
,
0010
0000
1000
0100
,
0001
0000
0001
0100
,
1000
0000
0010
0000
,
0001
0000
0000
0000
,
1000
0000
0000
0000
,
0010
0000
0000
0000
,
0100
0000
0000
0000
,
0001
0000
0000
0000
,
1000
0000
0000
0000
,
0010
0000
0000
0000
,
0100
0000
0000
0000
,
1000
1000
0001
0000
,
0001
0001
1000
0000
,
0010
1000
1000
0000
,
0100
0010
0010
0000
,
0001
0001
0100
0000
,
0010
1000
1000
0000
,
0100
0100
0010
0000
,
0001
0000
0100
0000
,
0020
0000
0000
0030
,
2000
0000
0000
3000
,
0200
0000
0000
0300
,
0002
0000
2003
0000
,
3100
0100
0100
0000
,
0001
0001
0001
0000
,
1000
1000
1000
0000
,
0001
0001
0001
0000
,
0001
0100
0100
0000
,
1000
1000
1000
0000
,
0010
0010
0010
0000
,
0100
0100
0100
0000
,
0002
0003
0000
0000
,
0002
0003
0000
0000
,
2000
3000
0000
0000
,
2000
3000
0000
0000
,
0010
0020
0030
1000
,
1000
0000
0001
0000
,
0010
0020
0030
0100
,
0100
0000
0001
0000
,
1000
2000
3000
0100
,
0100
0000
0010
0000
,
0001
0002
0003
0100
,
0100
0000
0010
0000
,
1000
0000
0000
0000
,
0001
0000
0000
0000
,
0010
0000
0000
0000
,
0100
0000
0000
0000
,
0010
0000
0000
0000
,
1000
0000
0000
0000
,
0001
0000
0000
0100
,
0100
0000
0010
0000
,
1000
0001
0001
0001
,
0001
0100
0100
0100
,
0100
0010
0010
0010
,
0010
1000
1000
2000
,
0000
3001
0001
0001
,
0001
0100
0100
0100
,
0100
0010
0010
0010
,
0010
1000
1000
1000
,
1000
0001
0100
0001
,
1000
0100
0010
0001
,
0100
0010
2000
0000
,
0000
3002
0000
0000
,
0003
0000
0000
0000
;

//--------------- dance-single - Blood4Fame ----------------
#NOTES:
     dance-single:
     Blood4Fame:
     Easy:
     4:
     0,0,0,0,0:
0000
0000
0000
0000
,
0000
0000
0000
0000
,
0000
0000
0000
0000
,
0000
0000
0000
0000
,
0000
0000
0000
0000
,
0000
0000
0000
0000
,
0000
0000
0000
0000
,
0000
0000
0000
0000
,
0100
0001
0100
0000
,
0010
1000
1000
0000
,
0001
0100
0001
0000
,
0100
1000
0100
0000
,
0010
0100
0001
0000
,
1000
0100
1000
0000
,
0010
0100
0010
0000
,
0100
0100
1000
1000
,
1000
0010
0000
0010
,
0100
0001
0010
0010
,
0100
1000
0000
0001
,
0010
1000
1000
0001
,
0010
0100
0000
1000
,
0010
0001
0010
0100
,
0100
0000
0000
0100
,
0100
0000
0000
0101
,
1010
1000
0010
0000
,
0100
0001
0001
0000
,
1000
0010
1000
0000
,
0100
0001
0010
0000
,
1000
0010
1000
0000
,
0001
0010
0001
0000
,
0100
0010
0100
0000
,
0010
0100
0010
0001
,
0001
0000
0000
0100
0000
0000
0100
0000
0010
0000
0000
0000
,
0001
0000
0000
1000
0000
0000
0001
0000
0000
0000
0100
0000
,
0010
0000
0000
2000
0000
3000
0000
2000
0000
3020
0000
0030
,
1000
4400
0000
3300
,
0001
0100
0001
0010
,
1000
0100
1000
0010
,
0000
0100
0001
0100
,
0010
0000
0100
0000
,
0001
0100
0001
0100
,
1000
0100
1000
0010
,
0000
0100
0001
0100
,
0010
0001
0100
0000
,
1100
0000
0000
0011
,
0010
0000
0100
0010
,
0002
0003
0000
0000
0000
0000
0010
0000
,
0010
0001
0100
0010
,
1000
2000
3000
0100
,
0002
0203
0300
1000
,
0002
2003
3000
0010
,
0100
0000
0010
0000
,
1000
0200
0300
0010
,
0000
0000
0000
0001
0000
0100
0001
0000
0000
0100
0000
0000
,
0100
0020
0030
1000
,
1000
0010
0001
0011
,
0000
0010
0000
0010
,
0100
0001
0010
0010
,
0100
1000
0000
0001
,
0010
1000
1000
0001
,
0010
0100
0000
1000
,
0010
0001
0010
0100
,
0100
0200
0300
0100
,
0100
0000
0000
0000
,
0011
0100
1010
1000
,
0010
1000
0110
0001
,
0001
0100
1010
0010
,
1000
0000
0000
0100
0000
0000
0100
0000
0010
0001
0000
0100
,
0010
0000
1000
0100
0000
0000
1100
0000
0000
0000
0000
0000
,
1000
0100
1001
0000
,
0001
0100
0110
0000
,
0100
0100
0010
0100
,
0010
1010
0000
0010
,
1000
0110
0000
0001
,
0100
1010
0000
1000
,
0100
0220
0000
0000
,
0000
0000
0330
0000
0000
0000
0000
0000
0000
0000
0000
0000
;

//--------------- dance-single - Blood4Fame ----------------
#NOTES:
     dance-single:
     Blood4Fame:
     Medium:
     6:
     0,0,0,0,0:
0000
0000
0000
0000
,
0000
0000
0000
0000
,
0000
0000
0000
0000
,
0000
0000
0000
0000
,
0000
0000
0000
0000
,
0000
0000
0000
0000
,
0000
0000
0000
0000
,
0000
0000
0000
0000
,
0101
0000
0000
0100
0001
0000
0000
0000
0100
0000
0010
0000
1000
0000
0000
0000
,
0110
0000
0000
0010
1000
0000
0000
0000
1000
0000
0100
0000
0010
0000
0000
0000
,
0101
0000
0000
1000
0100
0000
0000
0000
0001
0000
0100
0000
0010
0000
0000
0000
,
0110
0000
0000
0010
1000
0000
1000
0000
0100
0000
0000
0000
0100
0000
0000
0000
,
0011
0000
0000
0010
0100
0000
0000
0000
0001
0000
0100
0000
0010
0000
0000
0000
,
1001
0000
0000
0001
0100
0000
0000
0000
1000
0000
0100
0000
0010
0000
0000
0000
,
0110
0000
0000
0010
0100
0000
0000
0000
0010
0000
0100
0000
0010
0000
0000
0000
,
0100
0000
0000
0001
0100
0000
0010
0000
1000
0000
0000
0000
1000
0000
0010
0000
,
1000
0000
0010
2000
0000
3001
0010
0100
,
0100
0000
0001
0100
0010
0000
0010
0001
,
0100
0000
1000
0020
0000
1030
0001
0000
,
0010
0000
1000
0001
1000
0000
0001
0100
,
0010
0000
0100
0020
0000
0031
1000
0000
,
0010
0000
0001
0100
0010
0000
0100
0001
,
0100
0020
0000
0230
0000
0301
0100
0000
,
0100
0000
0100
0001
0100
0000
0101
0000
,
1010
0000
0000
0010
1000
0000
0000
0000
0010
0000
0100
0000
1000
0000
0000
0000
,
0110
0000
0000
0100
0001
0000
0000
0000
0001
0000
0010
0000
0100
0000
0000
0000
,
1010
0000
0000
0001
0010
0000
0000
0000
1000
0000
0010
0000
0100
0000
0000
0000
,
0110
0000
0000
0100
0001
0000
0000
0000
0010
0000
0000
0000
0100
0000
0000
0000
,
1100
0000
0000
0100
0010
0000
0000
0000
1000
0000
0010
0000
0100
0000
0000
0000
,
1001
0000
0000
1000
0010
0000
0000
0000
0001
0000
0010
0000
0100
0000
0000
0000
,
0110
0000
0000
0100
0010
0000
0000
0000
0100
0000
0010
0000
0100
0000
0000
0000
,
0010
0000
0000
1000
0100
0000
0000
0000
0010
0000
0100
0000
0001
0000
0000
0000
,
0001
0000
0000
0100
0000
0000
0100
0000
0010
0000
0001
0000
,
0001
0000
0000
1000
0000
0000
0001
0000
0001
0000
0100
0000
,
0010
0000
0000
2000
0000
3200
0000
2300
0000
3020
0000
0030
,
1000
0000
0000
0000
0000
0000
0000
0000
1000
0000
0000
0000
0100
0000
0000
0000
0000
0000
0000
0000
0010
0000
0000
0000
2000
0000
0000
0000
0000
0000
3000
0000
0000
0000
0000
0000
0000
0000
0000
0000
0000
0000
0000
0000
0000
0010
0000
0000
,
0001
0000
0100
0001
0001
0000
0110
0000
,
1000
0001
0100
0000
1000
0000
0010
0002
,
0000
0003
1000
0000
0100
0000
0000
0000
0001
0000
0000
0000
0100
0000
0020
0000
,
0000
2030
0000
3100
0100
0000
0000
0010
,
0001
0000
0100
0001
0001
0000
0110
0000
,
1000
0001
0100
0000
1000
0000
0010
0002
,
0000
1003
0100
0000
0001
0000
0100
0020
,
0000
0000
2030
0000
3001
0000
1000
0000
0000
0010
0001
0000
0100
0000
0000
0000
,
1000
0000
2000
3000
0000
0000
0022
0033
0000
0020
0030
0000
0001
0000
0100
0020
,
0030
0000
2000
0000
0000
0000
3000
0000
0100
0000
0000
0000
0010
0000
0000
1000
,
0002
0000
0003
0001
0000
0000
0020
0000
0030
0000
0200
0000
0300
0000
1000
0001
,
0010
0001
0100
0010
,
1000
0000
0000
0100
0000
0000
1000
0000
0000
1000
0000
0000
0000
0000
0010
0000
0001
0000
0000
0000
0010
0000
0100
0000
,
0002
0000
0000
0203
0000
0000
0300
0010
0100
0000
0100
0010
,
0002
0000
2003
0000
3000
0010
0000
0010
,
0100
0001
0000
0100
0010
0001
0000
0010
,
1000
0010
0000
1010
0000
0100
0010
1000
,
0000
0000
0000
0010
0000
0000
0001
0000
0010
0000
0100
0000
1000
0000
0000
0000
0000
0000
0100
0000
0000
0001
0000
0000
,
0100
0000
0010
0010
0000
1010
0000
0100
,
1000
0100
0010
0000
0011
0000
0011
0000
,
0000
1000
0010
2000
0000
3001
0010
0000
,
0100
0000
0001
0100
0010
0000
0010
0001
,
0100
0000
1000
0020
0000
1030
0001
0000
,
0010
0000
1000
0001
1000
0000
0001
0100
,
0010
0000
0100
0020
0000
0031
1000
0000
,
0010
0000
0001
0100
0010
0000
0100
0001
,
0100
0000
0200
0000
0300
0001
0100
0000
,
0100
0010
0100
0000
0100
0000
0010
1000
,
0001
0000
0000
0000
0100
0000
0000
0000
1010
0000
0000
0010
1000
0000
0001
0000
,
0010
0000
0100
0000
1000
0000
0000
0000
0110
0000
0000
0100
0001
0000
1000
0000
,
0001
0000
0010
0000
0100
0000
0000
0000
1010
0000
0000
0001
0010
0000
0100
0000
,
1000
0000
0000
0010
0000
0000
0100
0000
0000
0000
0000
0000
0100
0000
0010
0000
0010
0000
1000
0000
0100
0000
0100
0000
,
0010
0000
0000
0000
0001
0000
0000
0000
0001
0000
0000
0000
0100
0000
0000
0000
0000
0000
0000
0000
0000
0000
0000
0000
1100
0000
0000
0000
0000
0000
0000
0000
0000
0100
0000
0000
0010
0000
0000
0000
0000
0000
0000
0000
0000
0000
0000
0000
,
1000
0000
0010
0000
0100
0000
0000
0000
1001
0000
0000
1000
0010
0000
0000
0000
,
0001
0000
0010
0000
0100
0000
0000
0000
0110
0000
0000
0100
0010
0000
0001
0000
,
0100
0000
0010
0000
0100
0000
0000
0000
0010
0000
0000
1000
0100
0000
1000
0000
,
0010
0000
0100
0000
1010
0000
0000
0010
1000
0000
0000
0000
0010
0000
0100
0000
,
1000
0000
0010
0000
0110
0000
0000
0100
0001
0000
0000
0000
0001
0000
0010
0000
,
0100
0000
0000
0000
1010
0000
0000
0001
0010
0000
0100
0000
1000
0000
0010
0000
,
0100
0220
0000
0000
,
0000
0000
0330
0000
0000
0000
0000
0000
0000
0000
0000
0000
;

//--------------- dance-single - Blood4Fame ----------------
#NOTES:
     dance-single:
     Blood4Fame:
     Hard:
     8:
     0,0,0,0,0:
0000
0000
0000
0000
,
0000
0000
0000
0000
,
0000
0000
0000
0000
,
2000
0000
0000
0000
0000
0000
0000
3100
0020
0000
0000
0000
0000
0000
0000
0000
,
0032
0000
0000
0000
0000
0000
0000
0103
0020
0000
0000
0000
0000
0000
0000
0000
,
2030
0000
0000
0000
0000
0000
0000
3100
0010
0000
0010
0001
0000
0000
0100
0000
,
0010
0000
0010
0000
1000
0000
1000
0000
0100
0000
0100
0000
0010
0000
0010
0001
,
0200
0000
0000
0300
0000
0000
0000
0000
,
0101
0000
0000
0100
0001
0000
1000
0000
0100
0000
0010
0000
0001
0000
0100
0000
,
0110
0000
0000
0010
1000
0000
0001
0000
1000
0000
0100
0000
0010
0000
0001
0000
,
0101
0000
0000
1000
0100
0000
0010
0000
0001
0000
0100
0000
0010
0000
1000
0000
,
0110
0000
0000
0010
1000
0000
1000
0000
0100
0000
0000
0000
0010
0000
0000
0000
,
0011
0000
0000
0010
0100
0000
1000
0000
0001
0000
0100
0000
0010
0000
0000
0000
,
1001
0000
0000
0001
0100
0000
0010
0000
1000
0000
0100
0000
0010
0000
0000
0000
,
0110
0000
0000
0010
0100
0000
1000
0000
0010
0000
0100
0000
0010
0000
0000
0000
,
0100
0000
0000
0001
0100
0000
0010
0000
1000
0000
0100
0000
1000
0000
0010
0000
,
0000
1000
0010
2000
0000
3001
0010
0100
,
0100
0000
0001
0100
0010
0000
0010
0001
,
0100
0000
1000
0020
0000
1030
0001
0100
,
0010
0000
1000
0001
1000
0000
0001
0100
,
0010
1000
0100
0020
0000
0031
1000
0100
,
0010
0000
0001
0100
0010
0000
0100
0001
,
0100
0020
0000
0230
0000
0301
0100
1000
,
0100
0010
0100
0001
0100
0000
0101
0000
,
1010
0000
0000
0010
1000
0000
0001
0000
0010
0000
0100
0000
1000
0000
0010
0000
,
0110
0000
0000
0100
0001
0000
1000
0000
0001
0000
0010
0000
0100
0000
1000
0000
,
1010
0000
0000
0001
0010
0000
0100
0000
1000
0000
0010
0000
0100
0000
0001
0000
,
0110
0000
0000
0100
0001
0000
0001
0000
0010
0000
0000
0000
0100
0000
0000
0000
,
1100
0000
0000
0100
0010
0000
0001
0000
1000
0000
0010
0000
0100
0000
0000
0000
,
1001
0000
0000
1000
0010
0000
0100
0000
0001
0000
0010
0000
0100
0000
0000
0000
,
0110
0000
0000
0100
0010
0000
0001
0000
0100
0000
0010
0000
0100
0000
0000
0000
,
0010
0000
0000
1000
0100
0000
1000
0000
0010
0000
0100
0000
0001
0000
0010
0000
,
0001
1000
0010
0100
0001
0010
0100
0000
0010
0000
0001
0000
,
0001
0010
0100
1000
0100
0010
0001
0000
0001
0000
0100
0000
,
0010
1000
0100
2000
0000
3200
0000
2300
0000
3020
0000
0030
,
1000
0000
0000
0000
0001
0000
0000
0000
1000
0000
0000
0000
0100
0000
0000
0000
1000
0000
0000
0000
0010
0000
0000
0000
2000
0000
0000
0000
0000
0000
3000
0000
0000
0000
0000
0000
0000
0000
0000
0000
0000
0000
0100
0000
0000
0010
0000
0000
,
0001
0001
0100
0001
0001
0000
0110
0000
,
1000
0001
0100
0010
1000
0100
0010
0002
,
0000
1003
0100
0010
0001
0001
0100
0020
,
0000
2030
0000
3100
0100
0000
0000
0010
,
0001
0001
0100
0001
0001
0000
0110
0000
,
1000
0001
0100
0010
1000
0100
0010
0002
,
0000
1003
0100
0010
0001
0001
0100
0020
,
0000
0000
2030
0000
3001
0000
1000
0100
0000
0010
0001
0000
0100
0000
0010
0000
,
1000
0000
2000
3000
0000
0000
0022
0033
0000
0020
0030
0000
0001
0000
0100
0020
,
0030
0000
2000
0000
0000
0000
3001
0000
0100
0000
0010
0000
0010
0000
0000
1000
,
0002
0000
0003
0001
0000
0000
0020
0000
0030
0000
0200
0000
1300
0000
1000
0001
,
0010
0010
0001
0001
0100
0100
0010
0010
,
1000
0000
0000
0100
0000
0000
1000
0000
0000
1000
0000
0000
0001
0000
0010
0000
0001
0000
1000
0000
0010
0000
0100
0000
,
0002
0000
0000
0203
0000
0000
0301
0010
0100
1000
0100
0010
,
0002
0000
2003
0000
3000
0010
0000
0010
,
0100
0001
0010
0100
0010
0001
0100
0010
,
1000
0010
0000
1010
0000
0100
0010
1000
,
0100
0000
0000
0010
0000
0000
0001
0000
0010
0000
0100
0000
1000
0000
0000
0010
0000
0000
0100
0000
0000
0001
0000
0000
,
0100
0100
0010
0010
0000
1010
0000
1100
,
1000
0100
0010
0001
0011
0000
0011
0000
,
0000
1000
0010
2000
0000
3001
0010
0100
,
0100
0000
0001
0100
0010
0000
0010
0001
,
0100
0000
1000
0020
0000
1030
0001
0100
,
0010
0000
1000
0001
1000
0000
0001
0100
,
0010
1000
0100
0020
0000
0031
1000
0100
,
0010
0000
0001
0100
0010
0000
0100
0001
,
0100
0010
0200
0000
0300
0001
0100
1000
,
0100
0010
0100
0001
0100
0000
0010
1000
,
0001
0000
0000
0000
0000
0000
0000
0001
0000
0000
2000
0000
0000
0000
0000
0000
3100
0000
0000
0000
0000
0000
0000
0000
0000
0000
0000
0000
0000
0000
0000
0000
1010
0000
0000
0000
0000
0000
0000
0000
0000
0000
0000
0000
0010
0000
0000
0000
1000
0000
0000
0000
0000
0000
0000
0000
0001
0000
0000
0000
0000
0000
0000
0000
,
0010
0000
0100
0000
1000
0000
0010
0000
0110
0000
0000
0100
0001
0000
1000
0000
,
0001
0000
0010
0000
0100
0000
1000
0000
1010
0000
0000
0001
0010
0000
0100
0000
,
1000
0000
0000
0010
0000
0000
0100
0000
0000
0001
0000
0000
0100
0000
0010
0000
0010
0000
1000
0000
0100
0000
0100
0000
,
0010
0000
0000
0000
0001
0000
0000
0000
0001
0000
0000
0000
0100
0000
0000
0000
0000
0000
0000
0000
0000
0000
0000
0000
1100
0000
0000
0000
0000
0000
0000
0000
0000
0100
0000
0000
0010
0000
0000
0000
0000
0000
0001
0000
0000
0000
0000
0000
,
1000
0000
0010
0000
0100
0000
0000
0000
1001
0000
0000
1000
0010
0000
0100
0000
,
0001
0000
0010
0000
0100
0000
0000
0000
0110
0000
0000
0100
0010
0000
0001
0000
,
0100
0000
0010
0000
0100
0000
0000
0000
0010
0000
0000
1000
0100
0000
1000
0000
,
0010
0000
0100
0000
1010
0000
0000
0010
1000
0000
0001
0000
0010
0000
0100
0000
,
1000
0000
0010
0000
0110
0000
0000
0100
0001
0000
1000
0000
0001
0000
0010
0000
,
0100
0000
1000
0000
1010
0000
0000
0001
0010
0000
0100
0000
1000
0000
0010
0000
,
0100
0001
0220
0000
0000
0000
0000
0000
,
0000
0000
0330
0000
0000
0000
0000
0000
0000
0000
0000
0000
;

//--------------- dance-single - Blood4Fame ----------------
#NOTES:
     dance-single:
     Blood4Fame:
     Challenge:
     10:
     0,0,0,0,0:
0000
0000
0000
0000
,
0000
0000
0000
0000
,
0000
0000
0000
0000
0000
0000
0000
0000
1000
0100
0000
1000
0001
0000
0100
0000
,
0010
0000
0100
0000
0001
0000
0010
0000
0010
0000
0010
0001
0000
0001
0010
0000
,
0100
0000
0010
0000
0100
0000
1000
0000
0010
0000
0010
1000
0000
1000
0010
0000
,
0100
0000
0001
0000
1000
0100
0010
0001
0010
0000
0001
0100
0000
0000
0010
0000
,
1000
0000
1000
0000
0001
0000
0001
0000
0100
0000
0100
0000
0010
1000
0010
1000
,
0200
0000
0000
0000
0000
0300
0000
0000
0000
0000
0000
0000
0000
0000
0000
0000
,
0001
0000
0000
0100
0010
0000
1000
0000
0001
0000
0100
0000
0010
0000
1000
0000
,
0100
0000
0010
0001
0010
0000
0100
0000
0010
0000
0001
0000
0100
0000
0100
0000
,
0010
1000
0100
1000
0010
1000
0100
0200
,
0000
0000
0010
0000
0310
0000
0001
0100
0001
0000
0000
1000
0010
0000
0100
0000
,
0010
0000
1000
0010
1000
0000
0100
0020
0000
0002
0030
0000
0023
0000
0030
0000
,
1000
0100
1000
0100
1000
0000
0010
0200
0000
0002
0300
0000
0203
0000
0300
0000
,
0001
0000
0010
0001
0010
0001
0020
0000
0002
0030
0200
0003
0020
0300
1000
0030
,
0100
1000
0100
0000
0100
0000
0100
0020
0000
0000
0032
0000
0100
0003
0010
0000
,
1000
0000
0100
0000
1000
0000
0002
0000
0000
0003
0001
0000
0010
0000
0001
0000
,
0200
0000
0310
1000
0200
0000
0310
0001
,
0200
0010
0020
0000
0330
1000
0010
0100
,
0002
0000
0000
0000
0103
0000
0010
0000
2000
0000
0000
3100
0001
0000
0100
0000
,
0010
0010
0002
0000
0003
0010
0100
1000
,
0020
0000
1030
0100
2000
0000
3100
0001
,
0100
0000
1000
0000
0000
0200
0000
0000
1300
0000
0001
0000
0001
0000
0001
0100
,
0010
1000
0010
0100
0001
0000
0000
0000
,
1000
0000
0000
0010
0100
0000
0001
0000
1000
0000
0010
0000
0100
0000
0001
0000
,
0010
0000
0100
1000
0100
0000
0010
0000
0100
0000
1000
0000
0010
0000
0010
0000
,
0100
0001
0010
0001
0100
0001
0010
0020
,
0000
0000
0100
0000
0130
0000
1000
0010
1000
0000
0000
0001
0100
0000
0010
0000
,
0100
0000
0001
0100
0001
0000
0010
0200
0000
2000
0300
0000
3200
0000
0300
0000
,
0001
0010
0001
0010
0001
0000
0100
0020
0000
2000
0030
0000
3020
0000
0030
0000
,
1000
0000
0100
1000
0100
1000
0200
0000
2000
0300
0020
3000
0200
0030
0001
0300
,
0010
0001
0010
0000
0010
0000
0001
0000
0001
0000
0100
0000
0010
0000
1000
0000
,
0001
1000
0010
0100
0001
0010
0100
0010
0100
0010
0001
0010
,
0001
0010
0100
1000
0100
0010
0001
0100
0001
0100
0001
0100
,
0010
1000
0100
1000
0010
0200
0000
0302
0000
0203
0000
0300
,
0001
0000
0000
0000
1000
0000
0000
0000
0001
0000
0000
0000
0100
0000
0000
0000
0001
0000
0000
0000
0010
0000
0000
0000
0002
0000
0000
0000
0000
0000
0000
0000
0000
0000
0000
0000
0013
0000
0000
0001
0000
0000
0100
0000
0000
0010
0000
0000
,
1000
1000
0100
0010
0011
0100
0010
1000
,
1010
0100
0001
0010
0110
0001
0100
0010
,
1010
0100
0010
0001
0011
0001
0010
0001
,
0101
0010
0100
0020
2000
3030
0000
0000
,
0101
0001
0010
0100
1100
1000
0100
0010
,
0011
0001
0100
0010
1010
1000
0001
0010
,
0011
0001
0010
0100
1100
1000
0010
0200
,
0000
0000
0020
0300
1000
0000
1030
0100
0000
0010
0001
0000
0100
0000
0010
1000
,
0000
1000
0100
0000
1000
0000
0001
0100
0000
0010
1000
0000
0001
0000
0010
0001
,
0000
1000
0100
0000
0010
0000
0001
0010
0000
0100
0010
0000
0001
0000
1000
0010
,
0000
0000
0100
0000
0001
0000
0010
0100
0000
1000
0100
0000
0010
0000
0010
0001
,
0010
0000
0001
0100
0001
0000
0001
0010
0001
0000
1000
0100
1000
0000
1000
0000
,
1000
0000
0000
0000
0000
0000
0010
0000
0000
2000
0000
0000
0200
0000
0000
0000
0000
0000
0000
0000
3300
0000
0000
0000
1000
0000
0000
0000
0010
0000
0000
0000
0100
0000
0000
0000
1000
0000
0000
0000
0100
0000
0000
0000
0010
0000
0000
0000
,
1000
0000
0000
0000
0000
0000
0000
0000
0000
0001
0000
0000
0100
0000
0000
0000
0000
0000
0010
0000
0000
0000
0000
0000
2000
0000
0000
0000
3100
0000
0000
0000
0000
0000
0000
0000
0020
0000
0000
0000
0031
0000
0000
0000
0000
0000
0000
0000
,
0001
0010
0100
0200
0000
0300
0000
1000
,
1000
0000
0100
0000
0010
0000
0002
0000
0000
0000
1003
0010
1000
0000
0200
0000
,
0320
0000
0001
0000
0002
0000
0000
0000
0033
0000
1000
0001
1000
0010
0000
0100
,
0000
0001
0000
0010
0001
0100
0010
1000
0200
0000
0010
0000
0310
0000
0001
0000
,
0100
0010
2100
0100
3000
0011
0000
0001
,
0100
0000
0001
0000
0010
0000
0002
0000
2003
0000
0000
0000
3020
0000
0000
0030
,
1000
0000
0100
0000
1000
0000
0002
0000
0000
0003
0001
0000
0010
0000
0001
0000
,
0200
0000
0310
1000
0200
0000
0310
0001
,
0200
0010
0020
0000
0330
1000
0010
0100
,
0002
0000
0000
0000
0103
0000
0010
0000
2000
0000
0000
3100
0001
0000
0100
0000
,
0010
0010
0002
0000
0003
0010
0100
1000
,
0020
0000
1030
0100
2000
0000
3100
0001
,
0100
0000
1000
0000
0000
0200
0000
0000
1300
0000
0001
0000
0001
0000
0001
0100
,
0010
0000
1000
0000
0010
0000
0100
0000
0001
0000
0001
0100
0001
0000
0010
1000
,
0001
0000
0000
0000
0000
0000
0000
0001
0000
0000
2000
0000
0000
0000
0000
0000
3100
0000
0000
0000
1000
0000
0000
0000
0100
0000
0000
0000
1000
0000
0000
0000
0001
0000
0000
0000
0100
0000
0000
0000
0010
0000
0000
0000
0100
0000
0000
0000
0001
0000
0000
0000
0000
0000
0000
0000
0010
0000
0000
0000
0000
0000
0000
0000
,
0100
0000
1000
0000
0001
0000
0010
0001
0010
0100
1000
0010
0100
0000
0001
0000
,
0100
0000
0010
1000
0001
0000
0010
0100
0010
0001
0010
0100
1000
0000
0100
0000
,
0010
0000
0000
0000
0000
0000
0100
0000
0000
0000
0000
0000
0000
0000
0000
0000
0000
0000
1000
0000
0000
0100
0000
0000
0010
0000
0000
0000
0001
0000
0000
0000
0100
0000
0000
0000
0010
0000
0000
0000
0010
0000
0000
0000
0010
0000
0000
0000
,
1000
0000
0000
0000
1000
0000
0000
0000
1000
0000
0000
0000
0100
0000
0000
0010
0000
0000
0001
0000
0000
0100
0000
0000
0010
0000
0000
1000
0000
0000
0001
0000
0000
0100
0000
0000
0010
0000
0000
1000
0000
0000
0000
0000
0000
1000
0000
0000
,
0100
0010
0000
0010
0001
0100
0010
1000
0100
0010
0001
0100
0010
1000
0000
0001
,
0010
0100
0000
1000
0100
0010
0000
0001
0100
0000
0010
0000
1000
0000
0100
0000
,
0010
0000
0000
0001
0000
0000
0100
0000
0000
0000
0000
0000
0010
0000
0000
0000
1000
0000
0000
0000
0000
0000
0000
0000
0100
0000
0000
0000
1000
0000
0000
0000
0000
0000
0000
0000
0001
0000
0000
0000
0000
0000
0010
0000
0000
0001
0000
0000
,
0200
0000
0000
0000
0000
0000
0000
0000
0000
0000
0000
0000
0310
0000
0000
1000
0000
0000
0000
0000
0000
1000
0000
0000
0100
0000
0000
0000
0000
0000
0010
0000
0000
0000
0000
0000
0001
0000
0000
0000
0001
0000
0000
0000
0001
0000
0000
0000
,
0100
0000
0000
0000
0100
0000
0000
0000
0100
0000
0000
0000
0002
0000
0000
0000
0000
0000
0000
0000
0000
0000
0000
0000
0003
0000
0000
0000
0000
0000
1000
0000
0000
0001
0000
0000
0010
0000
0000
0000
0000
0000
0010
0000
0000
0000
0000
0000
,
0001
0000
0002
0000
0100
0000
0000
0000
0013
0000
2000
0000
0000
3000
1000
0000
,
0100
0000
0000
0010
0000
0000
0020
0000
0002
0000
0000
0000
0000
0000
0000
0000
0000
0000
0000
0000
0000
0000
0000
0000
,
0000
0033
0000
0000
;
