#TITLE:Can You Feel My Heart;
#SUBTITLE:;
#ARTIST:Bring Me The Horizon;
#TITLETRANSLIT:;
#SUBTITLETRANSLIT:;
#ARTISTTRANSLIT:;
#GENRE:Metal;
#CREDIT:Blood4Fame;
#MUSIC:music.mp3;
#BANNER:banner.png;
#BACKGROUND:bg.png;
#CDTITLE:;
#SAMPLESTART:0.000;
#SAMPLELENGTH:0.000;
#SELECTABLE:YES;
#OFFSET:-0.181;
#BPMS:0.000=64.000
,14.000=512.000
,16.000=64.000
,32.000=128.000
,64.000=64.000
,80.000=128.000
,144.000=64.000
,176.000=32.000
;
#STOPS:14.000=1.641;
#BGCHANGES:;
#FGCHANGES:;

//--------------- dance-single - Blood4Fame ----------------
#NOTES:
     dance-single:
     Blood4Fame:
     Easy:
     2:
     0,0,0,0,0:
0000
0000
0000
0000
,
0000
0000
0000
0000
,
0000
0000
0000
0000
,
0000
0000
0000
0000
,
0110
0000
1001
0000
,
0110
0000
1000
0001
,
0110
0000
1001
0000
,
0110
0000
0001
1000
,
0100
0100
0100
0000
,
0010
0010
0010
0000
,
1000
1000
1000
0000
,
0100
0100
0100
0000
,
0001
0001
0001
0000
,
0010
0010
0010
0000
,
0100
0100
0100
0000
,
0100
0100
0100
0010
,
0110
0000
1001
0000
,
0110
0000
1000
0001
,
0110
0000
1001
0000
,
0110
0000
0001
1000
,
0100
0100
0100
0000
,
0001
0001
0001
0000
,
1000
1000
1000
0000
,
0010
0010
0010
0000
,
0100
0100
0100
0000
,
0001
0001
0001
0000
,
0100
0100
0100
0000
,
0010
0010
0010
0000
,
1000
0000
0001
0000
,
1000
0000
0100
0010
,
0001
0000
0100
0000
,
0001
0000
0010
0100
,
1000
0000
0100
0000
,
1000
0000
0001
0000
,
1000
0000
0010
0000
,
1000
0000
0100
0000
,
0110
0000
1001
0000
,
0110
0000
1000
0001
,
0110
0000
1001
0000
,
0110
0000
0001
1000
,
0110
0000
1001
0000
,
0110
0000
1000
0001
,
0110
0000
1001
0000
,
0110
0000
0001
1000
,
0200
0000
0300
0100
0020
0030
0010
0100
,
0002
0000
0003
1000
0200
0000
0300
0000
;

//--------------- dance-single - Blood4Fame ----------------
#NOTES:
     dance-single:
     Blood4Fame:
     Medium:
     5:
     0,0,0,0,0:
0000
0000
0000
0000
,
0000
0000
0000
0000
,
0100
0000
0000
0100
0000
0000
0110
0000
0000
0000
0000
0000
0000
0000
0000
0000
0100
0000
0000
0100
0000
0000
0110
0000
0000
0000
0000
0000
0000
0000
0000
0000
,
0100
0000
0000
0100
0000
0000
0110
0000
0000
0000
0000
0000
0000
0000
0000
0000
0000
0000
0000
0000
0000
0000
0000
0000
0000
0000
0000
0000
0000
0000
0000
0000
,
0020
0000
0000
0000
0000
0000
0000
0000
1030
0000
0000
0100
0000
0000
1000
0000
0002
0000
0000
0000
0000
0000
0000
0000
1003
0000
0000
0010
0000
0000
1000
0000
,
0200
0000
0000
0000
0000
0000
0000
0000
0310
0000
0000
0001
0000
0000
0100
0000
0001
0000
0001
0000
1000
0000
0001
0000
2000
0000
0000
0000
0010
0000
0000
0000
,
3020
0000
0000
0000
0000
0000
0000
0000
1030
0000
0000
0100
0000
0000
1000
0000
0002
0000
0000
0000
0000
0000
0000
0000
1003
0000
0000
0010
0000
0000
1000
0000
,
0200
0000
0000
0000
0000
0000
0000
0000
0310
0000
0000
0001
0000
0000
0100
0000
0001
0000
0001
0000
1000
0000
0001
0000
2000
0000
0000
0000
0010
0000
0000
0000
,
3010
0000
0000
0010
0000
0000
1000
0000
0000
0000
1000
0000
0100
0000
0010
0000
,
0001
0000
0000
0100
0000
0000
0010
0000
0000
0000
1000
0000
0001
0000
0100
0000
,
1000
0000
0000
0100
0000
0000
0010
0000
0000
0000
1000
0000
0100
0000
0010
0000
,
0001
0000
0000
1000
0000
0000
0100
0000
0000
0000
1000
0000
0000
0001
0010
0000
,
0001
0000
0000
0100
0000
0000
0010
0000
0000
0000
0001
0000
0100
0000
0010
0000
,
1000
0000
0000
1000
0000
0000
0100
0000
0000
0000
0100
0000
1000
0000
0001
0000
,
0100
0100
0200
0000
,
0310
0000
0000
0010
0000
0000
0010
0000
1000
0000
0001
0000
0100
0000
0001
0000
,
0020
0000
0000
0000
0000
0000
0000
0000
1030
0000
0000
0100
0000
0000
1000
0000
0002
0000
0000
0000
0000
0000
0000
0000
1003
0000
0000
0010
0000
0000
1000
0000
,
0200
0000
0000
0000
0000
0000
0000
0000
0310
0000
0000
0001
0000
0000
0100
0000
0001
0000
0001
0000
1000
0000
0001
0000
2000
0000
0000
0000
0010
0000
0000
0000
,
3020
0000
0000
0000
0000
0000
0000
0000
1030
0000
0000
0100
0000
0000
1000
0000
0002
0000
0000
0000
0000
0000
0000
0000
1003
0000
0000
0010
0000
0000
1000
0000
,
0200
0000
0000
0000
0000
0000
0000
0000
0310
0000
0000
0001
0000
0000
0100
0000
0001
0000
0001
0000
1000
0000
0001
0000
2000
0000
0000
0000
0010
0000
0000
0000
,
3010
0000
0000
0100
0000
0000
0001
0000
0000
0000
1000
0000
1000
0000
0000
0000
,
0001
0000
0000
0100
0000
0000
0001
0000
0000
0000
0010
0000
0010
0000
0000
0000
,
0001
0000
0000
0001
0000
0000
1000
0000
0000
0100
0000
0000
0010
0000
0000
0000
,
0001
0000
0000
1000
0000
0000
0010
0000
0000
0000
0010
0000
0000
0100
0010
0000
,
0100
0000
0000
0010
0000
0000
0001
0000
0000
0000
1000
0000
1000
0000
0000
0000
,
0001
0000
0000
0010
0000
0000
0001
0000
0000
0000
0100
0000
0100
0000
0000
0000
,
0001
0000
0000
0001
0000
0000
1000
0000
0000
0010
0000
0000
0100
0000
0000
0000
,
0001
0000
0000
1000
0000
0000
0100
0000
0000
0000
0100
0000
0000
0010
0100
0000
,
1000
0001
0100
0010
0000
1000
0100
1000
,
0010
0100
0001
0010
0000
0100
0010
0100
,
1000
0100
0010
0001
0000
1000
0001
0100
,
0010
1000
0100
0010
0100
1000
0001
0010
,
0100
0000
0000
0100
0000
0000
0100
0000
0010
0000
0001
0000
0100
0000
0001
0000
,
0010
0000
0000
0010
0000
0000
0010
0000
0001
0000
1000
0000
0010
0000
0100
0000
,
0010
0000
0000
0010
0000
0000
0010
0000
1000
0000
0001
0000
1000
0000
0100
0000
,
0010
0110
0011
0101
,
1020
0000
0000
0000
0000
0000
0000
0000
1030
0000
0000
0100
0000
0000
1000
0000
0002
0000
0000
0000
0000
0000
0000
0000
1003
0000
0000
0010
0000
0000
1000
0000
,
0200
0000
0000
0000
0000
0000
0000
0000
0310
0000
0000
0001
0000
0000
0100
0000
0001
0000
0001
0000
1000
0000
0001
0000
2000
0000
0000
0000
0010
0000
0000
0000
,
3020
0000
0000
0000
0000
0000
0000
0000
1030
0000
0000
0100
0000
0000
1000
0000
0002
0000
0000
0000
0000
0000
0000
0000
1003
0000
0000
0010
0000
0000
1000
0000
,
0200
0000
0000
0000
0000
0000
0000
0000
0310
0000
0000
0001
0000
0000
0100
0000
0001
0000
0001
0000
1000
0000
0001
0000
2000
0000
0000
0000
0010
0000
0000
0000
,
3020
0000
0000
0000
0000
0000
0000
0000
0031
0000
0000
0100
0000
0000
0001
0000
2000
0000
0000
0000
0000
0000
0000
0000
3001
0000
0000
0010
0000
0000
0001
0000
,
0200
0000
0000
0000
0000
0000
0000
0000
0310
0000
0000
1000
0000
0000
0100
0000
1000
0000
1000
0000
0001
0000
1000
0000
0002
0000
0000
0000
0010
0000
0000
0000
,
0023
0000
0000
0000
0000
0000
0000
0000
0031
0000
0000
0100
0000
0000
0001
0000
2000
0000
0000
0000
0000
0000
0000
0000
3001
0000
0000
0010
0000
0000
0001
0000
,
0200
0000
0000
0000
0000
0000
0000
0000
0310
0000
0000
1000
0000
0000
0100
0000
1000
0000
1000
0000
0001
0000
1000
0000
0002
0000
0000
0000
0010
0000
0000
0000
,
0023
0000
0000
0000
0000
0000
0000
0000
0000
0000
0000
0000
0000
0030
0000
0000
;

//--------------- dance-single - Blood4Fame ----------------
#NOTES:
     dance-single:
     Blood4Fame:
     Hard:
     8:
     0,0,0,0,0:
1100
0000
0000
0100
0000
0000
1001
0000
0000
0000
0000
0000
0000
0000
0000
0000
0101
0000
0000
0100
0000
0000
1001
0000
0000
0000
0000
0000
0000
0000
0000
0000
,
1100
0000
0000
0100
0000
0000
1001
0000
0000
0000
0000
0000
0000
0000
0000
0000
0001
0000
0000
0100
0000
0000
0001
0000
1000
0000
0001
0000
0010
0001
0100
0010
,
0100
0000
0000
0100
0000
0000
1001
0000
0000
0000
0000
0000
0000
0000
0000
0000
1100
0000
0000
0100
0000
0000
1001
0000
0000
0000
0000
0000
0000
0000
0000
0000
,
0101
0000
0000
0100
0000
0000
1001
0000
0000
0000
0000
0000
0000
0000
0000
0000
0000
0000
0000
0000
0000
0000
0000
0000
0000
0000
0000
0000
0000
0000
0000
0000
,
1000
0000
0100
0000
1000
0000
0001
0000
0100
0000
0000
0010
0000
0000
0010
0000
1000
0000
0100
0000
0010
0000
0001
0000
0100
0000
0000
0100
0000
0000
0100
0000
,
0001
0000
0100
0000
0001
0000
1000
0000
0100
0000
0000
0010
0000
0000
0010
0000
0001
0000
0001
0000
1000
0000
0001
0000
0400
0000
0000
0000
0302
0000
0000
0000
,
1003
0000
0100
0000
1000
0000
0001
0000
0100
0000
0000
0010
0000
0000
0010
0000
1000
0000
0100
0000
0010
0000
0001
0000
0100
0000
0000
0100
0000
0000
0100
0000
,
0001
0000
0100
0000
0001
0000
1000
0000
0100
0000
0000
0010
0000
0000
0010
0000
0001
0000
0001
0000
1000
0000
0001
0000
0400
0000
0000
0000
0302
0000
0000
0000
,
1003
0000
0100
0010
0000
0000
0010
0000
0000
0100
0000
0000
0001
0000
1000
0000
,
0010
0000
0000
0100
0000
0000
0010
0000
0000
0000
0100
0000
0010
0000
1000
0000
,
0001
0000
0100
0010
0000
0000
0010
0000
0000
0100
0000
0000
1000
0000
0001
0000
,
0010
0000
0000
0100
0000
0000
0010
0000
0000
0000
0100
0000
0000
0010
0001
0010
,
0100
0000
0000
0100
0000
0000
0110
0000
0000
0000
0001
0000
0000
1000
0010
0100
,
0001
0000
0000
0001
0000
0000
1001
0000
0000
0000
1000
0000
0000
0001
0100
0001
,
1000
0000
0000
0100
0000
0000
0010
0000
0000
0000
0100
0000
1000
0000
0100
0000
,
1000
0000
0000
1000
0000
0000
0001
0000
0000
0000
0001
0000
0100
0010
0100
0001
,
1000
0000
0100
0000
1000
0000
0001
0000
0100
0000
0000
0010
0000
0000
0010
0000
1000
0000
0100
0000
0010
0000
0001
0000
0100
0000
0000
0100
0000
0000
0100
0000
,
0001
0000
0100
0000
0001
0000
1000
0000
0100
0000
0000
0010
0000
0000
0010
0000
0001
0000
0001
0000
1000
0000
0001
0000
0400
0000
0000
0000
0302
0000
0000
0000
,
1003
0000
0100
0000
1000
0000
0001
0000
0100
0000
0000
0010
0000
0000
0010
0000
1000
0000
0100
0000
0010
0000
0001
0000
0100
0000
0000
0100
0000
0000
0100
0000
,
0001
0000
0100
0000
0001
0000
1000
0000
0100
0000
0000
0010
0000
0000
0010
0000
0001
0000
0001
0000
1000
0000
0001
0000
0200
0000
0000
0000
0302
0000
0000
0000
,
1003
0000
0010
0100
0000
0000
0100
0000
0000
0010
0000
0000
0001
0000
1000
0000
,
0100
0000
0000
0010
0000
0000
0100
0000
0000
0000
0010
0000
0100
0000
1000
0000
,
0001
0000
0010
0100
0000
0000
0100
0000
0000
0010
0000
0000
1000
0000
0001
0000
,
0100
0000
0000
0010
0000
0000
0100
0000
0000
0000
0010
0000
0000
0100
0001
0100
,
0010
0000
0000
0010
0000
0000
0110
0000
0000
0000
0001
0000
0000
1000
0100
0010
,
0001
0000
0000
0001
0000
0000
1001
0000
0000
0000
1000
0000
0000
0001
0010
0001
,
1000
0000
0000
0010
0000
0000
0100
0000
0000
1000
0010
1000
0010
0100
0010
0100
,
0001
1000
0000
0001
1000
0000
0001
0010
0000
0001
0010
0000
0010
0001
0100
0010
,
2000
0000
0000
3002
0000
0000
0103
0000
0000
0010
0000
0000
1000
0000
0100
0000
,
0020
0000
0000
0032
0000
0000
0103
0000
0020
0000
0000
0000
0030
0000
1000
0001
,
0200
0000
0000
0310
0000
0000
1000
0000
0100
0000
1000
0000
0100
0000
0010
0000
,
0002
0000
0000
0203
0000
0000
0302
0000
0013
0000
0001
0000
1000
0100
0010
0000
,
2000
0000
0000
0100
0000
0000
0010
0000
0000
0000
0000
0000
3000
0000
0000
0000
,
0002
0000
0000
0203
0000
0000
0310
0000
0100
0000
0002
0000
0000
0000
0100
0000
,
2003
0000
0000
0100
0000
0000
0010
0000
0000
0000
0000
0000
3000
0000
0000
0000
,
0001
0010
0000
0000
0001
0100
0000
0000
0010
0100
0000
0000
0001
0100
0000
0000
,
0001
0000
0010
0000
0001
0000
1000
0000
0010
0000
0000
0100
0000
0000
0100
0000
0001
0000
0010
0000
0100
0000
1000
0000
0010
0000
0000
0010
0000
0000
0010
0000
,
1000
0000
0010
0000
1000
0000
0001
0000
0010
0000
0000
0100
0000
0000
0100
0000
1000
0000
1000
0000
0001
0000
1000
0000
0020
0000
0000
0000
2030
0000
0000
0000
,
3001
0000
0010
0000
0001
0000
1000
0000
0010
0000
0000
0100
0000
0000
0100
0000
0001
0000
0010
0000
0100
0000
1000
0000
0010
0000
0000
0010
0000
0000
0010
0000
,
1000
0000
0010
0000
1000
0000
0001
0000
0010
0000
0000
0100
0000
0000
0100
0000
1000
0000
1000
0000
0001
0000
1000
0000
0020
0000
0000
0000
2030
0000
0000
0000
,
3001
0000
0100
0000
0001
0000
1000
0000
0100
0000
0000
0010
0000
0000
0010
0000
0001
0000
0100
0000
0010
0000
1000
0000
0100
0000
0000
0100
0000
0000
0100
0000
,
1000
0000
0100
0000
1000
0000
0001
0000
0100
0000
0000
0010
0000
0000
0010
0000
1000
0000
1000
0000
0001
0000
1000
0000
0400
0000
0000
0000
2300
0000
0000
0000
,
3001
0000
0100
0000
0001
0000
1000
0000
0100
0000
0000
0010
0000
0000
0010
0000
0001
0000
0100
0000
0010
0000
1000
0000
0100
0000
0000
0100
0000
0000
0100
0000
,
1000
0000
0100
0000
1000
0000
0001
0000
0100
0000
0000
0010
0000
0000
0010
0000
1000
0000
1000
0000
0001
0000
1000
0000
0200
0000
0000
0000
2300
0000
0000
0000
,
0002
0000
0000
3003
,
0020
0000
0000
0100
0200
0000
0330
0000
;
