#TITLE:Be the Star!!;
#SUBTITLE:;
#ARTIST:SEGA SOUND TEAM, 青木千紘;
#TITLETRANSLIT:;
#SUBTITLETRANSLIT:;
#ARTISTTRANSLIT:SEGA SOUND TEAM, Chihiro Aoki;
#GENRE:Jazzy;
#CREDIT:Blood4Fame;
#MUSIC:music.mp3;
#BANNER:banner.png;
#BACKGROUND:bg.png;
#CDTITLE:;
#SAMPLESTART:33.264;
#SAMPLELENGTH:23.587;
#SELECTABLE:YES;
#OFFSET:0.890;
#BPMS:0.000=130.000;
#STOPS:;
#BGCHANGES:;
#FGCHANGES:;

//--------------- dance-single - Blood4Fame ----------------
#NOTES:
     dance-single:
     Blood4Fame:
     Easy:
     2:
     0,0,0,0,0:
0000
0000
0000
0000
,
0000
0000
0000
0000
,
0000
0000
0000
0000
,
0200
0000
0000
0300
,
0200
0000
0000
0300
,
0020
0000
0000
0030
,
0020
0000
0000
0030
,
0220
0000
0000
0330
,
0220
0000
0000
0330
,
2002
0000
0000
3003
,
1000
1000
0001
0001
,
0100
0000
0010
0000
,
1000
0100
1000
0000
,
0001
0000
0100
0000
,
0001
0020
0030
0100
,
1000
0000
0001
0000
,
0100
0010
0100
0000
,
0001
0000
0100
0000
,
0010
0200
0300
0100
,
1000
0000
0001
0000
,
0010
0001
0010
0000
,
1000
0000
0010
0000
,
1000
0200
0300
0001
,
1000
0000
0100
0000
,
0010
0100
0010
0000
,
1000
0000
0001
0000
,
1000
1000
1000
0000
,
0100
0000
1000
0000
,
0100
0010
0100
0000
,
0002
0000
0023
0000
,
0032
0000
0000
0003
,
1000
0000
0010
0000
,
1000
0000
0100
0010
,
0200
0000
0302
0000
,
2003
0000
3010
0000
,
0100
0100
0200
0300
,
1000
1000
2000
3000
,
0001
0000
0100
0000
,
0001
0001
0001
0000
,
0100
0100
0200
0300
,
0010
0010
0020
0030
,
1000
0000
0100
0000
,
1000
1000
1000
0000
,
2002
0000
3003
0000
,
2200
0000
3300
0000
,
1000
0000
0001
0000
,
1000
0000
0100
0000
,
0220
0000
0330
0000
,
0022
0000
0033
0000
,
0001
0000
0100
0000
,
2000
0000
0000
0000
,
3001
0000
0100
0100
,
0200
0000
0301
0000
,
0100
0000
0010
0010
,
2000
3000
0200
0300
,
0002
0003
0010
0010
,
0100
0000
0010
0000
,
1000
0000
0100
1000
,
0002
0003
0002
0003
,
0200
0300
0010
0010
,
0010
0000
0100
0000
,
0001
0000
1000
0100
,
0200
0300
2000
3000
,
0020
0030
0100
0001
,
0200
0300
0002
0003
,
0020
0030
0100
0010
,
0002
0003
0200
0300
,
0020
0030
0020
0030
,
0000
0100
0000
0100
,
0000
0100
0000
0100
,
0000
0100
0000
0100
;

//--------------- dance-single - Blood4Fame ----------------
#NOTES:
     dance-single:
     Blood4Fame:
     Medium:
     6:
     0,0,0,0,0:
0000
0000
0000
0000
,
0000
0000
0000
0000
,
0000
0000
0000
0000
,
2001
0001
0000
3001
,
1002
1000
0000
1003
,
2010
0010
0000
3010
,
0012
0010
0000
0013
,
1200
1000
0000
1300
,
0201
0001
0000
0301
,
0210
0010
0000
0320
,
0100
0000
0100
0030
0110
0000
1001
0000
,
0110
0000
1000
0100
0010
0001
0000
0010
,
0000
0000
0001
0000
1000
0000
0000
0000
2000
0000
0000
3002
0000
0000
0103
0000
,
0000
0100
0001
0000
0001
0100
0001
0000
,
0001
0000
0010
0000
0001
0000
0000
0000
0100
0000
0000
0000
1000
0010
0000
1010
,
0000
0000
0001
0100
0010
1000
0000
0010
,
0000
0000
1000
0000
0001
0000
0000
0000
0002
0000
0000
2003
0000
0000
3100
0000
,
0000
0100
1000
0000
1000
0100
1000
0000
,
1000
0000
0010
0000
1000
0010
0000
0000
0000
0000
0001
0000
0000
0010
0000
0000
,
0011
0000
1000
0010
0100
0001
0000
0100
,
0000
0000
0001
0000
1000
0000
0000
0000
2000
0000
0000
3002
0000
0000
0013
0000
,
0000
0010
0001
0000
0001
0010
0001
0000
,
0001
0000
0100
0000
0001
0000
0000
0000
0010
0000
0000
0000
1000
0100
0000
1100
,
0000
0000
0001
0010
0100
1000
0000
0100
,
0000
1000
0001
0002
0000
1003
0010
0020
,
0000
1030
1000
0200
0000
0310
0001
0000
,
1001
0000
0000
0000
0020
0000
0002
0030
0003
0000
0002
0000
0203
0000
0000
0000
,
0300
0100
0010
0000
1000
0100
0010
0000
,
0001
0100
0010
0000
1000
0100
0010
0001
,
0200
0000
0320
0000
,
2030
0000
0000
0000
0000
0000
0000
0000
0000
0000
0000
0000
0000
0001
0000
3100
,
0000
0010
0100
0000
1000
0010
0100
0000
,
0001
0010
0100
0000
1000
0010
0100
0001
,
0020
0000
0230
0000
,
2300
0000
0000
3000
1001
0000
0110
0000
,
1001
0000
0000
0000
0100
0000
0000
0002
0000
0000
1000
0000
1003
0000
0000
0000
,
1001
0000
0000
0000
0100
0000
0000
2000
0000
0000
0001
0000
3001
0000
0000
0000
,
1000
0010
2000
0100
,
3001
0010
0100
2000
0000
0002
0000
3003
,
1001
0000
0000
0000
0100
0000
0000
0002
0000
0000
1000
0000
1003
0000
0000
0000
,
1001
0000
0000
0000
0100
0000
0000
2000
0000
0000
0001
0000
3001
0000
0000
0000
,
0100
0000
0000
0000
0010
0000
0000
0000
1000
0000
0000
0000
0001
0010
0000
0000
,
0100
0000
0000
0000
0100
0000
0000
0010
0000
0000
0002
0000
0000
0000
0003
0000
,
1001
0000
0000
0000
,
1100
0000
0000
0000
,
0001
0010
0001
0000
1000
0100
0010
0000
,
1000
0100
0010
0001
0000
0001
0010
0000
,
1001
0000
0000
0000
,
0101
0000
0000
0000
,
1000
0010
1000
0000
0001
0100
0010
0000
,
0001
0100
0020
0000
0000
1030
0020
0030
,
0000
0000
0100
0000
0010
0100
0000
0000
2100
0000
0000
3010
0000
0000
0220
0000
,
0000
0000
0000
0000
0330
1000
0001
0000
,
0100
0010
0100
0000
1000
1000
0100
0000
,
0001
0100
0010
0000
0001
0001
0100
0000
,
1000
0000
0100
0000
0010
0000
0000
0000
0001
0000
0010
0000
0000
0010
0000
0001
,
0000
0000
0000
0001
1000
0000
0010
0100
,
0010
0000
0001
0001
0010
0000
1000
0010
,
0100
0000
1000
1000
0010
0000
0001
0010
,
0100
0000
1000
0100
1100
0000
1001
0000
,
0022
0033
0000
1000
0001
0000
0100
0010
,
0100
0000
1000
1000
0100
0000
0001
0100
,
0010
0000
0001
0001
0100
0000
1000
0100
,
0010
0000
0001
0010
0001
0100
0020
0030
,
0000
0001
1000
0000
0010
0100
0010
0000
,
0001
0001
0010
0000
1000
0010
0100
0000
,
1000
1000
0010
0000
0001
0010
0100
0000
,
1000
0100
0010
0000
0001
0100
0010
0000
,
1000
0000
1000
0000
,
0001
0000
0001
0000
,
1000
0000
1000
0000
,
0001
0000
0001
0000
;

//--------------- dance-single - Blood4Fame ----------------
#NOTES:
     dance-single:
     Blood4Fame:
     Hard:
     8:
     0,0,0,0,0:
0000
0000
0000
0000
,
0000
0000
0000
0000
,
0000
0000
0000
0000
0000
0000
0000
0000
0000
0000
1000
0100
1000
0010
0000
0000
,
2000
0100
0000
3100
,
0002
0100
0000
0103
,
0020
1000
0000
1030
,
0021
0000
0000
0000
0100
0000
0000
0000
0000
0000
0000
0000
0130
0000
0010
0002
,
0000
0100
0000
0103
,
2000
0000
0000
0000
0100
0000
0000
0000
0000
0000
0000
0000
3100
0000
0000
0100
,
0020
0100
0000
0130
,
0110
0000
0000
0000
1001
0000
0000
0000
0110
0000
0100
0010
0001
0000
0000
0001
,
0100
0000
1000
0100
1000
0010
0100
0001
,
0010
0000
0100
0000
0010
0000
0001
0000
1000
0001
0100
0010
0000
0010
0200
0000
,
0000
0310
1000
0100
1000
0010
0100
0001
,
0010
0000
0100
0000
0010
0000
0001
0000
0000
0000
0001
0000
1000
0100
0000
0010
,
0000
0010
0100
0010
0001
0100
0010
0100
,
0001
0000
1000
0000
0100
0000
1000
0000
0001
0010
0100
0010
0000
0100
0020
0000
,
0000
0000
0000
0000
0032
0000
0000
0200
0000
0000
0000
0000
0000
0000
0303
0000
,
0000
0000
0010
0000
1000
0010
0000
0000
0000
0000
1001
0000
0000
0100
0000
0000
,
0220
0000
0000
0330
0000
0000
0001
0000
0010
0000
0100
0000
0010
0000
0001
0000
,
1000
0000
0010
0000
1000
0000
0100
0000
1000
0100
0010
0001
0000
0001
0200
0000
,
0000
0000
0000
0000
0320
0000
0000
2000
0000
0000
0000
0000
0000
0000
0000
3030
,
0000
0000
0001
0000
1000
0000
0001
0000
0100
0000
0010
0000
1000
0010
0000
1010
,
0000
0000
1000
0000
0100
0000
1000
1000
0000
0000
0100
0000
0010
0000
0100
0000
,
1000
0000
0001
0000
0100
0000
0010
0000
1000
0001
0100
0010
0000
0010
0200
0000
,
0000
0000
0300
0000
0000
0000
0100
0010
0000
0010
1000
0000
0002
2000
0003
0000
,
0010
0010
0010
3010
0000
0000
0000
0000
,
0100
0010
0001
0100
0001
0010
0100
0000
,
0010
0100
0010
0001
0001
1000
1000
0100
,
0020
0000
0130
0010
0200
0000
1300
0010
,
2000
0000
0000
0000
3001
0000
1000
0000
0200
0000
0000
0000
0300
0010
0000
0001
,
0000
1000
0100
0100
1000
0100
0010
0000
,
0100
0010
0001
0100
0100
0010
1000
0100
,
2000
0000
3100
0010
0002
0000
0103
0010
,
2000
0000
3000
0010
2000
0000
3002
0000
,
0013
0000
0100
0000
0010
0000
0001
0100
0000
0000
0010
0000
0100
0000
0000
0000
,
0001
0000
0100
0000
0010
0000
1000
0100
0000
0000
0010
0000
0100
0000
0000
0000
,
0010
0000
0100
0000
1000
0000
0100
0010
0000
0000
0001
0000
0020
0000
0000
0000
,
0031
0100
1000
0200
0000
0302
0000
0000
,
0103
0000
0010
0000
0010
0000
0100
0020
0000
0000
1000
0000
1030
0000
0000
0000
,
0001
0000
0010
0000
0001
0000
0100
0020
0000
0000
1000
0000
1030
0000
0000
0000
,
1000
0000
0010
0000
0100
0000
0001
0000
0100
0000
0010
0000
1000
0200
0000
0000
,
1300
0000
0100
0000
0020
0000
0000
0230
0000
0000
0302
0000
0000
0000
0003
0000
,
0001
0100
0001
0100
0001
0000
0100
0001
0000
0000
0000
0000
0000
0000
0000
0000
,
1000
0100
1000
0100
1000
0000
0100
1000
0000
0000
0000
0000
0000
0000
0100
0000
,
0010
0000
0010
0001
0100
0000
1000
0100
,
0000
1100
0000
0110
0000
0001
0100
0000
,
1000
0010
1000
0010
1000
0000
0010
1000
0000
0000
0000
0000
0000
0000
0000
0000
,
0001
0100
0001
0100
0001
0000
0100
0001
0000
0000
0000
0000
0000
0000
1000
0000
,
0100
0000
0001
1000
0010
0000
0010
0010
,
2000
0001
0000
0001
,
0000
0000
3001
0000
1000
0100
0000
0000
0010
0000
0000
0001
0000
0000
0020
0000
,
0000
0000
0000
0000
0000
0000
0000
0000
0000
0030
0010
0001
0010
0000
0001
0000
,
0100
0000
0010
0000
1000
0000
0100
0000
1000
0001
1000
0000
0010
0000
0100
0000
,
0000
0000
0000
0000
0000
0001
0010
0001
0000
0000
0100
0000
0010
0000
0000
1000
,
0000
0100
0000
0000
0100
0000
1000
0001
0000
1000
0000
0010
0000
0100
0000
0001
,
0000
1000
0000
0100
0000
0000
0100
0000
2000
0000
3000
0000
0000
0010
0000
0100
,
0000
0000
0000
0010
0000
0000
0010
0000
1000
0000
0100
0000
1000
0000
0001
0010
,
0000
0000
0010
0000
0001
0000
1000
0001
0000
0000
0000
0001
0100
0000
0010
0000
,
1000
0010
0100
0001
0010
0000
0010
0000
,
0011
0000
0000
0000
2000
0000
0002
0000
0003
0000
3001
1000
0001
0000
1000
0001
,
1000
0000
0100
0000
1000
0000
0010
0000
0100
0000
0010
0000
1000
0001
0000
0000
,
0000
0001
0010
0000
0001
0000
0100
0000
0010
0000
1000
0000
0010
0000
0100
0000
,
0001
0000
0010
0000
0100
0000
0010
0000
0001
0000
1000
0000
0100
0020
0000
0000
,
0030
0000
0001
0010
0001
0000
0100
0000
0001
0000
1000
0000
0010
0000
1000
0000
,
0100
0000
1000
0001
0000
1000
0020
0000
0000
0000
0130
0000
0002
0000
0103
0000
,
0000
1000
0000
0100
0000
0010
0000
1000
0000
0100
0000
0010
0000
0001
0000
0020
,
0000
0000
0000
0000
0000
0000
0000
0000
0031
0020
0000
0000
0000
0000
0000
0000
,
0030
0000
0002
0000
0000
0000
0000
0000
0000
0000
0000
0000
0000
0000
0000
0003
,
0000
0100
0000
0000
,
0000
0100
0000
0000
,
0000
0100
0000
0000
;

//--------------- dance-single - Blood4Fame ----------------
#NOTES:
     dance-single:
     Blood4Fame:
     Challenge:
     10:
     0,0,0,0,0:
0000
0000
0000
0000
,
0000
0000
0000
0000
,
0000
0000
0000
0000
0000
0000
0000
0000
0000
0000
1000
0100
1000
0010
0000
0000
,
2000
0000
0100
0000
0000
0010
3000
1000
,
0002
0000
0100
0000
0000
0010
0003
0001
,
0200
0000
0001
0000
0000
0010
0300
0100
,
0020
0000
1000
0000
0000
0100
0030
0010
,
1000
0002
0000
0000
0100
0000
0000
0000
0000
0000
0010
0000
0003
0000
0001
0000
,
0001
2000
0000
0000
0010
0000
0000
0000
0000
0000
0100
0000
3000
0000
1000
0000
,
0001
0020
0000
0000
0001
0000
0000
0000
0000
0000
0100
0000
0030
0000
0010
0000
,
0110
0000
0000
0000
0011
0000
0000
0000
0001
1000
0000
0000
0001
0100
0000
0000
,
0011
0010
0100
0010
0001
0100
0010
1000
,
0100
0000
1000
0000
0010
0000
0100
0000
0001
0100
0010
1000
0000
1000
0200
0000
,
0000
1300
0100
0001
0100
1000
0010
0100
,
0001
0000
0100
0000
1000
0000
0100
0000
0001
0000
0010
0000
0100
0010
0000
0011
,
0000
1000
0100
0010
0100
1000
1000
0001
,
0100
0000
0010
0000
0100
0000
0001
0000
0001
0010
0100
1000
0000
1000
0020
0000
,
0000
0130
0010
1000
0010
0100
0001
0010
,
0100
0000
0010
0000
0001
0100
0000
0000
1000
0000
0010
0000
0000
1010
0000
0000
,
0101
0000
0001
0010
0001
0100
1000
0100
,
0001
0000
0010
0000
0100
0000
1000
0000
1000
0100
0010
0001
0000
1000
0020
0000
,
0000
0130
0010
0100
1000
0100
0010
1000
,
1000
0000
0100
0000
0010
0000
0001
0000
0010
0000
0010
0000
0001
0100
0000
1010
,
0000
0000
1000
0000
0100
0000
1000
0001
0000
0000
0001
0000
0100
0000
0010
1000
,
0000
0000
0100
0000
0010
0000
0001
0000
1000
0010
0100
0001
0000
1000
0200
0000
,
0000
0000
1300
0000
0001
0000
0010
0100
0000
0010
0001
0000
1000
0010
0000
0000
,
0020
0030
0200
0300
0020
0000
2030
0000
3000
0000
0000
0000
0000
0000
0000
1000
,
0100
0000
0010
0000
0001
0000
0100
0000
0001
0000
0010
0100
0000
0000
0010
0000
,
0010
0000
0100
0000
0100
0000
1000
0010
0000
0000
1000
0000
1000
0000
0100
0010
,
0000
0001
0100
0010
0100
0001
1000
0010
,
1000
0000
1000
0000
0001
0000
1000
0000
0100
0000
0001
0000
0100
0010
0000
0001
,
0000
0000
1000
0100
0000
0000
0100
0000
1000
0000
0100
0010
0000
0000
0001
0000
,
0100
0000
0010
1000
0000
0000
0100
0000
0100
0000
0010
0000
0001
0000
0100
0010
,
0000
0000
1000
0000
0100
0000
0010
0001
0000
0000
0001
0000
0100
0000
0010
1000
,
0000
0100
1000
0010
1000
0000
1001
0000
,
0001
0000
0100
0000
0010
0000
1000
0100
0000
0000
0100
0000
0100
0000
0000
0000
,
0001
0000
0100
0000
0010
0000
1000
0100
0000
0000
0010
0000
0010
0000
0001
0000
,
0010
0000
0100
0000
1000
0000
0100
0010
0000
0000
0001
0100
0001
0100
0000
0000
,
0001
0100
1000
0200
0000
0302
0000
1003
,
0100
0000
1000
0000
0010
0000
0100
0010
0000
0000
1010
0000
1010
0000
0000
0000
,
0001
0000
0010
0000
0001
0000
0100
0010
0000
0000
0110
0000
0110
0000
0000
0000
,
1000
0000
0010
0000
0100
0001
0000
0001
0000
0100
0010
0000
1000
0100
0000
0000
,
1000
0000
0100
0000
0010
0000
0000
0110
0000
0000
0022
0000
0000
0000
0033
0000
,
0001
0100
0001
0100
0001
0000
0100
0001
0000
0000
0000
0000
0000
0000
0000
0000
,
1000
0100
1000
0100
1000
0000
0100
1000
0000
0000
0000
0000
0000
0000
0000
0100
,
0010
0001
0010
0001
0100
0010
1000
1100
,
0000
1100
0000
0110
0000
0011
0101
0000
,
1000
0010
1000
0010
1000
0000
0010
1000
0000
0000
0000
0000
0000
0000
0000
0000
,
0001
0100
0001
0100
0001
0000
0100
0001
0000
0000
0000
0000
0000
0000
0000
1000
,
0100
1000
0001
1000
0010
0100
0010
0010
,
1200
0000
0010
0000
1000
0300
0120
0000
,
0001
0000
0000
0000
0100
0000
0030
0000
0011
0000
0000
0101
0000
0000
0110
0000
,
0000
0000
0010
0000
1000
0000
0010
0000
0100
0000
0001
0100
0001
0000
0001
0010
,
0001
0000
0100
0001
0100
0001
0010
0100
0020
0000
0031
0010
0002
0000
2003
0000
,
3100
0000
0010
0000
0100
0000
1000
0020
1030
0000
0100
0000
0010
0100
0010
0001
,
0000
0010
0100
0000
1000
0000
0010
1000
0000
0100
0000
0010
0000
0001
0000
1000
,
0000
0000
0000
0010
0000
0000
0000
0000
0000
0100
0000
0000
0000
0000
0000
0000
0001
0000
0000
0000
0000
0000
0000
0000
0002
0000
0000
0000
0000
0000
1003
0000
0000
0000
0000
0000
0000
0000
0000
0001
0000
0000
0000
0000
0000
0010
0000
0000
,
0000
0000
0000
0001
0000
1000
0100
0000
0110
0000
0000
0001
0100
0000
0010
1000
,
0000
0100
1000
0100
1000
0000
0010
0100
0000
0000
0000
0001
0100
0001
0100
0000
,
0001
0010
0001
0000
0100
0010
0100
0010
1000
0000
0001
0010
0000
0100
0010
0000
,
0002
0000
0000
0103
0010
0000
0020
0000
0000
0000
1030
0100
1000
0100
0000
0110
,
0000
0010
0001
0000
0001
0100
0002
0000
0013
0100
1000
0001
0010
0100
1000
0000
,
0000
0100
1000
0100
0010
0001
0010
0001
0100
0010
1000
0010
0100
0010
0100
0001
,
0100
0010
1000
0100
1000
0000
0100
0010
0001
0010
0100
1000
0200
0000
0310
0000
,
0000
0000
0001
0010
0001
0100
0000
0010
2000
3000
0200
0300
0010
0001
0000
0000
,
0020
0000
0031
0010
0000
0100
2000
0000
0000
0000
3001
0010
0100
0000
0100
0000
,
0000
1000
0000
0010
0000
1000
0000
0001
0000
1000
0000
0100
0000
1000
0000
0020
,
0000
0000
0000
0000
0000
0030
1000
0001
0020
0000
0000
0000
0000
0000
0030
0000
,
0000
0021
0100
0000
0000
0000
0100
0000
,
0000
0000
0000
0000
0100
0000
0000
0000
0000
0000
0000
0000
0130
0000
1000
0001
,
0020
0100
0000
0100
,
0000
0100
0000
0130
;
