#TITLE:Another Sad Love Song;
#SUBTITLE:;
#ARTIST:Toni Braxton;
#TITLETRANSLIT:;
#SUBTITLETRANSLIT:;
#ARTISTTRANSLIT:;
#GENRE:R&B;
#CREDIT:Blood4Fame;
#MUSIC:Another Sad Love Song.mp3;
#BANNER:Banner.png;
#BACKGROUND:BG.png;
#CDTITLE:;
#SAMPLESTART:49.365;
#SAMPLELENGTH:21.780;
#SELECTABLE:YES;
#OFFSET:1.071;
#BPMS:0.000=96.360;
#STOPS:;
#BGCHANGES: 1.371=Another Sad Love Song.avi=1.000=1=0=1===CrossFade==,
99999.000=-nosongbg-=1.000=0=0=0=StretchNoLoop====;
#FGCHANGES:;

//--------------- dance-single - Blood4Fame ----------------
#NOTES:
     dance-single:
     Blood4Fame:
     Easy:
     3:
     0,0,0,0,0:
0000
0000
0000
0000
,
0000
0100
1000
0001
,
0010
0000
0010
0100
0000
0000
1000
0001
,
0000
0000
1000
0001
,
0001
1000
0000
0010
,
0000
0010
0010
1000
,
0100
0010
0100
1100
,
0000
0100
0010
0001
,
1100
1001
0100
0000
,
0001
1001
0100
0000
,
0010
0010
0001
0000
0000
0000
0110
0000
,
0000
1001
0000
0001
,
0011
0101
1010
0000
,
0100
0000
1000
0000
0010
0000
0000
0100
,
0000
0100
0000
0100
0000
0000
0010
0000
0000
1000
0000
0000
,
1000
0000
0010
0000
0001
0000
0010
1000
,
0000
0100
0100
0001
,
0100
0000
0001
0000
0010
0000
0000
0001
,
0000
0001
0000
0001
0000
0000
0100
0000
0000
1000
0000
0000
,
1001
1100
0011
0001
,
1010
1001
1000
0100
,
0010
0010
0001
0010
,
0001
1000
0100
0100
,
0001
0010
0000
0010
,
0010
0001
1000
1000
,
0010
0100
0010
1000
,
0001
0010
0100
1000
0000
0000
0001
0000
,
1000
0010
0010
0100
,
0101
0100
0100
1000
,
1001
0000
1010
0000
0101
0000
0000
0010
,
0000
0100
0000
0000
0000
0000
0001
0000
0000
0000
0000
0000
0010
0000
0000
0000
0000
0000
0000
0000
0000
1000
0000
0000
,
0000
0001
0000
0000
0000
0000
0010
0000
0000
0000
0000
0000
0010
0000
0000
0000
0000
0000
0000
0000
1000
0000
0000
0000
,
0100
0000
0000
1000
0000
0000
0100
0000
0101
0000
0000
0000
,
0000
1000
0000
0010
0000
0000
1000
0000
0000
0100
0000
0000
,
1000
0000
0100
0000
0110
0000
0100
0001
,
0010
0100
0001
1000
,
1001
1001
0000
0000
,
1001
0000
0000
0000
0000
0000
1001
0000
0000
0000
0000
0000
1001
0000
0000
0010
0000
0000
0000
0000
0010
0000
0000
0000
,
0110
0000
0010
1000
,
0010
0001
0010
1000
,
0001
0010
1000
0001
,
0010
0001
0010
0100
,
0001
1010
0101
0010
,
0100
1000
0001
0010
0000
0000
0010
0000
,
1000
0010
0100
0100
,
1001
0011
0110
1001
,
2002
0000
0000
3003
;

//--------------- dance-single - Blood4Fame ----------------
#NOTES:
     dance-single:
     Blood4Fame:
     Medium:
     5:
     0,0,0,0,0:
0000
0000
0000
0000
,
0000
0200
2300
3002
,
0010
0003
0010
0200
0000
0000
1300
0001
,
0000
0020
0000
0000
0000
0030
0001
0100
,
0001
0000
2000
0002
0000
3000
0013
0000
,
0000
0000
0010
0000
0010
0001
1000
0100
,
0100
0000
0110
0000
0100
1000
1100
0000
,
0010
0010
0100
0000
0010
0100
0001
0010
,
2200
0000
0000
0000
0000
0000
0000
0000
0000
3300
0000
0000
2002
0000
0000
0000
0000
0000
0000
0000
3003
0000
0000
0000
0100
0000
0000
0000
0000
0000
0001
0000
0000
0000
0000
0000
0010
0000
0000
0000
0000
0000
0000
0000
0000
0000
0000
0000
,
0001
0000
1001
0000
0100
0010
0100
0001
,
0010
0000
0000
0000
0000
0000
0000
0000
0010
0000
0000
0000
0000
0000
0000
0000
0001
0000
0000
0000
0000
0000
0000
0000
0000
0000
0000
0000
0000
0000
0000
0000
0010
0000
0000
0000
0000
0000
0000
0000
0100
0000
0000
0000
0000
0000
0000
0000
0110
0000
0000
0000
0000
0000
0000
0000
0000
2020
0000
0000
0000
0000
0000
0000
,
0000
3030
0000
0000
2002
0000
0000
0000
3003
0000
0000
0000
0000
0000
0000
0000
0000
0000
0000
0000
0000
0000
0000
0000
0002
0000
0000
0000
0013
0000
0000
0000
,
0011
0101
1010
0100
,
1100
0000
1000
0000
0020
0000
0000
0100
,
0000
0000
0100
0000
0000
0000
0130
0000
0000
0001
0000
0000
0010
0000
0000
0100
0000
0000
1000
0000
0000
0100
0000
0000
,
2000
0000
0000
0000
0000
3000
0020
0000
0000
0000
0030
0000
0002
0000
0000
0000
0000
0003
0020
0000
0000
2000
0000
0000
,
0000
3030
0100
0000
0100
0010
0001
0010
,
0100
0000
0002
0010
0023
0030
0000
0001
,
0000
0000
0001
0000
0000
0000
0001
0000
0000
0010
0000
0000
0200
0000
0000
0000
0000
0000
1300
0000
0000
0000
0000
0000
,
1001
0000
1100
0000
0011
0000
0001
0100
,
1010
0000
1001
0000
1000
0010
0200
0000
,
0310
1000
0010
0000
0001
1000
0010
0000
,
0001
0010
1000
0000
0100
0010
0100
0000
,
0001
1000
0010
0000
1000
0100
0010
0001
,
0020
0000
0032
0000
1003
0100
1000
0001
,
0020
0000
0000
0000
0000
0000
0230
0000
0000
0000
0000
0300
0010
0000
0000
0001
0000
0000
1000
0000
0000
0000
0000
0000
,
1001
0000
0000
0011
0000
0000
0110
0000
0000
2200
0000
0000
0000
0000
3300
0000
0000
0000
0001
0000
0000
1000
0000
0000
,
2000
0000
3010
0000
0010
0010
0100
0010
,
0102
0000
0103
0000
0100
0010
1000
0000
,
1001
0000
0000
0000
0000
0000
1010
0000
0000
0101
0000
0000
0202
0000
0000
0000
0003
0000
0300
0000
0000
0010
0000
0000
,
0000
0200
0000
0000
0000
0000
0301
0000
0000
0100
0000
0000
0020
0000
0000
0000
0000
0000
0030
0000
0000
2000
0000
0000
,
0000
3002
0000
0000
0000
0000
0013
0000
0000
2000
0000
0000
3010
0000
0000
0001
0000
0000
0000
0000
1000
0000
0000
0000
,
0100
0000
1000
0100
0000
0000
1000
0000
0000
0010
0000
0000
0100
0000
0000
0000
0101
0000
0000
0000
0000
0000
0000
0000
,
0000
0000
1000
0000
0000
0001
0010
0000
0000
0100
0000
0000
1000
0000
0000
1000
0000
0000
0100
0000
0000
0100
0000
0000
,
1000
0010
0100
0101
0110
0000
0100
0001
,
0020
0130
0002
1003
,
1001
0000
2002
0000
0000
0000
0000
3003
,
1001
0000
0000
0000
0000
0000
1001
0000
0000
0000
0000
0000
1001
0000
0000
0010
0000
0000
0001
0000
0010
0000
0000
0000
,
0220
0000
0330
0000
0010
0001
1000
0000
,
0010
0100
0001
0000
0010
0001
1000
0000
,
0001
0001
0010
0001
1000
0010
0001
0001
,
0010
0010
0001
1000
0010
0000
0100
0001
,
0001
1000
1010
0000
0101
0000
0010
0100
,
1100
1001
0101
0220
0000
0330
0010
0000
,
1000
0000
0010
0000
0100
0010
0100
1000
,
1001
0011
0110
1001
,
2002
0000
0000
0000
,
3003
0000
0000
0000
;

//--------------- dance-single - Blood4Fame ----------------
#NOTES:
     dance-single:
     Blood4Fame:
     Hard:
     7:
     0,0,0,0,0:
0000
0000
0000
0000
,
0000
0020
0032
2003
,
0100
3100
0100
0020
0000
0000
0031
1000
,
0000
0000
1000
0200
0000
0000
0000
0000
0000
0000
0000
0000
0000
0000
0000
0300
0000
0000
1000
0000
0000
0010
0000
0000
,
0101
0000
0102
2000
0000
0003
3100
0000
,
0000
0000
0000
0000
0000
0000
0100
0000
0000
0000
0000
1000
0100
0000
0000
1000
0000
0000
0001
0000
0100
0010
0000
0000
,
0010
0000
0000
0000
0000
0000
0110
0000
0000
0000
0000
1000
0010
0000
0000
0101
0000
0000
0011
0000
0000
0000
0000
0010
,
0100
0000
0000
0100
0000
0000
0010
0000
0000
0000
0000
0001
0100
0000
0000
0010
0000
0000
1000
0000
0000
0100
0000
0000
,
0022
0000
0000
0000
0000
0000
0000
0000
0000
0033
0000
0000
2002
0000
0000
0000
0000
0000
0000
0000
3003
0000
0100
0000
0010
0000
0000
0000
0000
0000
1000
0000
0000
0000
0000
0000
0100
0000
0000
0000
0000
0000
0000
0000
0000
0000
0000
0000
,
1000
0000
0000
0000
0000
0000
1001
0000
0000
0000
0000
0001
0010
0000
0000
0100
0000
0000
0010
0000
0001
1000
0000
0000
,
0100
0000
0000
0000
0000
0000
0000
0000
0000
0000
0000
0000
0000
0000
0000
0000
0000
0000
0000
0000
0000
0000
0000
0000
0100
0000
0000
0000
0000
0000
0000
0000
0000
0000
0000
0000
0000
0000
0000
0000
0000
0000
0000
0000
0000
0000
0000
0000
1000
0000
0000
0000
0000
0000
0000
0000
0000
0000
0000
0000
0000
0000
0000
0000
0000
0000
0000
0000
0000
0000
0000
0000
0000
0000
0000
0000
0000
0000
0000
0000
0000
0000
0000
0000
0000
0000
0000
0000
0001
0000
0000
0000
0000
0000
0000
0000
0100
0000
0000
0000
0000
0000
0000
0000
0000
0000
0000
0000
0000
0000
0000
0000
0000
0000
0000
0000
0000
0000
0000
0000
1010
0000
0000
0000
0000
0000
0000
0000
0000
0000
0000
0000
0000
0000
0000
0000
0000
0000
0000
0000
0000
0000
0000
0000
0110
0000
0000
0000
0000
0000
0000
0000
0000
0000
0000
0000
0000
0000
0000
0000
0000
0000
0000
0000
0000
0000
0000
0000
0000
0000
0000
0202
0000
0000
0000
0000
0000
0000
0000
0000
0000
0000
0000
0000
0000
0000
0000
0000
0000
0000
0000
0000
,
0000
0303
0000
0000
2002
0000
0000
0000
3003
0000
0000
0000
0000
0000
0000
0000
0000
0000
0000
0000
0000
0000
0000
0000
2001
0000
0000
0000
3100
0000
0000
0000
,
1100
0000
1010
0000
0101
0001
0010
0100
,
0011
0000
0000
0000
0000
0000
0001
0000
0000
0000
0000
1000
0200
0000
0000
1000
0000
0000
0001
0000
0000
0010
0000
0000
,
0000
0000
0010
0000
0000
0000
0310
0000
0000
1000
0000
0001
0100
0000
0000
0010
0000
0000
1000
0000
0000
0010
0000
0000
,
1020
0000
0000
0000
0000
1030
0200
0000
0000
0000
0300
0000
0021
0000
0000
0000
0000
0031
0200
0000
0000
0002
0000
0000
,
0000
0000
0000
0303
0000
0000
0010
0000
0000
0000
0000
0001
0010
0000
0000
0100
0000
0000
1000
0000
0000
0100
0000
0000
,
0010
0000
2010
0100
3200
0300
0000
1000
,
0000
0000
1000
0000
0000
0000
1000
0000
0000
0100
0000
0000
0020
0000
0000
0000
0000
0000
0031
0000
0000
0000
0000
0000
,
1001
0000
0011
0000
1100
0000
1010
0010
,
0101
0000
1001
0000
1001
0100
0020
0000
,
0130
0000
0000
1000
0000
0000
0100
0000
0000
0000
0000
0010
1000
0000
0000
0001
0000
0000
0100
0000
0000
0000
0000
0000
,
1000
0000
0000
0100
0000
0000
0001
0000
0000
0000
0000
1000
0010
0000
0000
0100
0000
0000
0010
0000
0000
0000
0000
0000
,
1000
0000
0000
0001
0000
0000
0100
0000
0000
0000
0000
0010
1000
0000
0000
0001
0000
0000
1000
0000
0000
1000
0000
0000
,
0200
0000
2300
0000
3001
0010
0001
1000
,
0200
0000
0000
0000
0000
0000
0320
0000
0000
0000
0000
0031
0100
0000
0000
0100
0000
0000
0001
0000
0000
0000
0000
0000
,
1001
0000
0000
1100
0000
0000
0110
0000
0000
0022
0000
0000
0000
0000
0033
0000
0000
0000
1000
0000
0000
0001
0000
1000
,
0002
0000
0000
0000
0000
0000
0103
0000
0000
0000
0000
0010
0100
0000
0000
0100
0000
0000
0010
0000
1000
0100
0000
0000
,
0012
0000
0000
0000
0000
0000
0013
0000
0000
0000
0000
0001
0010
0000
0000
0100
0000
0000
1000
0000
0000
0000
0000
0000
,
1001
0000
0000
0110
0000
0000
0101
0000
0000
1010
0000
0000
2020
0000
0000
0000
3000
0000
0130
0000
0000
0100
0000
0000
,
0000
0020
0000
0000
0000
0000
1030
0000
0000
0010
0000
0000
0200
0000
0000
0000
0000
0000
0301
0000
0000
0002
0000
0000
,
0000
2003
0000
0000
0000
0000
3100
0000
0000
0002
0000
0000
0103
0000
0000
1000
0000
0000
0000
0000
0001
0000
0000
0000
,
0011
0000
0001
0010
0000
0000
0001
0000
0000
0100
0000
0000
0010
0000
0000
0000
1010
0000
0000
0000
0000
0101
0000
0000
,
0000
0000
1001
0000
0000
1000
0100
0000
0000
0010
0000
0000
0001
0000
0000
0001
0000
0000
0010
0000
0000
0010
0000
0000
,
1001
0100
0010
1010
0110
0100
0010
1000
,
0200
0310
2000
3001
,
1001
0000
2002
0000
0000
0000
0000
3003
,
1001
0000
0000
0110
0000
0000
1001
0000
0000
0110
0000
0000
1001
0000
0000
0100
0000
0010
0001
0000
0100
0000
0000
0000
,
2010
0000
0000
0000
0000
0000
3001
0000
0000
0000
0000
1000
0100
0000
0000
1000
0000
0000
0001
0000
0000
0000
0000
0000
,
0100
0000
0000
0010
0000
0000
1000
0000
0000
0000
0000
0010
0100
0000
0000
0001
0000
0000
0001
0000
0000
0000
0000
0000
,
1000
0000
0000
1000
0000
0000
0100
0000
0000
1000
0000
0100
0001
0000
0000
0100
0000
0000
1000
0000
0000
0010
0000
0000
,
0100
0000
0000
0100
0000
0000
0001
0000
0000
0001
0000
0000
0100
0000
0000
0000
0000
0000
0010
0000
0000
1000
0000
0010
,
1000
0000
0000
0001
0000
0000
0101
0000
0000
0000
0000
0000
1010
0000
0000
0000
0000
1000
0100
0000
0000
0010
0000
0000
,
0011
1001
1010
0220
0000
0330
0100
0000
,
1000
0000
0000
0000
0000
0000
0100
0000
0000
0000
0000
0001
0010
0000
0000
0100
0000
0000
0010
0000
0000
0001
0000
0000
,
1001
1100
0110
1001
,
2002
0000
0000
0000
,
3003
0000
0000
0000
;
