#TITLE:American Boy;
#SUBTITLE:;
#ARTIST:Estelle feat. Kanye West;
#TITLETRANSLIT:;
#SUBTITLETRANSLIT:;
#ARTISTTRANSLIT:;
#GENRE:R&B;
#CREDIT:Blood4Fame;
#MUSIC:American Boy.mp3;
#BANNER:Banner.png;
#BACKGROUND:BG.png;
#CDTITLE:;
#SAMPLESTART:24.639;
#SAMPLELENGTH:15.387;
#SELECTABLE:YES;
#OFFSET:-0.367;
#BPMS:0.000=118.038;
#STOPS:;
#BGCHANGES:-0.367=American Boy.avi=1.000=1=0=1===CrossFade==,
99999.000=-nosongbg-=1.000=0=0=0=StretchNoLoop====
;
#FGCHANGES:;

//--------------- dance-single - Blood4Fame ----------------
#NOTES:
     dance-single:
     Blood4Fame:
     Easy:
     3:
     0,0,0,0,0:
0000
0000
0000
0000
,
0000
0000
0000
0000
,
0000
0000
0000
0000
,
0000
0000
0000
0000
,
0200
0000
0000
0000
0000
0000
0000
0300
,
0002
0000
0000
0000
0000
0000
0000
0003
,
0020
0000
0000
0000
0000
0000
0000
0030
,
0000
0000
0020
0030
,
0200
0000
0000
0000
0000
0000
0000
0300
,
2000
0000
0000
0000
0000
0000
0000
3000
,
0020
0000
0000
0000
0000
0000
0000
0030
,
0100
0000
0000
0000
,
0002
0100
0103
0010
,
2000
0000
3010
0000
,
0020
1000
1030
0000
,
0020
0000
0000
0130
,
0001
0100
0100
0000
,
1000
0001
0100
0000
,
1000
0010
1000
0000
,
0000
0000
1100
0000
,
0100
0100
0100
0000
,
0100
0000
0100
0010
,
0100
0100
0100
0000
,
0100
0000
0100
0000
,
0100
0100
0100
0000
,
0100
0000
0100
0000
,
0100
0100
0100
0000
,
0020
0001
0031
0002
,
0203
1000
0300
0001
,
2000
0000
0020
0030
3000
0000
1000
0000
,
0020
0001
0030
0000
,
0100
0100
0200
0000
,
2300
0010
3000
0000
,
0002
0100
0003
0100
,
0000
0000
0000
0000
,
0000
0000
0000
0000
,
0002
0100
0103
0000
,
2000
0000
3000
0000
,
0020
1000
1030
0000
,
0020
0000
0000
0130
,
0001
0100
1000
0000
,
1000
0001
0100
0000
,
1000
0000
0010
0000
1000
0000
0000
0010
,
0000
0000
0000
0000
,
0200
0300
0200
0300
0200
0300
0001
0000
,
2000
0000
3200
0300
0200
0300
0000
0000
,
2000
3000
2000
3000
2010
3000
0000
0000
,
0000
0000
0011
0000
,
0100
0100
0010
0001
,
0002
0000
0000
0000
2000
0000
0000
0003
0002
0000
0000
3000
1003
0000
0000
0000
,
0202
0000
0303
0000
,
0000
0000
0000
0000
0022
0000
0000
0033
,
2200
0000
0000
0000
0000
0000
0000
3300
,
0100
0000
0000
0000
0010
0000
0000
0000
2000
0000
0000
3000
1000
0000
0000
0000
,
0000
0000
0000
0000
0010
0000
0000
0000
2000
0000
0000
3000
1000
0000
0000
0000
,
0100
0000
0000
0000
0001
0000
0000
0000
0200
0000
0000
0300
0001
0000
0000
0000
,
0200
0300
0200
0300
0200
0300
0000
0000
,
0000
0000
2000
3000
2000
3000
0000
0000
,
0002
0003
0002
0003
0002
0003
0020
0000
,
0030
0000
0200
0300
0020
0030
0000
0000
,
2000
0100
3100
0000
,
0002
0000
0003
0000
,
0020
0001
0031
0000
,
0020
0000
0000
0130
,
1000
0100
0010
0000
,
0001
1000
0100
0000
,
0001
0000
0010
0000
0001
0000
0000
0001
,
0000
0000
1001
0000
;

//--------------- dance-single - Blood4Fame ----------------
#NOTES:
     dance-single:
     Blood4Fame:
     Medium:
     5:
     0,0,0,0,0:
0000
0000
0000
0000
,
0000
0000
0000
0000
,
0000
0000
0000
0000
,
0000
0000
0000
0000
,
2200
0000
0000
0000
0000
0000
0000
3300
,
0001
1000
0100
0010
0000
0100
2000
3000
,
0022
0000
0000
0000
0000
0000
0000
0033
,
1000
0100
0100
0010
0010
0001
0001
0000
,
0202
0000
0000
0000
0000
0000
0000
0303
,
0010
0100
0100
1000
0001
0100
0100
0000
,
2020
0000
0000
0000
0000
0000
0000
3030
,
0100
0010
0001
1000
0100
0000
0000
0000
,
0102
0100
0103
0010
,
2100
0000
0000
0002
3000
0000
0103
0000
,
1020
1000
1030
0100
,
0021
0000
0000
0001
0000
0000
0130
0000
,
0001
0010
0100
0200
0000
0000
0300
0100
,
1000
0010
0001
0200
0000
0000
0300
0000
,
1000
0100
0010
0100
1000
0001
0000
0002
,
0000
0003
1100
0000
,
0100
0000
0000
0000
0000
0000
0000
0000
0100
0000
0000
1000
0100
0000
0000
0000
,
0100
0000
0000
0000
0100
0010
0010
0010
,
0100
0000
0000
0000
0100
1000
0100
0000
,
0100
1000
0100
0000
0100
1000
0100
0000
,
0100
0000
0000
0000
0000
0000
0000
0000
0100
0000
0000
1000
0100
0000
0000
0000
,
0100
0000
0000
0000
0000
0000
0000
0000
0100
0000
0000
1000
0100
0000
0000
0000
,
0100
0000
0000
0000
0100
0020
0130
0000
,
0010
0020
0031
0000
0001
0200
0301
0000
,
0100
1000
0100
0001
,
1000
0000
0020
0030
0100
0000
1000
0000
,
0010
0010
0001
0001
0010
0010
0100
0000
,
0100
0100
0011
0100
,
1000
0010
0100
0000
,
0001
0100
0010
0000
,
1000
1000
0100
0001
0100
0010
0000
0001
,
0000
0000
0000
0000
,
0102
0100
0103
0010
,
2100
0000
0000
0002
3000
0000
0103
0000
,
1020
1000
1030
0100
,
0021
0000
0000
0001
0000
0000
0130
0000
,
0001
0010
0100
0200
0000
0000
0300
0100
,
1000
0010
0001
0200
0000
0000
0300
0000
,
1000
0100
0010
0100
1000
0001
0000
0002
,
0000
0003
0000
0000
,
1100
0000
0001
0100
1000
0000
0001
0000
,
1000
0000
0100
0001
0100
0000
0010
0000
,
0000
0000
1000
0100
0110
0000
1000
0010
,
0001
1000
0010
0010
0010
0000
0000
0000
,
0100
1100
0011
0001
,
0001
0010
0100
2000
0000
0000
3001
0000
0000
1000
0000
0000
,
0202
0000
0303
0000
,
0000
0000
0000
0000
0022
0000
0000
0033
,
2200
0000
0000
0000
0000
0000
0000
3300
,
0100
0000
0000
0000
0010
0000
0100
0000
2000
0000
0000
3000
1000
0000
0200
0000
,
0000
0000
0301
0000
0010
0000
0100
0000
2000
0000
0000
3000
1000
0000
0000
0000
,
0100
0000
0010
0000
0001
0000
0010
0000
0200
0000
0000
0300
0001
0000
0000
0000
,
0200
0300
0200
0300
0200
0300
0011
0000
,
0000
0010
0000
1000
0100
0001
0100
0000
,
0002
0003
0002
0003
0012
0003
0020
0000
,
1030
1000
0200
0000
0310
0001
1000
0001
,
2100
0100
3100
0010
,
0102
0000
0000
2000
0003
0000
3100
0000
,
0021
0001
0031
0100
,
1020
0000
0000
1000
0000
0000
0130
0000
,
1000
0010
0100
0200
0000
0000
0300
0100
,
0001
0010
1000
0200
0000
0000
0300
0000
,
0001
0100
0010
0100
0001
1000
0000
2000
,
0000
3000
1001
0000
;

//--------------- dance-single - Blood4Fame ----------------
#NOTES:
     dance-single:
     Blood4Fame:
     Hard:
     7:
     0,0,0,0,0:
0000
0000
0000
0000
,
0000
0000
0000
0000
,
0000
0000
0000
0000
,
0000
0000
0000
0000
,
2200
0000
0000
0000
0000
0000
0000
3300
,
0001
0000
1000
0000
0100
0000
0010
0100
0000
0010
0100
0000
2000
0000
3000
0000
,
0022
0000
0000
0000
0000
0000
0000
0033
,
1000
0100
0100
0010
0010
0001
0001
0000
,
0202
0000
0000
0000
0000
0000
0000
0303
,
0010
0000
0100
0000
0001
0000
1000
0100
0001
0000
0100
0000
0100
0000
0000
0000
,
0220
0000
0000
0000
0000
0000
0000
0000
0000
0000
0000
0000
0000
0000
0000
0000
0000
0000
0000
0000
0000
0000
0000
0000
0330
0000
0000
0000
0000
0000
0000
1000
,
0000
0000
0100
0000
0000
0000
0000
0000
0000
0000
0010
0000
0000
0000
0000
0000
0001
0000
0000
0000
0000
0000
0000
0000
1000
0000
0000
0000
0000
0000
0000
0100
0000
0000
0000
0000
0010
0000
0000
0000
0000
0000
0000
0000
0000
0000
0000
0000
0100
0000
0000
0000
0000
0000
0000
0000
0000
0000
0000
0000
0000
0000
0000
0000
,
0102
0100
0103
0010
,
2100
0000
0000
0100
0000
0000
0002
0000
3000
0000
0000
0000
0103
0000
0000
0000
,
1020
1000
1030
0100
,
0021
0000
0000
0001
0000
0000
0001
0000
0000
0000
0000
0000
0130
0000
0000
0000
,
1000
0010
0100
0200
0000
0000
0300
0100
,
1000
0010
1000
0200
0000
0000
0300
0000
,
1000
0000
0100
0000
0010
0000
0100
0000
1000
0000
0001
0100
0000
0000
0002
0000
,
0000
0003
0000
0000
,
0100
0000
0100
0000
,
0100
0000
0100
0000
,
0100
0000
0000
0000
0000
0000
0000
0100
0000
0010
0000
0100
0000
0001
0000
1000
,
0000
0001
0000
0100
0000
0010
0000
1000
0000
0001
0000
0100
0000
0010
0000
0200
,
0000
0300
0100
0000
,
0100
0000
0100
0000
,
0100
0000
0000
0000
0000
1000
0000
0001
0000
0010
0000
0100
0000
1000
0000
0010
,
0000
0100
0000
0001
0000
1000
0000
0100
0000
0010
0000
0001
0000
1000
0000
0100
,
0000
2000
0000
0000
3001
0000
0000
0000
0100
0000
0000
0000
0001
0000
0000
0000
,
1000
0000
0001
0100
0000
0001
0000
0200
0000
0000
0000
0000
0301
0000
0000
0000
,
0010
0000
0010
0000
0001
0000
0001
0000
0010
0000
0010
0000
0100
0000
0000
1000
,
0000
0100
0000
1000
0000
0010
0000
0200
0000
0000
0000
0000
0310
0000
0000
0000
,
1000
0010
0100
0000
,
0001
0100
0010
0000
,
1000
0000
1000
0000
0100
0000
0001
0000
0100
0000
0010
0100
0000
0000
1000
0000
,
0000
0000
0000
0000
0000
0001
0000
0010
0000
0100
0000
1000
0000
0100
0000
0000
,
0102
0100
0103
0010
,
2100
0000
0000
0100
0000
0000
0002
0000
3000
0000
0000
0000
0103
0000
0000
0000
,
1020
1000
1030
0100
,
0021
0000
0000
0001
0000
0000
0001
0000
0000
0000
0000
0000
0130
0000
0000
0000
,
0001
0010
0100
0200
0000
0000
0300
0100
,
1000
0010
1000
0200
0000
0000
0300
0000
,
1000
0000
0100
0000
0010
0000
0100
0000
1000
0000
0001
0100
0000
0000
0002
0000
,
0000
0003
0000
0000
,
1100
0000
0100
0010
0001
0000
0100
0000
0001
0000
0000
0000
1000
0000
0000
0000
,
1000
0000
0100
0010
0100
0000
1000
0000
0100
0000
0000
0000
0010
0000
0000
0000
,
0000
0000
0000
0000
0001
0000
0100
0000
0010
0000
0000
0000
1000
0000
0010
1000
,
0100
1000
0110
0010
0011
0000
0000
0000
,
0100
1100
0011
0011
,
0001
0010
0100
2000
0000
0000
3001
0000
0000
1001
0000
0000
,
0202
0000
0303
0000
,
1010
0000
0000
0000
0022
0000
0000
0033
,
2200
0000
0000
0000
0000
0000
0000
0000
0000
0000
0000
0000
0000
0000
3300
1000
,
0100
0000
0010
0001
0010
0000
0100
0000
2000
0000
0000
3000
1000
0000
0201
0000
,
0000
0000
0301
0000
0100
0000
0010
0000
2000
0000
0000
3000
1000
0000
0000
1000
,
0100
0000
0010
0000
0001
0000
0010
0000
0200
0000
0000
0300
1000
0000
0000
0000
,
0200
0000
0300
0010
0200
0000
0300
0000
0200
0000
0300
0000
1100
0000
0000
0000
,
0000
0000
0010
1000
0000
0100
1000
0000
0100
0000
0001
0000
0100
0000
0001
0000
,
0002
0003
2000
3000
0210
0310
0020
0000
,
1030
0100
1000
0000
0200
0000
0000
0000
0310
0000
0001
0000
1000
0000
0001
0000
,
2100
0100
3100
0010
,
0102
0000
0000
0100
0000
0000
2000
0000
0003
0000
0000
0000
3100
0000
0000
0000
,
0021
0001
0031
0100
,
1020
0000
0000
1000
0000
0000
1000
0000
0000
0000
0000
0000
0130
0000
0000
0000
,
1000
0010
0100
0200
0000
0000
0300
0100
,
0001
0010
0001
0200
0000
0000
0300
0000
,
0001
0000
0100
0000
0010
0000
0100
0000
0001
0000
1000
0100
0000
0000
2000
0000
,
0000
3000
1001
0000
;
