#TITLE:エイリアンエイリアン;
#SUBTITLE:(feat. Hatsune Miku);
#ARTIST:NayutalieN;
#TITLETRANSLIT:Alien Alien;
#SUBTITLETRANSLIT:;
#ARTISTTRANSLIT:;
#GENRE:Weird;
#CREDIT:Blood4Fame;
#MUSIC:music.mp3;
#BANNER:banner.png;
#BACKGROUND:bg.png;
#CDTITLE:;
#SAMPLESTART:0.000;
#SAMPLELENGTH:0.000;
#SELECTABLE:YES;
#OFFSET:-0.722;
#BPMS:0.000=152.000;
#STOPS:;
#BGCHANGES:;
#FGCHANGES:;

//--------------- dance-single - Blood4Fame ----------------
#NOTES:
     dance-single:
     Blood4Fame:
     Beginner:
     2:
     0,0,0,0,0:
0000
0000
0000
0000
,
0000
0000
0000
0000
,
0000
0000
0000
0000
,
0000
0000
0000
0000
,
1000
0000
0001
0000
,
1000
1000
1000
0000
,
0001
0000
1000
0000
,
0001
0001
0001
0000
,
0010
0000
0100
0000
,
0010
0010
0010
0000
,
0100
0000
0010
0000
,
0100
0100
0100
0000
,
1000
0000
0001
0000
,
0010
0000
0010
0000
,
0001
0000
0100
0000
,
1000
0000
1000
0000
,
0100
0000
0010
0000
,
1000
0000
1000
0000
,
0001
0000
0010
0000
,
0000
0010
0000
0100
,
0100
0000
0001
0000
,
0100
0100
0100
0000
,
1000
0000
0100
0000
,
1000
1000
1000
0000
,
0001
0000
1000
0000
,
0010
0000
0100
0000
,
0001
0000
1000
0000
,
0100
0000
0010
0000
,
0001
0000
1000
0000
,
0100
0000
0010
0000
,
0001
0000
0001
0000
,
1000
0000
1000
0000
,
0010
0010
0010
0000
,
0100
0100
0100
0000
,
0001
1000
0001
1000
,
0001
0001
0001
0000
,
0100
0000
0010
0000
,
1000
0000
0100
0000
,
0010
0000
0100
0000
,
1000
0000
0100
0000
,
0001
0000
0100
0000
,
0001
0001
0001
0000
,
0100
0000
0010
0000
,
1000
0000
0100
0000
,
0001
0000
1000
0000
,
0001
0000
0010
0000
,
1000
0000
0100
0000
,
0010
0000
0100
0000
,
0001
0000
0001
0000
,
1000
0000
0100
0000
,
0100
0100
0000
1000
,
1000
0000
1000
0000
,
0001
0000
1000
0000
,
0001
0001
0001
0000
,
0010
0000
0100
0000
,
0010
0010
0010
0000
,
1001
0000
0000
0000
;

//--------------- dance-single - Blood4Fame ----------------
#NOTES:
     dance-single:
     Blood4Fame:
     Easy:
     3:
     0,0,0,0,0:
0000
0000
0000
0000
,
0000
0000
0000
0000
,
0000
0000
0000
0000
,
0000
0000
0000
0000
,
1000
1000
0001
0001
,
1000
1000
1000
0000
,
0001
0001
1000
1000
,
0001
0001
0001
0000
,
0010
0010
0100
0100
,
0010
0010
0010
0000
,
0100
0100
0010
0010
,
0100
0100
0100
0000
,
1000
0000
0001
0000
,
0010
0100
0010
0000
,
0001
0000
0100
0000
,
1000
0010
1000
0000
,
0100
0000
0010
0000
,
1000
0001
1000
0000
,
0001
0001
0010
0010
,
0000
0010
1000
0100
,
0010
0010
0001
0001
,
0010
0010
0010
0000
,
1000
1000
0100
0100
,
1000
1000
1000
0000
,
0001
0000
1000
0000
,
0010
0010
0100
0100
,
0001
0000
1000
0000
,
0100
0100
0010
0010
,
0001
0000
1000
0000
,
0100
0100
0010
0010
,
0001
0000
0001
0000
,
1000
0000
1000
0000
,
0010
0010
0010
0010
,
0100
0100
0100
0100
,
0001
1000
0001
1000
,
0001
0010
0100
0000
,
0100
0000
0010
0000
,
1000
0001
0100
0000
,
0010
0000
0100
0000
,
1000
1000
0100
0000
,
0001
0001
0100
0010
,
0001
0001
0001
0000
,
0100
0100
0010
0000
,
1000
1000
0100
0100
,
0001
0000
1000
0000
,
0001
0001
0010
0000
,
1000
0000
0100
0000
,
0010
0010
0100
0000
,
0001
0010
0001
0100
,
1000
0010
0100
0000
,
0100
0100
0010
0010
,
0000
1000
0000
0000
1000
0000
0000
0000
,
0001
0001
1000
1000
,
0001
0001
0001
0000
,
0010
0010
0100
0100
,
0010
0010
0010
0000
,
1001
0000
0000
0000
;

//--------------- dance-single - Blood4Fame ----------------
#NOTES:
     dance-single:
     Blood4Fame:
     Medium:
     7:
     0,0,0,0,0:
0000
0000
0000
0000
,
0000
0000
0000
0000
,
0000
0000
0000
0000
,
0000
0000
0000
0000
,
1001
0000
0010
0100
0010
0000
0100
0010
,
0001
0000
1000
0010
0100
0010
1000
0000
,
0011
0000
1000
0100
0010
0000
0100
1000
,
0010
0000
1000
0100
0001
0100
1000
0000
,
0110
0000
0001
0100
0010
0000
1000
0100
,
0010
0000
0100
1000
0001
0100
0010
0000
,
1010
0000
0100
0010
0001
0000
0010
0100
,
1000
0000
0010
0100
0001
0100
0010
0000
,
1100
0001
1000
0010
,
0100
0010
0100
0000
1000
0100
1000
0000
,
1001
0010
0001
0100
,
1000
0100
1000
0000
0010
0100
0010
0000
,
0101
0010
1000
0100
,
0001
0100
0001
0000
0010
0100
0010
0000
,
1001
0000
0100
0000
0100
0010
0100
0010
,
0000
0010
1000
0100
0010
0001
0100
0010
,
2000
0000
3000
0000
1000
0000
0100
0010
,
0001
0000
1000
0010
0100
0010
1000
0000
,
0011
0000
1000
0100
0010
0000
0100
1000
,
0010
0000
1000
0100
1000
0001
0001
0000
,
1000
0000
0010
0000
1000
0000
0100
0000
0010
0000
0100
0000
,
1000
0010
0100
0000
1000
0001
0010
0000
,
1000
0000
0001
0000
0010
0000
0100
0000
0010
0000
0001
0000
,
0100
0010
1000
0000
0010
1000
0100
0000
,
1000
0000
0001
0000
1000
0000
0010
0000
0100
0000
0001
0000
,
1000
0100
1000
0000
0010
1000
0001
0000
,
1010
1100
1001
1100
,
0000
0001
0010
0000
0001
0100
0000
0010
,
1000
1001
0101
0011
,
0110
1001
0110
1001
,
1000
0010
1000
0000
1000
0010
0100
0010
,
4040
0000
3030
0000
,
1001
0000
1000
0100
0010
0000
1010
0000
,
1001
0000
0001
0100
0010
0000
0011
0000
,
1001
1100
1001
1010
,
0001
0010
0100
0010
0001
0000
0000
0000
,
0011
0000
1000
0010
0100
0010
1000
0000
,
0110
0000
0001
0010
0100
0000
0000
0011
,
0000
0000
1000
0100
1000
0001
0100
0010
,
0000
1000
1000
0000
0100
0100
0000
1000
,
1000
0001
0100
0010
0000
0010
1000
0000
,
0100
0010
0100
1000
0000
0001
0010
0000
,
0100
0000
0001
0000
1000
0000
1000
0100
,
1000
0010
0100
0001
0010
0000
0000
0010
,
0001
0100
0001
0010
0100
0000
1000
0010
,
0100
0000
0011
0000
0101
0000
0000
0001
,
0010
0000
0001
0010
0100
0010
0001
0100
,
0000
0001
0001
0000
1000
1000
0000
0010
,
0200
0000
0000
0000
,
0000
0000
0000
0300
0000
0000
0000
0000
,
0011
0000
1000
0100
0010
0000
0100
1000
,
0010
0000
1000
0100
0001
0100
0000
1000
,
0100
0000
0000
0000
;

//--------------- dance-single - Blood4Fame ----------------
#NOTES:
     dance-single:
     Blood4Fame:
     Hard:
     9:
     0,0,0,0,0:
0000
0000
0000
0000
,
0000
0000
0000
0000
,
0000
0000
0000
0000
,
0000
0000
0000
0000
,
1000
0001
0100
0001
1000
0001
0100
0001
,
1000
0001
0100
0001
0010
0001
0100
0001
,
0100
0010
1000
0010
0100
0010
1000
0010
,
0100
0010
1000
0001
0100
0001
1000
0100
,
1000
0001
0100
0001
1000
0001
0100
0001
,
1000
0001
0100
0001
0010
0001
0100
0001
,
0100
0010
1000
0010
0100
0010
1000
0010
,
0100
0010
1000
0010
0100
0001
1000
0010
,
0200
0300
0000
0100
0002
0003
0000
0001
,
0010
0001
0100
0010
1000
0001
0010
0100
,
2000
3000
0000
1000
0002
0003
0000
0001
,
1000
0100
1000
0001
0010
0001
0100
0010
,
2000
3000
0000
1000
0200
0300
0000
0100
,
0001
0100
1000
0010
0100
0001
0010
0100
,
2000
3000
1200
0000
0310
0000
0202
0303
,
0000
0001
0010
0001
1000
0010
0100
0001
,
1000
0001
0100
0001
1000
0001
0100
0001
,
1000
0001
0100
0001
0010
0001
0100
0001
,
0100
0010
1000
0010
0100
0010
1000
0010
,
0100
0010
1000
0020
0000
1030
1000
0001
,
0200
0000
0300
0010
1000
0000
0001
0000
0020
0000
0030
0001
0010
0000
0001
0000
,
0100
0000
0001
0000
0010
0000
0001
0000
0100
0000
0010
1000
0010
0000
0100
0000
,
0002
0000
0003
0001
0010
0000
0100
0000
0020
0000
0030
0010
0001
0000
1000
0000
,
0100
0000
1000
0000
0001
0000
0100
0000
1000
0100
1000
0000
0100
0000
0001
0000
,
0200
0000
0300
0010
1000
0000
0100
0000
0020
0000
0030
0001
0100
0000
0010
0000
,
1000
0000
0010
0000
0100
1000
0100
0000
0001
0000
0010
0000
0100
0000
1000
0000
,
0020
0000
0030
0010
0200
0000
0300
0100
0002
0000
0003
0001
0020
0000
0030
0000
,
0000
0000
0010
0001
0010
0000
0100
0000
0010
0000
0001
0000
0100
0000
1000
0000
,
0100
0110
0001
1010
,
0001
0110
1000
0011
,
1000
0100
1000
0100
0010
0100
1000
0001
,
0100
0001
0100
0001
0100
0001
0100
0001
0100
0000
0000
0000
0000
0000
0000
0000
,
1010
0000
0000
0000
0001
0000
0010
0000
0001
0000
0000
0010
0100
0000
1000
0000
,
0010
0000
0100
0000
0001
0010
0001
0000
0100
0000
0000
0000
0001
0000
0100
0000
,
0010
1000
0000
0000
1000
0100
0000
0000
0010
0001
0000
0000
0001
1000
0000
0000
,
0010
0100
0010
1000
0100
0110
0110
0000
,
0001
0010
0000
0000
0010
0100
0000
0000
0100
0000
1000
0000
0010
0000
1000
0000
,
0010
0100
0000
0000
0001
0000
1000
0000
0002
0000
0000
0000
0003
0000
2200
0000
,
3300
0000
1000
0000
0100
0000
0010
0001
0010
0000
0001
0000
1000
0000
0001
0000
,
0000
0011
0011
0000
1001
2002
3003
0000
,
1010
0000
0000
0000
1000
0000
0100
0000
0000
0000
0001
0100
0001
0000
0010
0000
,
0100
0010
0100
0000
1000
0000
0010
0000
0020
0000
0030
0100
0001
0000
0100
0000
,
0010
0000
0001
0000
0100
0000
0010
0000
1000
0010
1000
0000
0001
0000
0010
0000
,
0001
1000
1000
0010
0100
0110
0110
0000
,
1000
0000
0000
1000
0010
0000
0000
0010
0100
0000
0100
0000
0002
0000
0003
0000
,
0011
0000
0000
0000
0101
0000
0000
0000
2002
0000
0000
0000
3003
0000
1000
0100
,
1000
0001
1000
0010
0100
0010
1000
0001
,
0000
1001
1001
0000
0110
0110
0000
0001
,
1000
0001
0100
0001
1000
0001
0100
0001
,
1000
0001
0100
0001
0010
0001
0100
0001
,
0100
0010
1000
0010
0100
0010
1000
0010
,
0100
0010
1000
0010
0100
0001
0000
0001
,
0100
0000
0000
0000
;
