#TITLE:Airbrushed;
#SUBTITLE:;
#ARTIST:ANAMANAGUCHI;
#TITLETRANSLIT:;
#SUBTITLETRANSLIT:;
#ARTISTTRANSLIT:;
#GENRE:Chiptune;
#CREDIT:Blood4Fame;
#MUSIC:music.mp3;
#BANNER:banner.png;
#BACKGROUND:bg.png;
#CDTITLE:;
#SAMPLESTART:0.000;
#SAMPLELENGTH:0.000;
#SELECTABLE:YES;
#OFFSET:-0.065;
#BPMS:0.000=188.000
,4.000=187.000
,20.000=188.000
,32.000=186.000
,36.000=182.000
,40.000=186.000
,48.000=189.000
,64.000=187.000
,84.000=93.500
,88.000=187.000
,100.000=189.000
,112.000=187.000
,124.000=93.500
,125.000=187.000
,126.000=374.000
,128.000=187.000
,144.000=190.000
,152.000=186.000
,160.000=189.000
,172.000=184.000
,176.000=188.000
,180.000=189.000
,184.000=187.000
,188.000=93.500
,190.000=187.000
,192.000=185.000
,196.000=190.000
,202.000=186.000
,206.000=185.000
,210.000=190.000
,218.000=186.000
,234.000=189.000
,237.000=188.000
,250.000=186.000
,254.000=190.000
,266.000=182.000
,270.000=188.000
,282.000=186.000
,286.000=188.000
,314.000=186.000
,318.000=190.000
,322.000=186.000
,346.000=190.000
,362.000=186.000
,382.000=93.000
;
#STOPS:;
#BGCHANGES:;
#FGCHANGES:;

//--------------- dance-single - Blood4Fame ----------------
#NOTES:
     dance-single:
     Blood4Fame:
     Easy:
     4:
     0,0,0,0,0:
0000
0000
0000
0000
,
0002
0000
0000
0000
,
0000
0000
0000
0000
0003
1000
0000
0200
,
0000
0000
0000
0000
,
0300
0000
0000
0000
,
0002
0000
0000
0000
,
0000
0000
0000
0003
0000
1000
0000
0200
,
0000
0000
0000
0000
,
0000
0000
0300
0000
,
0100
0000
0100
0000
,
0100
0000
0000
0100
0000
0010
0000
0100
,
0000
0000
0010
0000
,
0100
0000
0001
0000
,
1000
0000
0001
0000
,
1000
0000
0010
0000
,
0100
0000
0001
0000
,
0100
0100
0010
0100
,
0000
0000
0000
1000
,
0001
0000
0200
0000
,
0000
0300
0000
0001
,
0100
0000
0010
0000
,
2000
0000
0000
0000
0000
0000
0000
3000
,
0100
0000
0100
0000
,
0100
0100
0100
0000
,
0010
0000
0001
0000
,
0010
0000
0001
0000
,
0100
0000
0001
0000
0100
0000
0000
0010
,
0000
0000
1100
0000
,
0010
0000
0001
0000
,
0010
0000
0000
0000
0100
0000
0000
1000
,
0000
0000
0000
0000
0001
0000
0000
0100
,
0000
0200
0000
0000
0000
0000
0000
0000
,
0310
0010
0010
0000
,
0100
0100
0010
0000
,
0100
0100
0010
0100
,
0010
0000
0000
0100
0000
0000
0000
0000
,
0010
0010
0100
0000
,
0010
0100
0010
0000
,
0010
0100
0010
0010
,
0100
0000
0000
0010
0000
0000
0000
0000
,
1000
1000
0100
0000
,
1000
0100
1000
0000
,
0100
1000
0100
0000
,
0100
0000
0000
1000
0000
0000
0000
0000
,
0001
0001
0001
0001
,
1000
1000
1000
1000
,
1001
0000
1001
0000
,
1001
0000
0100
0000
,
0000
0000
0010
0000
,
0000
0001
0100
0000
,
0000
0010
1000
0000
,
0000
0000
0010
0000
,
0100
0000
0001
0000
,
0000
0010
1000
0000
,
1000
0000
0001
0000
,
0100
0010
1000
0000
,
0100
0000
1000
0000
,
0000
0001
0100
0000
,
0000
0010
1000
0000
,
0000
0000
0010
0000
,
0100
0000
0001
0000
,
1000
0000
0000
0010
0000
2000
0000
0000
,
0000
0000
0000
3000
0000
0000
0001
0000
,
0000
0010
0001
0000
,
1000
0000
0000
0000
1000
0000
0000
1000
,
0000
0001
0000
1000
0000
0000
0000
0000
,
0100
0000
0010
0000
,
0100
0000
0001
0001
,
0100
0100
0001
0001
,
0100
0100
1000
0100
,
0010
0000
1000
0100
,
0001
0000
0100
0000
,
0100
0000
0100
0000
,
0100
0000
0100
0000
,
0100
0000
0100
0100
,
0100
0000
0010
0000
,
0010
0000
0010
0000
,
0010
0000
0010
0000
,
0010
0010
0010
0000
,
0000
0000
0002
0000
,
0000
0000
0000
0000
,
0003
1000
0000
0200
0000
0000
0000
0000
,
0000
0000
0300
0000
,
0000
0000
0002
0000
,
0000
0000
0000
0000
0000
0000
0000
0003
,
0000
1000
0000
0200
0000
0000
0000
0000
,
0000
0000
0000
0000
,
0300
0000
0100
0000
,
0100
0000
0000
0000
0100
0000
0000
0100
,
0000
0010
0000
0100
0000
0000
0000
0000
,
0010
0000
0100
0000
,
0001
0000
1000
0000
,
0001
0000
1000
0000
,
0010
0000
0100
0000
,
0001
0000
0100
0100
,
0010
0100
0101
0101
;

//--------------- dance-single - Blood4Fame ----------------
#NOTES:
     dance-single:
     Blood4Fame:
     Medium:
     5:
     0,0,0,0,0:
0000
0000
0000
0000
,
0001
0020
0000
0000
0000
0000
0000
0000
,
0000
0000
0000
0000
0030
0011
0000
0202
,
0000
0003
0320
0000
,
2030
0000
3200
0000
,
0301
0020
0000
0000
0000
0000
0000
0000
,
0000
0000
0030
0000
0000
0011
0000
0202
,
0000
0003
0320
0000
,
2030
0000
3200
0000
,
1300
0000
1000
0000
,
1000
0000
1000
0100
0000
0001
0000
0010
,
0000
0000
1000
0010
0000
0000
1000
0100
,
0000
0000
0001
0010
0000
0000
0001
0100
,
0000
0000
0100
0001
0000
0000
0100
0010
,
0000
0000
1000
0010
0000
0000
0100
0001
,
0000
0000
0010
0100
0000
0000
1000
0100
,
0010
0000
0010
0000
0010
0200
0020
0000
,
0330
0000
0000
0000
0000
1000
0100
1000
,
0010
0000
0010
0000
1000
0000
0001
0020
,
0000
0000
0030
0000
0000
0010
0100
0010
,
0001
0000
0100
0000
1000
0000
0100
0020
,
0000
0230
0301
1000
,
0100
0100
0100
0100
,
0100
0000
0100
0000
0100
0010
0001
0010
,
0100
0000
0010
0000
0100
0000
0001
1000
,
0000
0100
0000
0000
0010
0000
0001
0200
,
0000
0000
0000
0300
0000
0000
0000
0000
,
0000
0000
1000
0001
,
1001
0000
1010
0000
,
1100
0000
0011
0000
,
0101
0000
1001
0000
,
0220
0000
0000
0000
0000
0000
0000
0330
,
0010
1000
0100
0010
,
0100
0000
1000
0000
0001
0000
0100
0010
,
0000
1000
0100
0010
0000
0000
0000
0000
,
0000
0000
0000
0000
,
0100
0010
0001
0100
,
0010
0000
1000
0000
0010
0000
1000
0100
,
0000
0010
0100
0001
0000
0000
0000
0000
,
0000
0000
0000
0000
,
0100
0010
0001
0100
,
0010
0000
1000
0000
0100
0000
0010
0100
,
0000
1000
0001
0100
0000
0000
0000
0000
,
0000
0000
0000
0000
,
1001
0000
0010
0010
,
0001
0000
0100
0000
0010
0000
0010
1000
,
0000
0000
0000
0000
0100
0010
0001
0200
,
0000
0300
0000
0000
0010
0000
1000
0000
,
0100
0010
0100
0010
,
1000
0001
0100
0010
,
0001
0100
0010
1000
,
1000
0100
0010
0001
,
0100
0010
1000
0100
,
0010
0001
0100
0010
,
0010
0100
0010
1000
,
0100
0100
1000
1000
,
0001
0001
0100
0010
,
1000
0100
0010
0001
,
0100
0010
1000
0001
,
0100
0010
1000
0000
,
0001
0000
0100
0000
,
0010
0000
0000
1000
0000
0100
0000
0000
,
0010
0000
0000
0001
0000
0000
0100
0000
,
0010
1000
0100
0000
,
0100
0000
0000
0000
0100
0000
0000
0100
,
0000
0010
0000
0001
0000
0000
0000
0000
,
0110
0000
1010
0000
,
1100
0000
0001
0001
,
0100
0100
0001
0001
,
0100
0100
1000
0100
,
0010
0001
1000
0100
,
0010
0001
0100
0000
,
0100
0000
0100
0000
,
0100
0000
0010
0000
,
0010
0000
0010
1000
,
0100
0000
0001
0000
,
0001
0000
1000
0000
,
1000
0000
0010
0000
,
0010
0000
0100
0000
,
0000
0000
0001
0000
0001
0020
0000
0000
,
0000
0000
0000
0000
,
0030
0011
0000
0202
0000
0000
0003
0000
,
0320
0000
2030
0000
,
3200
0000
0000
0000
0301
0020
0000
0000
,
0000
0000
0000
0030
,
0000
0011
0000
0202
0000
0000
0003
0000
,
0320
0000
2030
0000
,
3200
0000
1300
0000
,
1000
0000
0000
0000
1000
0000
1000
0100
,
0000
0001
0000
0010
0000
0000
1000
0010
,
0000
0000
1000
0100
0000
0000
0001
0010
,
0000
0000
0001
0100
0000
0000
0100
0001
,
0000
0000
0100
0010
0000
0000
1000
0010
,
0000
0000
0100
0001
0000
0000
0010
0100
,
0000
0000
1000
0100
0010
0000
0010
0000
,
0010
0200
0320
0000
0032
0000
0203
0000
,
0300
0000
0000
0000
;

//--------------- dance-single - Blood4Fame ----------------
#NOTES:
     dance-single:
     Blood4Fame:
     Hard:
     9:
     0,0,0,0,0:
0000
0000
0000
0000
,
1000
0001
0010
0000
0000
0000
1000
0001
,
1000
0010
0100
0000
0000
0001
0000
0220
,
0000
0330
1000
0100
0010
0000
0001
0100
,
0010
0000
1000
0100
0001
0100
1000
0000
,
0001
1000
0010
0000
0000
0000
0001
1000
,
0001
0010
0100
0000
0000
1000
0000
0220
,
0000
0330
0001
0100
0010
0000
1000
0100
,
0010
0000
0001
0100
1000
0100
0001
0000
,
0000
0100
0001
1000
0000
0100
1000
0001
,
0000
0100
0010
1000
0000
0100
0000
0110
,
0000
0100
1000
0010
0000
0010
1000
0100
,
0000
0100
1000
0010
0000
0010
1000
0100
,
0000
0100
1000
0100
0000
0100
1000
0010
,
0000
1000
0100
0010
0000
0100
0010
0001
,
0000
0100
0001
0010
0000
0001
0010
0100
,
1000
0000
1001
0000
1000
0001
0200
0300
,
0000
0000
0000
0000
0000
0001
1000
0100
,
2000
0000
3001
0000
0020
0000
0031
0200
,
0000
0300
0000
0000
0000
0100
0010
1000
,
0002
0000
0013
0000
0200
0000
1300
0200
,
0000
0000
0300
0000
0020
0030
0000
0002
0003
0000
0200
0000
0310
1000
0000
0001
,
0000
0001
0100
0001
0000
0001
0100
0001
,
0000
1000
0100
1000
0010
1000
0100
0010
,
0002
0000
0023
0000
0230
0000
2300
3020
,
0000
0230
0000
0000
0302
0000
0023
0230
,
0000
0000
0320
0000
0031
0200
0000
0302
,
0000
0013
0200
0000
0320
0200
0000
0330
,
2200
0000
0000
3300
2002
0000
0000
3003
,
0202
0000
0000
0303
0220
0000
0330
2020
,
0000
0000
0000
0000
0000
0000
3030
0000
0022
0000
0000
0000
0000
0030
0013
0000
,
0000
0001
0010
0001
0010
0000
0001
0000
0010
0000
0000
0000
0001
0000
0000
0000
,
0010
0001
0100
0010
1000
0000
0010
0100
,
0001
0000
0100
0010
1000
0000
0001
0020
,
0000
0031
0100
0002
0000
0000
1003
0000
,
2002
0000
3003
2002
0000
0000
3003
0000
,
0100
0010
0100
0010
1000
0000
0001
1000
,
0010
0000
1000
0010
0100
0000
0001
0020
,
0000
0031
0010
0200
0000
0300
0000
0000
,
2002
0000
3003
2002
0000
0000
0000
3003
,
0010
1000
0100
0010
0001
0000
0100
0001
,
0010
0000
0010
0001
0010
0000
0001
0020
,
0000
0031
0010
0200
0000
0300
2000
0000
,
3001
0010
0010
0002
0000
0000
0003
0000
,
2001
0000
3001
0000
0100
0010
0100
0000
,
1010
0000
1010
0000
2010
0000
3200
0320
,
0000
0000
0000
0000
0031
0100
0010
2000
,
0000
0000
3000
0001
0000
0100
0010
0000
1000
0000
0100
0000
1000
0000
0100
0000
,
1000
0100
1000
0100
1000
0010
1000
0010
,
1000
0010
1000
0010
1000
0010
0100
0010
,
0100
0010
0100
0010
0100
0001
0100
0001
,
0100
0001
0100
0001
0020
0000
0230
0000
,
0302
0000
0203
0000
1300
0010
0200
0300
,
0200
0000
0310
2000
0000
0000
0000
3000
,
1000
0200
0000
0310
0000
0010
0200
0300
,
0002
0000
0203
0000
0301
0100
0001
0100
,
0001
0100
0001
0100
0001
0010
0001
0010
,
0001
0010
0001
0010
0001
0100
0010
0100
,
0010
0100
0010
0100
0010
1000
0010
1000
,
0010
1000
0010
1000
0200
0000
0000
0000
,
2300
0000
3200
0000
,
0320
0000
0000
0032
0003
0201
0000
0000
,
0301
0100
0000
0020
0030
0010
1000
0000
,
1001
0000
0110
0000
0001
0100
1000
0100
,
0001
0100
1000
0100
0001
0100
1000
0100
,
0000
0010
0000
1000
0000
1000
0100
0010
,
0000
0001
0100
0010
0000
1000
0100
0010
,
0000
0001
0100
0000
0001
0010
0100
0010
,
0001
0010
0100
0010
0001
0010
0100
0010
,
0001
0010
0100
0010
1100
0000
0110
0000
,
0011
0101
0110
1010
,
1100
0000
0110
0000
0000
0001
0100
0001
,
0000
0001
0100
0001
0000
0001
0100
0001
,
0000
0001
0100
0001
0000
0001
0100
0001
,
0000
0001
0100
0001
0000
0001
0100
0001
,
0010
0001
0100
0010
0000
1000
0100
1000
,
0000
1000
0100
1000
0000
1000
0100
1000
,
0000
1000
0100
1000
0000
1000
0100
1000
,
0000
1000
0100
1000
0000
0000
0000
0000
,
0000
0000
0000
0000
1000
0001
0010
0000
,
0010
0001
1000
0000
1000
0010
0100
0010
,
0000
1000
0000
0200
0000
0300
1000
0100
,
0010
0000
0001
0100
0010
0000
1000
0100
,
0001
0100
1000
0000
0001
1000
0010
0000
,
0010
1000
0001
0000
0001
0010
0100
0000
,
0100
0000
0020
0200
0000
0330
0000
0000
,
1000
0010
0000
0100
0000
0100
0010
0000
,
1000
0000
0001
0000
0000
1000
0001
1000
,
0000
0100
1000
0001
0000
0100
0010
1000
,
0000
1100
0000
0110
0000
0100
1000
0010
,
0000
0010
1000
0100
0000
0100
1000
0010
,
0000
0010
1000
0000
0020
0000
1030
0100
,
0010
0000
0001
0010
0100
0000
0001
0010
,
0002
0000
0013
0002
0000
0000
1003
0000
,
0000
0001
0010
0000
0001
0000
1000
0000
,
0001
0000
0000
1000
0000
0000
0200
0000
0000
0300
0000
0000
0010
0000
0001
0000
2000
0000
0002
0000
0000
0000
0000
0000
,
3003
0000
0000
0000
;

//--------------- dance-single - Blood4Fame ----------------
#NOTES:
     dance-single:
     Blood4Fame:
     Challenge:
     12:
     0,0,0,0,0:
0000
0000
0000
0000
,
1000
0001
0010
0100
0010
0001
1000
0001
,
1000
0010
0100
0010
1000
0001
0000
0220
,
0000
0330
1000
0100
0010
0000
0001
0100
,
0010
0000
1000
0100
0001
0100
1000
0000
,
0001
1000
0010
0100
0010
1000
0001
1000
,
0001
0010
0100
0010
0001
1000
0000
0220
,
0000
0330
0001
0100
0010
0000
1000
0100
,
0010
0000
0001
0100
1000
0100
0001
0000
,
0000
0100
0001
1000
0000
0100
1000
0001
,
0000
0100
0010
1000
0000
1100
0000
0110
,
0000
0100
1000
0010
0000
0010
1000
0100
,
0000
0100
1000
0010
0000
0010
1000
0100
,
0000
0100
1000
0100
0000
0100
1000
0010
,
0000
1000
0100
0010
0000
0100
0010
0001
,
0000
0100
0001
0010
0000
0001
0010
0100
,
1000
0000
1001
0000
1000
0001
0200
0300
,
0100
0001
0010
0001
0100
0010
1000
0100
,
2000
0000
3001
1000
0020
0000
1030
0200
,
0000
1300
0100
0010
0001
0100
0010
1000
,
0002
0000
0013
0001
0200
0000
1300
0200
,
0000
0000
0300
0000
0022
0033
0000
0202
0303
0000
2020
3030
0010
1000
0000
0001
,
0000
0001
0100
0001
0000
0001
0100
0001
,
0000
0000
0001
1000
0001
0000
1000
0000
0010
0000
1000
0000
0100
0000
0010
0000
,
0002
0000
0023
0000
0230
0000
2300
3020
,
0000
0230
0000
0000
0302
0000
0023
0230
,
0000
0000
0300
0100
0020
0000
0000
0000
0031
0000
0200
0000
0000
0000
0302
0000
,
0000
0000
0013
0000
0200
0000
0000
0000
0310
0200
0000
0000
0000
0000
0300
0000
,
2200
0000
0000
3300
2002
0000
0000
3003
,
0202
0000
0000
0303
0220
0000
0330
2020
,
0000
0000
0000
0000
0000
0000
3030
0000
0022
0000
0000
0000
0000
0030
0013
0000
,
0000
0001
0010
0001
0010
0000
0001
0000
0010
0000
0000
0000
0001
0000
0000
0000
,
0010
0001
0100
0010
1000
0100
0010
0100
,
1000
0001
0100
0010
1000
0010
0100
0002
,
0000
0013
0100
2000
0000
3000
1000
0000
,
2000
0000
0002
0000
0000
3000
2000
0000
0000
0000
0000
0000
0000
0000
3003
0000
,
0100
0010
0100
1000
0010
0100
0001
1000
,
0010
0100
0001
0010
0100
0010
0001
0020
,
0000
0031
0010
0200
0000
0300
1000
0000
,
2000
0002
3000
2000
0000
0000
0003
3000
,
0010
1000
0100
0010
0001
0010
0100
1000
,
0010
0100
0010
1000
0010
0100
0001
0020
,
0000
0031
0010
0200
0000
0300
2000
0000
,
3001
0010
0100
2000
0000
0000
0000
3000
,
2001
0000
3001
0000
0100
0010
0100
0000
,
1010
0000
0110
0000
2010
0000
3200
0320
,
0000
0000
0000
0000
0031
0100
0010
2000
,
0000
0000
3000
0001
0000
0100
0010
0000
1000
0010
1000
0010
1000
0010
1000
0010
,
1000
0010
1000
0010
1000
0010
1000
0010
1000
0100
1000
0100
1000
0100
1000
0100
,
1000
0100
1000
0100
1000
0100
1000
0100
1000
0100
0010
0100
0010
0100
0010
0100
,
0010
0100
0010
0100
0010
0100
0010
0100
0010
0001
0010
0001
0010
0001
0010
0001
,
0010
0001
0010
0001
0010
0001
0010
0001
0020
0000
0000
0000
0230
0000
0000
0000
,
0302
0000
0203
0000
1300
0010
0200
0300
,
0200
0000
0310
2000
0000
0000
0000
3000
,
1000
0200
0000
0310
0000
0010
0200
0300
,
0011
0000
0000
0000
0110
0000
0000
0000
0001
0100
0001
0100
0001
0100
0001
0100
,
0001
0100
0001
0100
0001
0100
0001
0100
0001
0010
0001
0010
0001
0010
0001
0010
,
0001
0010
0001
0010
0001
0010
0001
0010
0001
0010
0100
0010
0100
0010
0100
0010
,
0100
0010
0100
0010
0100
0010
0100
0010
0100
1000
0100
1000
0100
1000
0100
1000
,
0100
1000
0100
1000
0100
1000
0100
1000
0200
0000
0000
0000
0000
0000
0000
0000
,
2300
0000
3200
0000
,
0320
0000
0000
0032
0003
0201
0000
0000
,
0301
0100
0000
0210
0000
0310
1000
0000
,
1001
0000
0110
0000
0001
0010
1000
0010
,
0001
0010
1000
0010
0001
0010
1000
0010
,
0000
0011
0000
0101
0000
1000
0100
0010
,
0000
0001
0100
0010
0000
1000
0100
0010
,
0000
0001
0100
0010
1000
0010
0100
0010
,
1000
0010
0100
0010
1000
0010
0100
0010
,
1000
0000
0000
0010
0000
0000
0100
0000
0000
0010
0000
0000
1000
0000
0100
0000
1000
0000
0100
0000
0010
0000
0100
0000
,
0010
0001
0010
0001
0100
0001
0100
0010
0100
0010
1000
0010
,
0100
0000
0010
0000
1000
0000
0100
0000
0010
0000
0001
0000
0000
0000
0000
0001
0000
0000
0100
0000
0000
0001
0000
0000
,
0000
0001
0100
0001
0000
0001
0100
0001
,
0000
0001
0100
0001
0000
0001
0100
0001
,
0000
0000
0001
0000
0100
0000
0001
0000
0000
0000
0001
0100
0001
0000
0100
0000
,
0010
1000
0100
0010
0000
1000
0100
1000
,
0000
1000
0100
1000
0000
1000
0100
1000
,
0000
1000
0100
1000
0000
1000
0100
1000
,
0000
1000
0100
1000
0000
0000
0001
0000
,
0100
0010
0110
0000
1000
0001
0010
0100
,
0010
0001
1000
0001
1000
0010
0100
0010
,
1000
0001
0000
0220
0000
0330
1000
0100
,
0010
0000
0001
0100
0010
0000
1000
0100
,
0001
0100
1000
0000
0001
1000
0010
0100
,
0010
1000
0001
1000
0001
0010
0100
0000
,
2000
0000
3020
0200
0000
0330
0000
0000
,
0001
0010
0001
0100
0000
0100
0010
0000
,
1010
0000
1001
0000
0000
0100
0001
1000
,
0000
0100
1000
0001
0000
0100
0010
1000
,
0000
1100
0000
0110
0000
0100
1000
0010
,
0000
0010
1000
0100
0000
0100
1000
0010
,
0000
0010
1000
0100
0020
0000
0031
0100
,
0020
0000
1030
0010
0200
0000
0301
0010
,
0002
0000
0013
0002
0000
0000
1003
0010
,
0000
0001
0010
0100
1000
0000
1001
0000
,
1000
0000
0000
0001
0000
0000
0200
0000
0000
0300
0000
0000
0010
0000
1000
0000
0002
0000
2000
0000
0000
0000
0000
0000
,
3003
0000
0000
0000
;
