#TITLE:Ain't My Type of Hype;
#SUBTITLE:;
#ARTIST:Full Force;
#TITLETRANSLIT:;
#SUBTITLETRANSLIT:;
#ARTISTTRANSLIT:;
#GENRE:R&B;
#CREDIT:Blood4Fame;
#MUSIC:Ain't My Type of Hype.mp3;
#BANNER:Banner.png;
#BACKGROUND:BG.png;
#CDTITLE:;
#SAMPLESTART:56.488;
#SAMPLELENGTH:18.975;
#SELECTABLE:YES;
#OFFSET:-0.044;
#BPMS:0.000=110.000
,36.000=111.000
,44.000=110.000
,84.000=109.000
,88.000=110.000
,100.000=111.000
,104.000=110.000
,140.000=111.000
,144.000=110.000
,165.000=109.000
,168.000=110.000
,204.000=111.000
,212.000=109.000
,216.000=110.000
;
#STOPS:;
#BGCHANGES:;
#FGCHANGES:;

//--------------- dance-single - Blood4Fame ----------------
#NOTES:
     dance-single:
     Blood4Fame:
     Beginner:
     3:
     0,0,0,0,0:
0000
0000
0000
0000
,
0000
0000
0000
0000
,
0100
0100
0000
0000
,
1000
1000
0000
0000
,
0100
0100
0000
0000
,
0001
0001
0000
0000
,
0100
0100
0000
0000
,
0010
0010
0000
0000
,
0100
0100
0000
0000
,
0100
0000
0000
0000
,
1001
0000
0010
0000
,
0100
0000
0001
0000
,
1100
0000
0010
0000
,
0100
0000
1000
0000
,
1010
0000
0100
0000
,
0001
0000
0010
0000
,
0110
0000
0001
0000
,
1010
0000
1010
0000
,
0202
0000
0000
0303
,
2020
0000
0000
3030
,
2002
0000
0000
3003
,
0010
0010
0010
0100
,
0110
0000
1000
0000
,
1010
0000
0001
0000
,
0110
0000
0001
0000
,
1100
0000
0110
0000
,
0001
0000
1000
0000
,
0010
0000
1000
0000
,
0100
0100
0000
0001
,
0001
0000
1000
1000
,
1000
0000
0010
0000
,
0100
0000
0001
0000
,
1000
1000
1000
0000
,
0001
0001
0001
0000
,
0100
0000
0010
0000
,
0100
0000
1000
0000
,
0010
0010
0010
0000
,
0100
0100
0100
0000
,
0001
0001
0001
0000
,
1000
1000
1000
0000
,
0001
0000
0010
0000
,
0100
0000
0010
0000
,
0022
0033
0100
0000
,
2020
3030
0100
0000
,
2002
3003
0100
0000
,
0001
0000
0100
0000
,
1000
0000
0010
0000
,
0100
0000
0001
0000
,
1000
1000
1000
1000
,
0001
0001
0001
0001
,
0010
0000
0100
0000
,
0010
0000
0001
0001
,
0100
0000
0010
0000
,
1000
1000
1000
1000
,
0100
0000
0010
0000
,
1000
0000
0001
0000
,
0100
0100
0100
0000
,
0010
0010
0010
0000
;

//--------------- dance-single - Blood4Fame ----------------
#NOTES:
     dance-single:
     Blood4Fame:
     Easy:
     5:
     0,0,0,0,0:
1001
0000
0000
1001
0000
0000
0000
0000
,
0000
0000
1000
0000
2000
0000
3000
0000
0000
0000
0000
0000
0200
0000
0000
0300
,
1001
0010
0000
0001
,
1000
0010
0000
1000
,
0110
1000
0000
0100
,
1000
0100
0010
0100
,
1001
0010
0000
0010
,
0100
1000
0000
0100
,
1010
0000
0000
1010
0000
0000
0010
0000
,
0110
0000
0000
0110
0000
0000
0100
0000
,
0001
0010
0100
0010
,
1000
0010
0010
1000
,
0010
0100
0100
0010
,
0001
1000
0011
1100
,
2002
3003
1000
1000
,
0010
0001
0001
0100
,
0010
1000
1000
0100
,
0101
0110
1010
1100
,
0022
0033
2000
3000
,
0220
0330
0020
0030
,
2200
3300
0020
0030
,
2000
3200
0320
0032
,
2003
3010
1000
0001
,
0010
0100
0010
0001
,
0010
0100
0010
0100
,
1001
0110
1001
0100
,
2200
3300
0022
0033
,
0220
0330
2020
3030
,
0002
0003
1000
0000
0010
0000
0001
0000
,
0002
0000
0023
0000
0230
0000
2300
3000
,
0022
0033
2200
3300
,
0220
0330
0202
0303
,
2100
3000
0011
0000
1000
0000
1000
0000
,
0000
0000
0000
0100
,
0010
0001
0010
0000
,
0010
0100
1000
0010
,
0000
0001
0001
0010
,
0000
0010
1000
0010
,
0100
0010
0001
0010
,
0000
0100
0010
1000
,
0200
0300
1000
0000
0200
0300
0000
0000
,
1001
0000
0000
0110
0000
0000
0000
0000
,
2200
3300
0202
0303
,
0220
0330
0000
0010
,
0022
0000
0033
0000
0200
0300
1001
0000
,
0200
0320
0230
0320
,
0031
0001
0010
1001
,
0100
0110
1000
0101
,
0001
0010
0010
1000
,
1001
0110
1001
0010
,
0100
0010
0000
1100
,
2020
3030
0202
0303
,
0102
0003
1010
0000
0100
0000
0001
0000
,
0002
0000
0203
0000
0320
0000
2030
3000
,
0202
0303
2020
3030
,
2200
3300
0022
0033
,
2010
3000
0101
0000
0010
0000
1000
0000
,
2010
3000
0101
0000
1001
0000
0000
0000
;

//--------------- dance-single - Blood4Fame ----------------
#NOTES:
     dance-single:
     Blood4Fame:
     Medium:
     6:
     0,0,0,0,0:
1001
0010
0010
1001
0010
0010
0000
0000
,
0000
0000
0000
0000
0000
0000
0010
0000
1000
0000
0000
0000
0200
0000
0000
0300
,
1001
0001
0010
0000
0000
0010
0001
0000
,
1000
1000
0010
0000
0000
0010
1000
0000
,
0110
0000
1000
0000
0000
0001
0100
0000
,
1000
1000
0100
0000
0010
0001
0100
0000
,
1001
0000
0010
0000
0000
0100
0010
0000
,
0100
0100
1001
0000
0000
0010
0100
0000
,
0010
0010
0100
0000
0000
0001
0010
0000
,
0010
0010
0000
1001
0000
0000
0100
0010
,
0001
0000
0010
0001
0010
1000
0010
0000
,
1000
0000
0010
0000
0010
0000
1000
0200
,
0310
0001
0100
0000
0100
0001
0010
0010
,
0001
0001
1000
1000
0011
0000
1100
0000
,
2002
0000
3003
0000
1000
0100
1000
0000
,
0010
0010
0001
0000
0001
0010
0100
2000
,
3010
0010
1000
0000
1000
0010
0100
0001
,
0101
0110
1010
1100
,
0022
0030
0013
0000
2000
0000
3100
0010
,
0220
0300
0230
1300
0000
0200
0000
0300
,
2100
0100
3001
0002
0003
0000
0001
0010
,
1000
1000
0100
0100
0010
0010
0001
0001
,
2000
0010
3010
0000
0010
1000
0001
0100
,
0010
0010
0100
0000
0010
0100
1000
0100
,
0010
0001
0010
1000
0010
0001
0010
0000
,
1001
0000
0110
0000
1001
0000
0100
0010
,
2200
0300
3100
0000
0002
0000
0013
0100
,
0220
0030
0320
0030
2000
0000
3010
0000
,
0002
0013
1000
0100
0010
0000
0001
0000
,
0002
0000
0023
0000
0230
0000
2300
3000
,
0022
0030
0013
0000
2000
0000
3100
0010
,
0220
0300
0230
0300
0002
0000
0103
0000
,
2100
3100
0011
0010
1000
0000
1000
0000
,
1000
1000
0100
0100
0100
0000
0100
0001
,
0010
0000
0010
0000
0010
1000
0000
0010
,
0010
0000
0100
0010
1000
0000
0010
1000
,
0000
0001
0001
0010
0001
0000
0010
0010
,
0000
1000
0010
0001
0010
0000
0010
1000
,
0100
0000
0010
0001
0010
0000
0010
0100
,
0000
0010
0100
1000
0010
0010
1000
0000
,
0200
0300
1000
0010
0200
0300
0000
0001
,
1001
1001
0000
0220
0330
0000
0000
0000
,
2200
0300
3100
0000
0002
0010
0103
0100
,
0220
0030
0320
0130
0000
0002
0013
0000
,
0012
0020
0033
2100
0200
3300
1001
2002
,
3003
0000
0010
0000
0100
1000
0010
0100
,
0001
0011
0010
1001
,
0100
0110
1000
0101
,
0001
1000
0010
0001
0010
0100
1000
0001
,
1001
0000
0110
0000
1001
0000
0010
0100
,
0100
0001
0010
0000
0000
0100
1100
0000
,
2020
0030
3010
0000
0002
0000
0103
0010
,
0102
0103
1010
0010
0100
0000
0001
0000
,
0002
0000
0203
0000
0320
0000
2030
3000
,
0202
0300
0103
0000
2000
0000
3010
0100
,
2200
0300
3100
0000
0002
0000
0013
0100
,
2010
3010
0101
0100
0010
0000
1000
0000
,
2010
0000
3010
0000
0101
0000
0100
0020
0030
0000
0000
0000
0000
0000
0000
0000
;

//--------------- dance-single - Blood4Fame ----------------
#NOTES:
     dance-single:
     Blood4Fame:
     Hard:
     8:
     0,0,0,0,0:
0010
1001
1001
0100
1001
1001
0000
0000
,
0000
0000
0000
0000
0000
0000
0100
1000
0001
0000
0000
0000
0020
0000
0000
0030
,
1001
0000
1000
0000
0100
0000
0000
0010
0000
0000
0100
0000
1000
0000
0000
1000
,
0001
0000
0001
0000
0100
0000
0000
0010
0000
0000
0100
0000
0001
0000
0000
0000
,
0110
0000
0100
0000
0001
0000
0000
0010
0000
0000
1000
0000
0010
0000
0000
0100
,
0001
0000
0001
0000
0010
0000
0000
1000
0100
0000
0001
0100
0010
0000
1000
0000
,
1001
0000
0001
0000
0100
0000
0000
0001
0000
0000
0010
0000
0100
0000
0000
1000
,
0010
0000
0010
0000
1001
0000
0000
1001
0000
0000
0100
0000
0010
0000
0000
0001
,
0100
0000
0100
0000
0010
0000
0000
0010
0000
0000
1000
0000
0100
0000
0000
1000
,
0100
1000
0100
0010
0000
0000
1001
0000
0000
0000
0000
0000
0010
0000
0100
0010
,
1000
0000
0000
1000
0100
0000
1000
0000
0100
0000
0001
0000
0100
0000
0000
0000
,
0001
0000
0000
0001
0100
0000
0000
0010
0100
0000
0000
0100
0001
0000
0020
0000
,
0130
0000
1000
0000
0010
0000
0000
0100
0010
0000
1000
0010
0100
0000
0100
0010
,
1000
1000
0001
0001
1100
1000
0011
0001
,
2002
0000
0000
0000
3003
0000
0000
0100
0001
0000
0010
0000
0001
0000
0000
0000
,
0100
0000
0100
0000
1000
0000
0000
0010
1000
0000
0100
0000
0010
0000
0002
0000
,
0103
0000
0100
0000
0001
0000
0000
1000
0001
0000
0100
0000
0010
0000
1000
0000
,
1010
1010
0110
0110
0101
0101
0011
0011
,
2200
0000
0300
0000
3100
0000
0000
0020
0002
0000
0030
0000
0013
0000
0100
0000
,
0220
0000
0030
0000
0320
0000
0031
2000
0000
3100
0020
0000
0000
0000
0030
0000
,
0012
0010
1003
2000
3000
0000
1000
0100
,
0001
0001
0010
0010
0100
0100
1000
1000
,
0002
0000
0100
0000
0103
0000
0000
0010
0100
0000
0001
0000
1000
0000
0010
0000
,
0100
0000
0100
0000
0010
0000
0000
1000
0100
0000
0010
0000
0001
0000
0010
0000
,
0100
1000
0100
0001
0100
1000
0100
0010
,
1001
0000
0000
0000
0110
0000
0000
0000
1001
0000
0000
0100
0010
0000
0100
0000
,
0022
0000
0030
0000
0013
0000
0000
0200
2000
0000
0300
0000
3100
0000
0010
0000
,
0220
0000
0300
0000
0230
0000
0300
1000
0002
0000
0000
0000
0103
0000
0000
0000
,
2100
0000
3100
0000
0011
0000
0010
0002
0000
1000
0000
0000
1003
0000
0000
0000
,
1000
0000
0000
1000
0100
0000
0000
0100
0010
0000
0000
0010
0001
0000
0001
0000
,
2200
0000
0300
0000
3100
0000
0000
0020
0002
0000
0030
0000
0013
0000
0100
0000
,
0220
0000
0030
0000
0320
0000
0030
0001
2000
0000
0000
0000
3010
0000
0000
0000
,
0012
0000
0013
0000
1100
0000
0100
2000
0000
0001
0000
0000
3001
0000
0000
0000
,
0001
0000
0001
0000
0010
0000
0010
0100
0000
0000
0000
0000
0010
0000
1000
0010
,
0100
0000
0000
0001
0100
0010
0000
0010
0100
0000
0001
0100
0000
1000
0100
0000
,
0100
0001
0000
0001
0010
0000
0100
0010
0001
1000
0000
0010
0100
0000
0001
0100
,
0000
0010
1000
0001
1000
0000
0100
0000
1000
0001
0000
0001
0100
0010
0100
0010
,
0000
1000
0001
0010
0100
0000
1000
0000
0100
0010
0000
0010
0100
0010
0001
0100
,
0010
1000
0000
1000
0100
0000
1000
0001
0100
0010
0000
0010
0000
0100
0010
1000
,
0000
1000
0000
0100
0010
0000
0001
0010
0100
1000
0100
0010
0001
1000
0000
0100
,
0020
0000
0030
0010
0001
0000
0100
0000
0020
0000
0030
1000
0000
0100
1000
0000
,
1001
1001
0000
0220
0330
0000
0000
0000
,
0022
0000
0030
0000
0013
0000
0000
0200
2300
0000
0100
0000
3010
0000
0010
0000
,
0220
0000
0300
0000
0230
0000
0310
1000
0000
0001
2000
0000
3100
0000
0000
0000
,
2100
0200
3300
0012
0020
0033
1001
2002
,
3003
0000
0000
0000
0100
0000
0000
0100
0010
0000
0001
0000
0100
0000
0010
0000
,
1000
1100
0100
1001
,
0010
0110
0001
1010
,
1000
0000
0001
0010
0100
0000
1000
0001
0100
0000
0010
0100
0001
0000
1000
0000
,
1001
0000
0000
0000
0110
0000
0000
0000
1001
0000
0000
0010
0100
0000
0010
0000
,
1010
1000
0100
0000
0000
0010
0011
0000
,
0202
0000
0300
0000
0103
0000
0000
0020
2000
0000
0030
0000
3010
0000
0100
0000
,
2010
0000
3010
0000
0101
0000
0100
0002
0000
1000
0000
0000
1003
0000
0000
0000
,
1000
0000
0000
1000
0010
0000
0000
0010
0100
0000
0000
0100
0001
0000
0001
0000
,
2020
0000
0030
0000
3010
0000
0000
0200
0002
0000
0300
0000
0103
0000
0010
0000
,
0022
0000
0030
0000
0013
0000
0000
0200
2000
0000
0300
0000
3100
0000
0010
0000
,
0102
0000
0103
0000
1010
0000
0010
2000
0000
0001
0000
0000
3001
0000
0000
0000
,
0102
0000
0103
0000
1010
0000
0010
2000
0000
3000
0000
0000
0000
0000
0000
0000
;
